#TITLE:ENDYMION;
#SUBTITLE:(25th Anniversary Special);
#ARTIST:fallen shepherd ft. RabbiTon Strings;
#BANNER:ENDYMION (25th Anniversary Special)-bn.png;
#BACKGROUND:ENDYMION (25th Anniversary Special)-bg.png;
#JACKET:ENDYMION (25th Anniversary Special)-jacket.png;
#MUSIC:ENDYMION (25th Anniversary Special).ogg;
#SAMPLESTART:33.269;
#SAMPLELENGTH:20;
#DISPLAYBPM:220;
#BPMS:0=220;
#STOPS:321.75=1.363;
#BGCHANGES:;

//---------------dance-single - ----------------
#NOTES:
     dance-single:
     :
     Challenge:
     16:
     :
0000
0000
0000
0000
,
0000
0000
0000
0000
,
0000
0000
0000
0000
,
0000
0000
0000
0000
,
0000
0000
0000
0000
,
0000
0000
0000
0000
,
0000
0000
0000
0000
,
1000
0100
0000
0001
0100
0000
1001
0000
,
0110
0000
1000
0010
0000
0001
0010
0000
,
1001
0000
0110
0000
1000
0100
0000
0010
,
0100
0000
1100
0000
0101
0000
0001
0010
,
0000
0100
0010
0000
0011
0000
1010
0000
,
0001
1000
0000
0010
0100
0000
0101
0000
,
1100
0000
0010
1000
0000
0100
0001
0000
,
0011
0000
1100
0000
0001
0010
0000
0100
,
1000
0000
0000
0000
1100
0000
0000
0000
0011
0000
0000
0000
1000
0000
0000
0001
,
0000
0000
0100
0000
0000
0010
0000
0000
1000
0000
0100
0000
0001
0000
0000
0000
,
0010
0001
0010
0100
1000
0010
1000
0001
,
0100
0010
1000
0100
0010
0001
0010
0100
,
1000
0001
1000
0010
0100
1000
0100
0001
,
0100
0010
1000
0001
1000
0100
0001
0100
,
1000
0010
1000
0001
0100
0010
0100
0001
,
1000
0100
0001
0100
1000
0001
1000
0010
,
0001
0010
1000
0100
0010
0100
0001
0100
,
1000
0000
0000
0001
0000
0000
0100
0000
0000
0010
0000
0000
1000
0000
0100
0000
1000
0000
0200
0000
0000
0000
0000
0000
,
0310
0001
0010
0002
0000
0000
1003
0010
1000
0020
0000
0000
,
0130
0000
0001
0000
0100
0000
0002
0000
0000
0000
0000
0000
1003
0000
0001
0000
1000
0000
0001
0000
0000
0100
0000
0000
,
0010
0000
1000
0000
0010
0000
1000
0000
0000
0001
0000
0000
0010
0000
0100
0000
0010
0000
0100
0000
0000
1000
0000
0000
,
0001
0000
0100
0000
0001
0000
0100
0000
0000
0010
0000
0000
1000
0000
0000
1000
0000
0000
0100
0000
0000
0100
0000
0000
,
0001
0001
0010
0010
0100
0100
0010
0010
,
0001
0001
1000
1000
0020
0000
0000
0200
,
0000
0000
0330
0000
0001
1000
0000
0001
,
1000
0000
0001
1000
1001
0000
0010
0100
,
0010
1000
0100
0010
0001
0100
0001
0010
,
1000
0100
0001
0010
0011
0000
0100
1000
,
0010
1000
0001
0010
0100
0010
0001
0100
,
0010
1000
0001
0100
1010
0000
0001
0010
,
1000
0010
0001
0100
0010
1000
0001
0000
,
0001
0100
0010
1000
1100
0000
0001
0000
,
0101
0000
0000
1000
0000
0000
0010
0100
0010
0100
0010
0100
,
0010
0100
0010
0100
0010
0100
0001
0000
0000
1001
0000
0000
,
0110
0000
0000
1000
0001
0000
0100
0000
0010
0000
0010
0000
0010
0000
1000
0000
,
0100
0001
0100
1000
0010
0000
0101
0000
,
1100
0000
0000
0001
1000
0000
0100
0000
0010
0000
0001
0000
0100
0000
0010
0000
,
1000
0100
1000
0001
0100
0000
0101
0000
,
1010
0000
0000
0010
1000
0000
0001
0000
0100
0010
0000
0010
1000
0000
0001
0000
,
1000
0100
0010
0001
1000
0100
1000
0100
,
0001
0100
0001
0100
0110
0000
0110
0000
,
0001
0001
1000
1000
1010
0000
0101
0000
,
1100
0000
0000
0001
0100
0000
0110
0000
0000
0000
1001
0000
0000
0000
0010
0000
,
1000
0000
0001
0100
0001
0000
1000
0000
0000
0000
0001
0000
0100
0000
0010
0000
,
1000
0000
0100
0000
1000
0000
0001
0000
0010
0000
0100
1000
0100
0000
0010
0000
,
0001
1000
0001
0000
0100
0000
0000
0000
0101
0000
0000
0000
0011
0000
0000
0000
,
1001
0000
0000
0010
1000
0000
1100
0000
0000
0000
0101
0000
0000
0000
0010
0000
,
1000
0000
0100
0010
0100
0000
1000
0000
0001
0000
1000
0010
1000
0000
0001
0000
,
0100
0010
0100
1000
0100
0001
0010
0001
,
1000
0100
0001
0000
0011
0000
0110
0000
,
1100
0000
0000
0010
1000
0000
1001
0000
0000
0000
0101
0000
0000
0000
0010
0000
,
1000
0000
0001
0100
0001
0000
1000
0000
0100
0000
0010
0000
0001
0000
0100
0000
,
0001
0000
0010
0000
1000
0000
0100
0000
0001
0000
0010
0100
0010
0000
0001
0000
,
1000
0000
0000
0100
0000
0000
1000
0000
0000
0000
0000
0000
0010
0000
0000
0000
0000
0000
0000
0000
0000
0000
0000
0000
1000
0000
0000
0000
0100
0000
0000
0000
1000
0000
0000
0000
0100
0000
0000
0000
1000
0000
0000
0000
0100
0000
0000
0000
,
0010
0000
0000
0001
0000
0000
1000
0000
0000
0010
0000
0000
0100
0000
0001
0000
0100
0000
0001
0000
0100
0000
0001
0000
,
0010
0100
1000
0001
2002
0000
3003
0000
,
0220
0000
0330
0000
2000
3020
0230
0302
,
2003
3200
0320
0032
0103
0010
1000
0001
,
0010
0000
0000
1000
0000
0000
0010
0000
0000
0001
0000
0000
1000
0000
0100
0000
1000
0000
0100
0000
0010
0000
0001
0000
,
1000
0000
0010
0000
0100
0000
0001
1000
0001
0000
0010
0000
0100
0000
1000
0000
,
0010
0100
0001
1000
0010
0100
1000
0100
,
0001
0000
0010
0000
0100
0000
1000
0001
1000
0000
0010
0000
0100
0000
0001
0000
,
0010
0000
0000
0000
0000
0000
0100
0000
0000
0000
0000
0000
1000
0000
0000
0001
0000
0000
1000
0000
0000
0000
0000
0000
0010
0000
0000
0000
0100
0000
0000
0000
0001
0000
0000
0000
0010
0000
0000
0000
0100
0000
0000
0000
1000
0000
0000
0000
,
0001
0000
0100
0000
0010
0000
1000
0100
1000
0000
0001
0000
0010
0000
0100
0000
,
0001
0000
0000
0100
0000
0000
1000
0000
0000
0010
0000
0000
0100
0000
0001
0000
0100
0000
0010
0000
1000
0000
0010
0000
,
1000
0000
0000
0000
0100
0000
0000
0000
1000
0000
0000
0000
0001
0000
0000
0000
0010
0000
0000
0000
0001
0000
0000
0000
0100
0000
0000
0000
0000
0000
0000
0000
0000
0010
0000
0000
0000
0000
0000
0000
0000
0000
1000
0000
0000
0000
0000
0000
,
0001
0000
0000
0010
0000
0000
1000
0000
0100
0000
0000
0010
0000
0000
0001
0000
,
1000
0000
0010
0000
1000
0001
1000
0001
0100
0000
0000
0010
0000
0000
1000
0000
,
0100
0000
0000
0001
0000
0000
0010
0000
0100
0000
1000
0000
0010
0000
0100
0000
,
0001
0000
0010
0000
0001
1000
0001
1000
0100
0000
0000
0010
0000
0000
0100
0000
,
1000
0000
0000
0010
0000
0000
0001
0000
1000
0000
0000
0001
0000
0000
0010
0000
,
0100
0000
0000
1000
0000
0000
0001
0000
1000
0000
0000
1000
0000
0000
1000
0000
,
1000
0000
0000
1000
0000
0000
1000
0000
0001
0000
0100
0000
0010
0000
1000
0000
,
0100
0010
0100
0010
0001
1000
0001
1000
0010
0000
1000
0000
0000
0000
0100
0000
,
0001
0000
0011
0000
1100
0000
1000
0100
,
0000
0001
0010
0000
1001
0000
0110
0000
,
0010
0100
0000
0001
1000
0000
0101
0000
,
1010
0000
1000
1000
0000
0001
0001
0000
,
0110
0000
1001
0000
0010
1000
0000
0001
,
0010
0000
0100
1000
0000
0001
0100
0000
,
0001
0000
0000
0010
0000
0000
0100
0000
0000
1000
0000
0000
0000
0000
0000
0000
0000
0000
0001
0000
0000
0000
0001
0000
,
0100
0000
0100
0010
0000
0010
1000
0000
1000
0100
0000
0100
,
0010
0001
1000
0001
0100
0010
2000
0000
0000
3000
0100
0010
,
0001
0000
0001
0000
0001
0000
1000
0000
0100
0000
1000
0000
,
1100
0000
0000
0101
0000
0000
1000
0010
1000
0010
1000
0010
,
0100
0001
0100
0001
0100
0001
1000
0100
1000
0100
1000
0100
,
0010
0000
0001
0000
0010
0000
0001
0000
0010
0000
0001
0000
1000
0000
0000
0010
0000
0000
0100
0000
0000
1000
0000
0000
,
0100
0001
0010
0100
0001
0100
1000
0010
,
1000
0100
0001
0010
1000
0001
0010
1000
,
0100
0001
0100
0010
0100
1000
0010
0001
,
1000
0000
0001
0000
0010
0100
1000
0001
0100
0000
0100
0000
0100
0000
0001
1000
,
0001
0100
0100
0100
0000
1000
1000
0100
,
0100
0001
0001
0010
0011
0000
1001
0000
,
1010
0000
0000
0010
0100
0000
0001
0000
1000
0000
1000
0000
0001
0000
0010
0000
,
0001
0001
0000
0100
0010
1000
0010
0100
,
0001
0001
0000
1000
1000
1000
0000
0010
,
0010
0010
0010
0010
0010
0010
0010
0010
,
0010
0000
0000
0110
,
1000
0000
0000
0000
0000
0001
0000
0000
0000
0000
0010
0000
0000
0000
0000
0100
0000
0000
0000
0000
2000
0000
0000
0000
0000
0000
0000
0000
0000
0000
3002
0000
,
0000
0000
0000
2003
0000
0000
0000
0000
,
0000
0000
0000
0000
,
0000
0000
0000
3000
;
