#TITLE:EL DIA FELIZ;
#SUBTITLE:;
#ARTIST:Wilma de Oliveira;
#TITLETRANSLIT:;
#SUBTITLETRANSLIT:;
#ARTISTTRANSLIT:;
#GENRE:;
#CREDIT:;
#BANNER:EL DIA FELIZ-bn.png;
#BACKGROUND:EL DIA FELIZ-bg.png;
#LYRICSPATH:;
#CDTITLE:;
#MUSIC:EL DIA FELIZ.ogg;
#OFFSET:0.000000;
#SAMPLESTART:8.889000;
#SAMPLELENGTH:20.000000;
#SELECTABLE:YES;
#DISPLAYBPM:108.000000;
#BPMS:0.000000=108.000000
;
#STOPS:
;
#BGCHANGES:;
#KEYSOUNDS:;
#ATTACKS:;

//---------------dance-single - ----------------
#NOTES:
     dance-single:
     :
     Challenge:
     13:
     0.611530,0.523739,0.399965,0.075669,1.178276,396.000000,359.000000,37.000000,7.000000,0.000000,0.000000,0.611530,0.523739,0.399965,0.075669,1.178276,396.000000,359.000000,37.000000,7.000000,0.000000,0.000000:
0000
0000
0000
0000
,
0000
0000
0000
0000
,
1001
0000
0000
1010
0000
0000
0000
0000
1001
0000
0000
0011
0000
0000
0000
0000
,
1001
0000
0000
0000
0000
0000
0000
0000
0000
1100
0000
0000
0000
0000
0000
0000
0000
0000
0000
0000
0000
0000
0000
0000
1001
0000
0000
0000
0000
0000
0000
0000
0000
0101
0000
0000
0000
0000
0000
0000
1000
0000
0000
0000
0001
0000
0000
0000
,
2000
0000
0000
0000
3002
0000
0000
0010
0000
0013
0000
0001
0100
0000
0010
0000
,
1000
0100
0000
1000
0000
0001
0000
0100
0000
0010
0000
0100
0000
0001
1000
0001
,
0000
0100
0000
0000
0110
0000
0010
1000
0000
0001
0000
0010
0001
0100
0001
0100
,
0001
1000
0000
0010
0000
1000
0000
0200
0000
0000
0000
0000
0310
0001
0010
0001
,
1001
0000
0000
0000
0000
0000
0000
0000
0000
1001
0000
0000
0000
0000
0000
0000
0000
0000
1001
0000
0000
0000
0000
0000
1000
0000
0000
0000
0100
0000
0000
0000
0010
0000
0000
0000
0001
0000
0000
0000
0000
0000
0100
0000
0000
0000
0000
0000
,
0010
0000
0000
1000
0000
0000
0000
0000
0000
0100
0000
0000
0000
0000
0000
0010
0000
0000
0000
0000
0001
0000
0000
0000
0100
0000
0000
0010
0000
0000
0000
0000
0000
1000
0000
0000
0001
0000
0000
0000
0000
0000
0000
0000
0100
0000
0000
0000
,
0001
0000
0000
0000
0010
0000
0000
0000
0100
0000
0000
0000
1000
0000
0000
0000
0001
0000
0000
0000
1000
0000
0000
0000
0100
0000
0000
0000
0000
0000
0000
0000
0000
0010
0000
0000
0001
0000
0000
0100
0000
0000
0000
0000
0000
0100
0000
0000
,
0010
1000
0000
0001
1000
0010
0000
1000
0100
0010
0000
0010
0001
0000
0000
0100
,
0001
1000
0000
0001
1000
0000
0100
0010
0002
0000
0000
0000
0103
0010
0100
0000
,
0101
0000
0001
1000
0000
0001
0000
0010
0000
0001
0000
0100
0000
0010
0000
1000
,
0000
0100
0000
1000
0000
0001
0100
0000
0010
1000
0000
0010
1000
0001
0000
0100
,
0001
0010
0001
0010
0000
0100
0000
1000
0001
0100
0010
0000
1000
0000
0001
0000
,
0011
0000
0000
1100
0000
0000
0101
0000
0000
1100
0000
0000
1001
0000
0110
0000
,
1000
0000
0001
0010
0001
0100
0000
0010
0000
1000
0000
0100
0000
0100
0000
0010
,
0001
0000
0100
0010
1000
0000
0001
1000
0100
0000
0010
0001
1000
0010
0000
0100
,
0010
1000
0000
0001
0000
1000
0000
0100
0000
0010
0000
0001
0000
0100
0001
0000
,
0010
0000
0100
1000
0000
1000
0000
0001
1000
0010
1000
0010
0000
0000
0110
0000
,
0001
0100
0000
0001
1000
0000
0010
0000
1000
0100
0000
0010
0001
0100
0000
0010
,
0100
0000
0001
1000
0000
0010
0000
1000
0100
0000
0010
0001
0000
1000
0001
1000
,
0010
0100
0000
0001
0000
0010
0000
0001
0000
1000
0000
0010
0000
0100
0000
0010
,
1010
0000
0000
0000
0000
0000
0000
0000
0000
0101
0000
0000
0000
0000
0000
0000
0000
0000
1100
0000
0000
0000
0000
0000
0001
0000
0000
0000
0010
0000
0000
0000
0100
0000
0000
0000
1000
0000
0000
0000
0000
0000
1001
0000
0000
0000
0000
0000
,
0020
0000
0000
0000
0230
0000
0000
0001
0000
0301
0000
0000
1000
0100
1000
0100
,
0010
0001
0000
0100
0000
0001
0000
1000
0000
1000
0000
1000
0000
0010
0100
0001
,
0000
1000
0000
0000
0101
0000
0010
1000
0000
0001
0000
0010
0100
1000
0001
1000
,
0100
0010
0000
0001
0000
1000
0000
0002
0000
0000
0000
0103
0010
1000
0001
0000
,
0011
0000
0100
1000
0000
0001
0000
1000
0000
0010
0000
0100
0000
0001
0000
1000
,
0000
0001
0000
0010
0001
0100
0000
0010
0000
1000
0100
1000
0000
0001
0000
0100
,
0010
0000
0000
1000
0000
0000
0010
0000
0000
1000
0000
0000
0000
0000
0000
0000
0001
0000
0000
0000
0010
0000
0000
0000
0100
0000
0000
1000
0000
0000
0000
0000
0000
0001
0000
0000
1000
0000
0000
0000
0000
0000
0010
0000
0000
0000
0000
0000
,
0110
0000
0000
1010
0000
0000
0101
0000
0000
0011
0000
0000
1100
0000
0101
0000
,
1000
0000
0001
0010
0000
0001
0100
0000
0010
0000
1000
0100
0000
0010
0000
0001
,
1000
0000
0001
0100
0000
0010
0000
1000
0010
0100
0001
1000
0000
0010
0000
0100
,
0010
0000
0000
1000
0000
0000
0000
0000
0000
0001
0000
0000
0000
0000
0000
0010
0000
0000
0000
0000
0000
0001
0000
0000
0000
0000
0000
0100
0000
0000
0000
0000
0000
0010
0000
0000
0000
0000
0000
1000
0000
0000
0000
0000
0100
0000
0000
0000
,
1000
0000
0001
0100
0000
0001
0000
1000
0010
0100
0010
0100
0000
0000
1001
0000
,
0010
1000
0010
0100
0000
0000
1001
0000
0001
0010
0001
0100
0000
0010
0000
1000
,
0001
0000
0010
0100
0000
1000
0000
0001
1000
0000
0010
0100
0000
0001
1000
0001
,
0100
0010
0000
1000
0000
0001
0000
0010
0000
0001
0000
0100
0000
0010
0000
1000
,
1100
0000
0000
0110
0000
0000
0011
0000
0000
0000
0000
0000
0000
0000
0000
0000
;

//---------------dance-single - ----------------
#NOTES:
     dance-single:
     :
     Hard:
     11:
     0.492621,0.480094,0.367536,0.302677,1.005318,319.000000,285.000000,34.000000,28.000000,0.000000,0.000000,0.492621,0.480094,0.367536,0.302677,1.005318,319.000000,285.000000,34.000000,28.000000,0.000000,0.000000:
0000
0000
0000
0000
,
0000
0000
0000
0000
,
1001
0000
0000
1010
0000
0000
0000
0000
1001
0000
0000
0011
0000
0000
0000
0000
,
1001
0000
0000
1100
0000
0000
0000
0000
1001
0000
0000
0101
0000
0000
0000
0000
,
0020
0000
0000
0000
2030
0000
0000
0100
0000
3100
0000
0000
0000
0000
0000
0000
,
1000
0001
0000
0010
0000
0001
0000
0100
0000
0100
0000
0100
0000
0000
0000
0000
,
0000
0000
0000
0000
0010
0000
1000
0001
0000
1000
0000
0000
0000
0000
0000
0000
,
0001
0010
0000
0001
0000
1000
0000
0200
0000
0000
0000
0000
0300
0000
0000
0000
,
1001
0000
0000
0000
0000
0000
0000
0000
0000
1001
0000
0000
0000
0000
0000
0000
0000
0000
1001
0000
0000
0000
0000
0000
1000
0000
0000
0000
0001
0000
0000
0000
1000
0000
0000
0000
0001
0000
0000
0000
0000
0000
0100
0000
0000
0000
0000
0000
,
0010
0000
0000
1000
0000
0000
0000
0000
0000
0010
0000
0000
0000
0000
0000
0100
0000
0000
0000
0000
0001
0000
0000
0000
1000
0000
0000
0001
0000
0000
0000
0000
0000
0010
0000
0000
0000
0000
0000
0100
0000
0000
0000
0000
1000
0000
0000
0000
,
0001
0000
0000
0000
1000
0000
0000
0000
0001
0000
0000
0000
0100
0000
0000
0000
0010
0000
0000
0000
1000
0000
0000
0000
0002
0000
0000
0000
0000
0000
0000
0000
0000
0000
0000
0000
0000
0000
0000
0013
0000
0000
0000
0000
0000
0001
0000
0000
,
0100
0001
0000
1000
0100
1000
0000
1000
0010
0100
0000
0100
0001
0000
0000
0010
,
0001
0100
0000
0010
1000
0000
0001
1000
0200
0000
0000
0000
0000
0310
0100
0000
,
2100
0000
0000
0001
0000
0001
0000
3001
0000
1000
0000
0010
0000
1000
0000
0010
,
0000
0100
0000
0001
0000
1000
0002
0000
0000
0013
0000
0001
0000
0100
0000
0002
,
0000
0000
0000
0000
0000
0000
0000
0000
0000
0000
0000
0000
0000
0000
0000
0000
0013
0000
0000
0000
0100
0000
0000
0000
1000
0000
0000
0002
0000
0000
0000
0000
0000
0000
0000
0000
0103
0000
0000
0000
0000
0000
0010
0000
0000
0000
0000
0000
,
0110
0000
0000
1001
0000
0000
1010
0000
0000
0101
0000
0000
0011
0000
1100
0000
,
0001
0000
1000
0000
0010
0100
0000
0001
0000
1000
0000
0100
0000
0010
0000
0010
,
0002
0000
0000
0103
0000
0010
0000
1000
0200
0000
0000
0310
0000
0001
1000
0001
,
0100
0000
0000
0001
0000
0000
0000
0000
0000
1000
0000
0000
0000
0000
0000
0001
0000
0000
0000
0000
0000
0010
0000
0000
0000
0000
0000
0100
0000
0000
0000
0000
0000
1000
0000
0000
0000
0000
0000
0001
0000
0000
0000
0000
1000
0000
0000
0000
,
0010
0000
0100
0001
0000
0001
0000
1000
0001
1000
0001
0100
0000
0000
1010
0000
,
0002
0000
0000
2003
0000
0000
3010
0000
2000
0000
0000
3100
0000
0010
0000
0001
,
0200
0000
0000
0310
0000
1000
0000
0001
0020
0000
0000
0130
0000
1000
0001
1000
,
0010
1000
0000
0100
0000
0010
0000
0001
0000
0100
0000
0010
0000
1000
0000
0000
,
1100
0000
0000
0000
0000
0000
0000
0000
0000
0110
0000
0000
0000
0000
0000
0000
0000
0000
0011
0000
0000
0000
0000
0000
1000
0000
0000
0000
0001
0000
0000
0000
1000
0000
0000
0000
0001
0000
0000
0000
0000
0000
0100
0000
0000
0000
0000
0000
,
0020
0000
0000
0000
2030
0000
0000
0001
0000
3001
0000
0000
0000
0000
0000
0000
,
0010
0001
0000
0010
0000
0100
0000
1000
0000
1000
0000
1000
0000
0000
0000
0000
,
0000
0000
0000
0000
0010
0000
0100
0001
0000
0100
0000
0000
0000
0000
0000
0000
,
0001
1000
0000
0010
0000
1000
0000
0200
0000
0000
0000
0000
0000
0310
0001
0000
,
0102
0000
0000
1000
0000
1000
0000
1003
0000
0001
0000
0010
0000
0001
0000
0010
,
0000
0100
0000
1000
0000
0001
0200
0000
0000
0310
0000
1000
0000
0001
0000
2000
,
0000
0000
0000
0000
0000
0000
0000
0000
3001
0000
1000
0000
0010
0000
0000
0100
0000
0000
0001
0000
0000
1000
0000
0000
,
1001
0000
0000
1010
0000
0000
1100
0000
0000
0110
0000
0000
0011
0000
1100
0000
,
0001
0000
1000
0000
0010
0100
0000
0001
0000
1000
0000
0100
0000
0010
0000
0010
,
0002
0000
0000
1003
0000
0001
0000
0010
0200
0000
0000
1300
0000
0010
0000
1000
,
0001
0000
0000
0100
0000
0000
0000
0000
0000
0001
0000
0000
0000
0000
0000
0010
0000
0000
0000
0000
0000
0100
0000
0000
0000
0000
0000
1000
0000
0000
0000
0000
0000
0001
0000
0000
0000
0000
0000
0001
0000
0000
0000
0000
1000
0000
0000
0000
,
0100
0000
0010
0001
0000
0001
0000
1000
0010
0100
0010
0100
0000
0000
0101
0000
,
0020
0000
0000
1030
0000
0000
1100
0000
0002
0000
0000
0103
0000
0001
0000
1000
,
0200
0000
0000
0310
0000
0001
0000
0100
0002
0000
0000
1003
0000
0001
0100
0010
,
1000
0001
0000
0010
0000
0001
0000
0100
0000
0010
0000
1000
0000
1000
0000
0000
,
1001
0000
0000
0101
0000
0000
0011
0000
0000
0000
0000
0000
0000
0000
0000
0000
;

//---------------dance-single - ----------------
#NOTES:
     dance-single:
     :
     Medium:
     9:
     0.359814,0.392804,0.086479,0.345916,0.194578,233.000000,225.000000,8.000000,32.000000,0.000000,0.000000,0.359814,0.392804,0.086479,0.345916,0.194578,233.000000,225.000000,8.000000,32.000000,0.000000,0.000000:
0000
0000
0000
0000
,
0000
0000
0000
0000
,
1000
0000
0000
1000
0000
0000
0000
0000
0010
0000
0000
0010
0000
0000
0000
0000
,
0001
0000
0000
0001
0000
0000
0000
0000
0100
0000
0000
0100
0000
0000
0000
0000
,
0010
0000
0000
0000
1000
0000
0000
0100
0000
0000
0010
0000
0001
0000
0000
0000
,
1000
0001
0010
0001
0010
0100
1000
0001
,
1000
0000
1001
0000
0010
1000
0100
0000
,
0010
0001
0010
0001
2000
0000
3000
0000
,
0001
0000
0000
0001
0000
0000
0001
0000
0000
0000
0000
0000
0000
0000
0100
0000
,
0010
1000
0001
0000
0010
0001
0100
0000
,
0001
1000
0001
1000
0200
0000
0000
0010
,
0310
0001
0100
0000
0001
0010
1000
0000
,
0100
0010
0001
1000
0002
0000
0000
0010
,
0013
0000
0001
0100
0001
0000
1000
0100
,
1000
0000
0000
0001
0000
0000
0020
0000
0000
0000
0000
0000
0030
0000
0000
0002
,
0000
0000
0000
1000
1003
0001
0100
0010
,
1000
0000
0000
1000
0000
0000
1000
0000
0000
1000
0000
0000
1000
0000
1000
0000
,
0001
0000
0200
0000
0000
0000
0000
0310
0000
2000
0000
0000
0000
3100
0000
0000
,
2000
0000
0000
3002
0000
0000
0013
0000
0002
0000
0000
0203
0000
0000
0310
0000
,
1000
0100
1000
0010
0100
0001
1000
0001
,
0010
0000
0010
0000
0001
0000
0100
0000
0001
0000
0000
1000
0000
0000
1010
0000
,
0200
0000
0000
0302
0000
0000
1003
0000
0200
0000
0000
0320
0000
0000
0031
0000
,
2000
0000
0000
3002
0000
0000
0013
0000
0200
0000
0000
0320
0000
0000
0031
0000
,
1000
0001
0010
0001
0100
0010
1000
0100
,
0010
0000
0000
0010
0000
0000
0010
0000
0000
0000
0000
0000
0000
0000
0000
0000
,
0001
0000
0000
0000
1000
0000
0000
0001
0000
0000
1000
0000
0100
0000
0000
0000
,
0010
0001
0010
0100
1000
0001
1000
0010
,
0100
0000
0110
0001
1000
0001
0100
0000
,
0001
0010
0001
0100
2000
0000
0000
0010
,
3010
0000
1000
0100
0010
0000
0001
1000
,
0001
0000
0000
0000
0100
0000
0010
0000
2000
0000
0000
0000
3000
0000
0000
0002
,
0000
0000
0000
0100
0103
0010
0100
0001
,
1000
0000
0000
1000
0000
0000
1000
0000
0000
1000
0000
0000
1000
0000
1000
0000
,
0001
0000
0020
0000
0000
0000
0000
0031
0000
2000
0000
0000
0000
3010
0000
0000
,
2000
0000
0000
3002
0000
0000
0013
0000
0200
0000
0000
2300
0000
0000
3001
0000
,
0100
0001
0100
0010
1000
0100
1000
0001
,
0100
0000
0100
0000
0010
0000
1000
0000
0001
0000
0000
0100
0000
0000
1001
0000
,
0010
0000
0000
1000
0000
0000
0110
0000
1000
0000
0000
0001
0000
0000
0100
0000
,
0002
0000
0000
0023
0000
0000
0130
0000
2000
0000
0000
3002
0000
0000
1003
0000
,
0010
1000
0100
0010
0001
0100
0001
1000
,
1001
0000
0000
0110
0000
0000
1001
0000
0000
0000
0000
0000
0000
0000
0000
0000
;

//---------------dance-single - ----------------
#NOTES:
     dance-single:
     :
     Easy:
     6:
     0.245539,0.261869,0.302677,0.194578,0.000000,159.000000,131.000000,28.000000,18.000000,0.000000,0.000000,0.245539,0.261869,0.302677,0.194578,0.000000,159.000000,131.000000,28.000000,18.000000,0.000000,0.000000:
0000
0000
0000
0000
,
0000
0000
0000
0000
,
2002
3003
0220
0330
,
2002
3003
0220
0330
,
0010
1000
0001
0000
,
0010
0001
0100
0010
,
1000
1100
0101
0000
,
0001
0100
2000
3000
,
1001
1001
0010
0100
,
0001
0001
1000
1000
,
0001
1000
0100
0000
,
0010
0010
0001
0001
,
1000
0001
0100
0000
,
1010
1000
0001
1000
,
0100
0100
0100
0000
,
0020
0030
0001
1000
,
0101
0101
0101
0101
,
2000
3000
0002
0003
,
0010
0001
0100
0001
,
1000
0010
1000
0100
,
0110
0000
0000
0000
0001
0000
0000
0000
0200
0000
0000
0300
0000
0000
1001
0000
,
0000
0000
0000
0010
1000
0000
0100
0000
,
0010
0001
1000
0010
,
1000
0001
1000
0010
,
0101
0101
1000
0001
,
0010
0100
1000
0000
,
0010
1000
0100
0010
,
0001
0011
1010
0000
,
0100
0001
2000
3000
,
1100
0001
0010
0001
,
0100
0100
0100
0000
,
0020
0030
1000
0001
,
1010
1010
1010
1010
,
0002
0003
2000
3000
,
0001
0100
0001
1000
,
0010
0010
1000
0001
,
0100
0000
0000
0000
0010
0000
0000
0000
2000
0000
0000
3000
0000
0000
1001
0000
,
0000
0000
0000
0110
0000
0000
0000
1000
,
0001
0010
0001
0100
,
0010
1000
0100
0010
,
0011
0000
0000
1001
0000
0000
0000
0000
;

//---------------dance-single - ----------------
#NOTES:
     dance-single:
     :
     Beginner:
     2:
     0.120453,0.130529,0.021620,0.021620,0.000000,78.000000,76.000000,2.000000,2.000000,0.000000,0.000000,0.120453,0.130529,0.021620,0.021620,0.000000,78.000000,76.000000,2.000000,2.000000,0.000000,0.000000:
// measure 0
0000
0000
0000
0000
,  // measure 1
0000
0000
0000
0000
,  // measure 2
1000
0000
0001
0000
,  // measure 3
0100
0000
0010
0000
,  // measure 4
1000
0000
0001
0000
,  // measure 5
0010
0000
0100
0000
,  // measure 6
0000
1000
1000
0000
,  // measure 7
0001
0000
0100
0000
,  // measure 8
0010
0010
0000
0000
,  // measure 9
1000
0000
0001
0000
,  // measure 10
1000
0000
0100
0000
,  // measure 11
0010
0000
0001
0000
,  // measure 12
0100
0000
0010
0000
,  // measure 13
1000
0000
0000
0001
,  // measure 14
0001
0000
0100
0000
,  // measure 15
0010
0000
1000
0000
,  // measure 16
0002
0000
0000
0000
0000
0003
0000
0000
,  // measure 17
0010
0000
0100
0000
,  // measure 18
0010
0000
0100
0000
,  // measure 19
1000
0000
0010
0000
,  // measure 20
1000
0000
0001
0000
,  // measure 21
1001
0000
0100
0000
,  // measure 22
0010
0000
0100
0000
,  // measure 23
0001
0000
0010
0000
,  // measure 24
0100
0100
0000
0000
,  // measure 25
1000
0000
0001
0000
,  // measure 26
1000
0000
0010
0000
,  // measure 27
0000
0100
0100
0000
,  // measure 28
0001
0000
1000
0000
,  // measure 29
0001
0000
0000
0100
,  // measure 30
0100
0000
0010
0000
,  // measure 31
1000
0000
0001
0000
,  // measure 32
2000
0000
0000
0000
0000
3000
0000
0000
,  // measure 33
0010
0000
0100
0000
,  // measure 34
0010
0000
0100
0000
,  // measure 35
0001
0000
0010
0000
,  // measure 36
0001
0000
0100
0000
,  // measure 37
1001
0000
0100
0000
,  // measure 38
0010
0000
1000
0000
,  // measure 39
0100
0000
0010
0000
,  // measure 40
0001
0001
0000
0000
;
