#TITLE:EGOISM 110;
#ARTIST:BEMANI Sound Team "U1 Ground-Speed";
#BANNER:EGOISM 110-bn.png;
#BACKGROUND:EGOISM 110-bg.png;
#JACKET:EGOISM 110-jacket.png;
#MUSIC:EGOISM 110.ogg;
#SAMPLESTART:66.583;
#SAMPLELENGTH:20;
#DISPLAYBPM:110;
#BPMS:0=110;
#BGCHANGES:;

//---------------dance-single - ----------------
#NOTES:
     dance-single:
     :
     Beginner:
     3:
     :
0000
0000
0000
0000
,
0000
0000
0001
0000
,
1000
0000
1000
0000
,
0001
0000
0001
0000
,
1001
0000
0010
0000
,
0100
0000
0001
0000
,
0110
0000
0000
0000
,
1000
0000
0000
0000
,
0001
0000
0010
0000
,
0001
0000
1000
0000
,
1001
0000
0000
0000
,
0010
0000
0100
0000
,
0001
0000
0000
0001
,
0000
1000
0000
0100
,
0000
0010
0000
0001
,
0000
0100
0100
0000
,
1001
0000
0010
0000
,
0100
0000
0001
0000
,
0110
0000
1000
0000
,
0100
0000
0001
0000
,
0110
0000
0010
0000
,
1000
0000
0100
0000
,
0000
0000
1000
0000
,
0000
0000
0001
0000
,
0000
0000
0100
0000
,
0001
0000
1000
0000
,
0000
0000
0110
0000
,
0000
0000
0001
0000
,
1000
0000
0010
0000
,
0010
0000
0000
0100
,
0100
0000
1001
0000
,
0000
0000
1001
0000
,
0001
0000
0100
0000
,
0010
0000
0110
0000
,
1000
0000
0001
0000
,
0100
0000
0001
0001
,
0001
0000
1000
1000
,
1000
0000
0100
0100
,
0100
0000
0010
0010
,
0010
0000
0001
0000
,
1000
0000
0010
0000
,
1000
0000
0100
0100
,
0100
0000
0000
0000
;

//---------------dance-single - ----------------
#NOTES:
     dance-single:
     :
     Easy:
     6:
     :
0000
0000
0000
0000
,
0000
0000
0001
0001
,
0001
0000
0100
0000
,
0010
0000
1000
0000
,
1001
0100
0010
0010
,
0000
1000
0001
0100
,
0110
0000
0001
0000
,
1000
0000
0001
0000
,
0010
0001
0100
1000
,
0000
0001
1000
0010
,
0110
0000
1000
0000
,
0100
0000
0001
0000
,
0010
0001
0100
1000
,
0000
0010
1000
0001
,
0000
1000
0100
0001
,
0000
0010
0001
0100
,
1001
1000
0100
0001
,
0010
0001
0010
0100
,
1000
0000
0001
0000
,
0100
0010
1000
0000
,
0001
1000
0010
1000
,
0001
0000
0010
0100
,
0000
0000
0110
0000
,
0001
0000
0100
0000
,
1000
0001
1000
0010
,
0100
0001
0010
0100
,
0000
0000
1000
0000
,
0001
0000
1000
0100
,
0010
0010
0001
1000
,
0001
0010
0000
0100
,
1000
0001
2002
0000
,
0000
3003
0110
0001
,
0100
1000
0010
1000
,
0100
0001
1001
0000
,
0010
0001
0100
0010
,
1000
1000
1001
0010
,
1000
0001
0010
0001
,
0100
0010
0100
0001
,
0010
1000
0100
0010
,
0100
1000
0001
0001
,
1000
0010
1000
0100
,
0010
0001
0110
1001
,
0220
0000
0000
0000
,
0000
0000
0000
0000
,
0330
0000
0000
0000
;

//---------------dance-single - ----------------
#NOTES:
     dance-single:
     :
     Medium:
     9:
     :
0000
0000
0000
0000
,
0000
0000
0000
0000
0001
0001
0001
0001
,
0010
0000
0001
0000
0100
0010
1000
0000
,
0100
0000
0010
0000
0001
1000
0001
0000
,
1001
0000
0010
0000
1000
0100
1000
0000
,
0001
0000
0010
0000
0001
0100
0010
1000
,
0110
1000
0001
0100
,
0001
0010
0001
1000
,
0100
1000
0001
0000
0010
0001
0100
0000
,
0010
1000
0001
0000
1000
0010
0100
0001
,
0101
0010
1000
0001
,
1100
0010
1000
0001
,
0010
0100
1000
0000
1000
0001
1000
0100
,
0000
0010
0001
0000
0010
0001
0100
0100
,
0000
0001
1000
0000
0010
0000
1000
0001
,
0000
0010
0100
0000
1000
0001
0100
0010
,
1001
0000
0010
0100
0001
1000
0100
0000
,
0110
0000
0001
0100
0001
0010
0100
1000
,
0001
0000
0011
0000
0001
1000
0100
0000
,
1000
0010
0100
0001
,
2000
0000
3002
0000
0013
0001
0100
0001
,
1000
0000
0000
0010
1000
0001
1000
0200
,
0000
0300
0110
0001
,
0100
1000
0010
1000
,
0001
1000
0010
0100
0001
0010
0100
1000
,
0010
0000
1000
0001
1000
0010
0100
0002
,
0000
0003
0011
1100
,
0001
1000
0010
0100
0110
0000
0001
0000
,
1000
1000
1000
0000
0010
1000
0000
0001
,
0100
0000
0001
0000
0000
0010
0100
0000
,
1000
0010
1000
0000
2002
0000
0003
0000
,
0001
0000
3001
0000
1010
0000
0100
0001
,
1000
0000
0100
0010
0011
0000
1000
0001
,
1000
0000
0010
0100
0001
0000
0001
0100
,
1000
0000
0010
1000
0001
0000
0010
0001
,
0100
0010
1000
1000
0001
0100
0010
0100
,
0001
0010
0100
1000
0010
1000
0100
0010
,
0001
0100
0001
0010
0001
1000
0010
1000
,
0100
0010
0100
1000
0001
0010
0100
0010
,
0001
0100
0010
1000
1100
0000
0101
0000
,
1000
0001
0010
0100
0000
1000
1000
0000
,
0001
0100
0000
0010
1001
0000
0110
0000
,
0002
2000
0000
0000
0000
0000
0000
0000
,
0000
0000
0000
0000
,
3003
0000
0000
0000
;

//---------------dance-single - ----------------
#NOTES:
     dance-single:
     :
     Hard:
     12:
     :
0000
0000
0000
0000
,
0000
0000
0000
0000
0000
0000
0000
0000
0001
1000
0001
1000
0001
0000
0000
0000
,
0010
0001
0100
0010
1000
0001
1000
0000
,
0100
1000
0010
0100
0001
1000
0001
0000
,
1001
0010
0000
1000
0100
1000
0001
0100
,
0000
0010
1000
0100
1000
0010
0100
0001
,
0110
0000
1000
0001
1000
0010
0100
0001
,
0011
0000
0100
1000
0001
1000
0100
0000
,
0110
0000
0001
0000
1000
0000
0001
0000
0100
0000
0010
0000
1000
0100
1000
0100
,
0000
0000
0010
0000
0001
0000
0100
0000
0001
1000
0001
1000
0001
0000
0000
0000
,
0101
0000
1000
0010
1000
0100
0010
0001
,
1100
0000
0010
0100
1000
0001
0100
0000
,
0010
1000
0010
1000
0010
0000
0000
0100
0001
0000
0010
0000
0001
0000
1000
0000
,
0000
0000
0100
0000
0010
0001
0000
0000
1000
0000
0010
0000
1000
0001
0100
0000
,
0000
0000
0010
0000
0100
0000
0001
0000
0010
0000
0001
0000
1000
0000
0010
0100
,
0000
0100
0001
0000
0010
0000
0000
0001
1000
0000
0010
0000
1000
0001
0100
0000
,
1001
0000
0010
1000
0001
0010
0001
0100
,
0110
0000
0000
1000
0001
0000
1000
0000
0100
0000
0010
0000
0001
0000
0100
0000
,
0101
0010
1000
0100
1000
0010
0001
0100
,
1010
0001
1000
0010
1000
0100
0010
0001
,
0200
0320
2030
3002
0013
0100
1000
0001
,
0100
0000
0100
0010
1000
0100
0010
0001
,
0000
0100
0010
0000
1000
0010
1000
0100
,
0010
0100
0010
0001
0100
0010
0100
0001
,
1000
0100
0010
0001
1000
0001
0010
0001
,
0100
0000
0100
0010
1000
0001
0010
0100
,
0000
1000
1000
0000
1001
0010
0001
0100
,
0010
1000
0100
0001
0110
0000
1000
0010
,
0100
0001
0100
0001
0100
0000
0000
0000
0010
1000
0001
0100
0000
0000
0010
0000
,
1000
0000
0100
0000
1000
0001
0000
0000
0000
0010
0100
1000
0001
0000
0100
0000
,
0010
0000
1000
0000
0100
0010
0000
0000
2002
0000
0000
0000
0000
0000
3003
0000
,
0001
0000
1000
0000
0001
0000
1000
0000
1100
0000
0001
0000
0010
0001
1000
0001
,
0100
0000
0010
0000
1000
0000
0001
0000
0011
0000
0000
0000
1000
0100
1000
0000
,
0001
0000
0100
0000
0010
0000
1000
0000
1010
0000
0000
0001
0000
0001
0100
0000
,
0010
0000
1000
0000
0100
0000
0001
0000
0011
0000
0000
0000
0100
0001
0100
0001
,
0100
0010
0100
0010
1000
0000
1000
0000
0001
0000
0010
0000
0001
0000
0100
0000
,
0010
0000
1000
0000
0100
0010
0001
1000
0010
0000
0100
0000
0001
0000
0010
0000
,
0100
1000
0100
0010
0001
1000
0010
0000
0100
0000
0001
0000
0010
0001
0010
0100
,
1000
0001
0100
0000
0010
1000
0001
1000
0010
0000
0100
0001
1000
0000
0100
0000
,
0010
0100
0010
0001
0100
0010
1000
0000
0001
0001
0000
0000
1000
1000
0000
0000
,
0001
0000
0010
0000
0001
0000
1000
0100
0000
0000
0010
0001
0010
1000
0000
0000
,
0010
0001
0010
1000
0000
0000
0010
0001
0010
1000
0000
0000
0010
0001
0000
0000
,
0100
0010
2002
0000
0000
0000
0000
0000
0000
0000
0000
0000
0000
0000
0000
0000
,
0000
0000
0000
0000
,
3003
0000
0000
0000
;

//---------------dance-single - ----------------
#NOTES:
     dance-single:
     :
     Challenge:
     15:
     :
0000
0000
0000
0000
,
0000
0000
0000
0000
0000
0000
0000
0000
0001
1000
0001
1000
0001
0000
0001
0000
,
0010
0100
1000
0000
0010
0100
0001
0000
1000
0000
0001
0000
0100
0000
0000
0000
,
0010
1000
0100
0000
0010
0001
0100
0000
0010
0000
1000
0000
0001
0000
0000
0000
,
1001
0000
0010
0001
0100
0000
0010
1000
0100
0001
0100
1000
0100
0001
0100
0010
,
0000
0001
0100
0010
1000
0000
0100
1000
0010
1000
0100
1000
0001
0100
0010
0000
,
0110
0000
1000
0001
0000
0100
0000
0010
1000
0100
0010
0100
1000
0010
0100
0001
,
0000
0010
0001
0100
0000
1000
0000
0010
1000
0001
0100
0010
1000
0001
0100
0010
,
1000
0100
0000
0001
0000
0000
0010
0001
0100
1000
0100
0001
0100
0010
1000
0001
,
0000
0010
0001
1000
0100
0000
1000
0010
1000
0100
0010
0001
0100
0010
1000
0000
,
0101
0010
0000
1000
0100
1000
0001
0100
0000
0010
1000
0100
0001
0100
0010
0100
,
1000
1000
1000
1000
0000
0001
0100
0010
0100
0001
0010
0100
1000
0010
1000
0001
,
0100
0010
1000
0001
0100
0000
0000
0010
1000
0100
1000
0001
0100
0010
1000
0000
,
0000
0000
0001
0100
0001
1000
0000
0010
1000
0100
0010
0100
0010
0001
0100
0000
,
0000
0000
0010
1000
0100
0010
0001
0000
1000
0100
0010
0100
0001
0100
1000
0001
,
0000
0100
0010
0100
0001
1000
0000
0100
1000
0010
1000
0100
1000
0001
0010
0000
,
1100
0000
0001
0100
0001
0000
1000
0000
0010
1000
0100
1000
0001
0000
0100
0000
,
0110
0000
1000
0001
1000
0000
0010
0000
0100
0001
0100
0010
0100
0001
1000
0000
,
1010
0001
0000
1000
0100
1000
0001
0000
0010
0000
0001
0100
0000
0010
1000
0001
,
1000
0100
0010
0000
0001
0100
0001
0010
0100
0001
0100
1000
0100
0010
0001
1000
,
0020
0230
0302
2003
3200
0320
0032
0203
,
0310
0000
1010
0001
2000
3020
0230
0302
,
0003
0000
0010
0001
1000
0000
0010
0000
0100
0100
0100
0000
0001
0010
0001
1000
,
0100
0010
0001
0000
1000
0010
0100
0001
1000
1000
1000
0010
0100
0001
0000
1000
,
1000
0100
0001
0100
2000
0000
3020
0000
0230
0000
0302
0000
0023
0000
0032
0000
,
1003
0000
1100
0001
0020
0230
2300
3002
,
0103
0010
1000
0000
1000
0000
0000
0000
0001
0000
0010
0100
0000
1000
0010
1000
,
0000
0001
0100
0000
0010
0100
0010
1000
0100
0010
0000
0001
1000
0000
0001
0000
,
0100
0100
0100
0010
1000
0000
0001
0100
0001
0010
0100
1000
0000
0000
0010
0100
,
0010
1000
0100
0010
0001
0001
0000
0000
0000
0010
0001
1000
1000
0000
0010
1000
,
0100
0010
0001
0100
0010
1000
0000
0000
2002
0000
0000
0000
0000
0000
3003
0000
,
0001
1000
0001
1000
0001
1000
0001
1000
0010
0000
1000
0100
0001
0100
1000
0001
,
0100
0000
0010
1000
0100
0000
0010
0000
0011
0000
0100
1000
0001
0100
0001
0000
,
0010
0001
0010
0100
0000
1000
0100
1000
1010
0000
0100
0001
0010
0100
0001
0100
,
1000
0000
0010
1000
0100
0000
0001
0000
0011
0000
0100
1000
0010
0100
0001
0000
,
1000
0100
0001
0100
1000
0000
1000
0000
0010
0100
0001
0100
0010
0100
1000
0100
,
0001
0010
0100
0001
0100
0010
0100
1000
0001
0100
0010
0100
0001
1000
0001
0010
,
0100
0001
0100
1000
0010
0100
0010
1000
0100
0001
0100
0010
0100
0001
0100
1000
,
0010
0100
0010
0001
0010
1000
0001
1000
0100
0010
1000
0010
0001
0100
0010
0100
,
0001
0010
0100
1000
0001
0010
0100
1000
1010
1010
0000
0000
0101
0101
0000
0000
,
0010
0010
0100
0100
1000
0001
1000
0001
0000
0010
0001
0100
1000
1010
0000
0100
,
0001
1000
0010
0110
0000
0100
0010
1000
0001
0011
0000
0010
0100
1100
0000
0001
,
1000
0010
0101
0000
1100
0000
0202
0000
0000
0000
0000
0000
0000
0000
0000
0000
,
0000
0000
0000
0000
,
0303
0000
0000
0000
;
