#VERSION:0.83;
#TITLE:ECSTASY;
#SUBTITLE:(25th Anniversary Special);
#ARTIST:d-complex;
#TITLETRANSLIT:;
#SUBTITLETRANSLIT:;
#ARTISTTRANSLIT:;
#GENRE:;
#ORIGIN:;
#CREDIT:;
#BANNER:ECSTASY (25th Anniversary Special)-bn.png;
#BACKGROUND:ECSTASY (25th Anniversary Special)-bg.png;
#PREVIEWVID:;
#JACKET:ECSTASY (25th Anniversary Special)-jacket.png;
#CDIMAGE:;
#DISCIMAGE:;
#LYRICSPATH:;
#CDTITLE:;
#MUSIC:ECSTASY (25th Anniversary Special).ogg;
#OFFSET:0.000000;
#SAMPLESTART:13.218000;
#SAMPLELENGTH:20.000000;
#SELECTABLE:YES;
#DISPLAYBPM:9.000000:150.000000;
#BPMS:0.000=145.259,
96.000=72.000,
98.000=71.000,
100.000=70.093,
102.000=68.182,
102.500=65.217,
103.000=62.500,
103.500=60.000,
104.000=145.278,
184.000=8.959,
184.500=8.801,
185.000=150.313;
#STOPS:;
#DELAYS:;
#WARPS:;
#TIMESIGNATURES:0.000=4=4;
#TICKCOUNTS:0.000=4;
#COMBOS:0.000=1;
#SPEEDS:0.000=1.000=0.000=0;
#SCROLLS:0.000=1.000;
#FAKES:;
#LABELS:0.000=Song Start;
#BGCHANGES:;
#KEYSOUNDS:;
#ATTACKS:
;

//---------------dance-single - ----------------
#NOTEDATA:;
#CHARTNAME:;
#STEPSTYPE:dance-single;
#DESCRIPTION:;
#CHARTSTYLE:;
#DIFFICULTY:Challenge;
#METER:16;
#RADARVALUES:0.695065,0.906130,0.077076,0.192691,0.756313,505.000000,497.000000,8.000000,20.000000,0.000000,0.000000,0.000000,0.000000,0.000000,0.695065,0.906130,0.077076,0.192691,0.756313,505.000000,497.000000,8.000000,20.000000,0.000000,0.000000,0.000000,0.000000,0.000000;
#CREDIT:;
#DISPLAYBPM:9.000000:150.000000;
#NOTES:
// measure 0
0000
0000
0000
0000
,  // measure 1
0000
0000
0000
0000
,  // measure 2
0000
0000
0000
0000
,  // measure 3
0000
0000
0000
0000
,  // measure 4
0001
0000
1000
0010
0000
1000
0010
0000
0000
0000
0000
0000
0000
0100
0000
0000
,  // measure 5
0100
0000
0001
0010
0000
0001
0010
0000
0000
1000
0100
0000
1000
0010
0000
1000
,  // measure 6
0001
0000
0010
0100
0000
0010
0100
0000
0000
0000
0000
0000
0000
1000
0000
0000
,  // measure 7
2000
3020
0230
0302
0000
0000
0000
0000
,  // measure 8
0013
0001
0100
0001
1000
0100
0010
0001
,  // measure 9
0100
0000
1000
0000
0100
0000
0001
0000
0000
0010
0001
0010
0100
0000
1000
0000
,  // measure 10
0001
0100
0001
0010
0100
1000
0010
0100
,  // measure 11
1000
0000
0100
0000
0001
0000
0010
0000
0000
0100
1000
0100
0010
0000
0001
0000
,  // measure 12
1010
0001
0100
0010
0100
1000
0100
0001
,  // measure 13
0010
0000
0001
0000
0100
0000
1000
0000
0000
0001
1000
0100
1000
0000
0010
0000
,  // measure 14
0100
0001
0100
0010
1000
0100
1000
0001
,  // measure 15
0010
0000
1000
0000
0010
0000
0001
0000
0100
0001
0100
1000
0100
0001
1000
0010
,  // measure 16
0100
0000
0001
0000
0010
0000
0001
0000
1000
0000
0100
0000
0001
0000
0010
0100
,  // measure 17
1000
0000
0010
0000
1000
0000
0001
0010
0100
0000
1000
0000
0001
0000
0100
0010
,  // measure 18
0100
0000
0001
0000
0010
0000
1000
0000
0010
0000
0100
0000
0010
0000
0001
1000
,  // measure 19
0010
0000
0100
0000
1000
0000
0100
0001
0010
0000
0100
0000
1000
0000
0001
0100
,  // measure 20
0001
0000
0000
0010
0100
0000
1000
0010
1000
0000
0000
0001
0100
0001
0000
1000
,  // measure 21
0001
0000
0010
0000
0100
0000
1000
0001
1000
0000
0010
0100
0001
0100
0010
1000
,  // measure 22
0001
0000
0010
0000
0100
1000
0100
1000
0001
0100
0001
0100
0010
1000
0001
0100
,  // measure 23
0001
0010
0001
0100
0001
0010
0001
0100
0001
1000
0010
0100
0001
0000
1000
0000
,  // measure 24
2020
0000
0000
0030
0002
0000
0000
3000
,  // measure 25
0020
0000
0000
0000
0000
0000
0003
0000
0200
0000
0000
0000
0000
0000
0000
0330
,  // measure 26
1001
0000
0000
0000
0100
0000
0001
0000
0000
0000
0010
0000
0100
0000
1000
0001
,  // measure 27
1000
0000
0010
0000
0100
0000
0001
0000
0000
0000
0010
0000
0100
0000
1000
0001
,  // measure 28
0100
0000
0010
0000
0100
0000
0001
0000
0010
0000
1000
0000
0010
0000
0001
1000
,  // measure 29
0100
0000
0010
0000
0001
0000
0100
0000
0010
1000
0001
1000
0010
0000
0100
0000
,  // measure 30
0101
0000
0010
0000
1000
0000
0100
0000
0010
0001
1000
0001
0100
0000
0010
1000
,  // measure 31
0010
0000
0100
0000
0001
0000
1000
0000
0100
0010
0001
0010
0001
1000
0100
0010
,  // measure 32
0001
0000
0100
0000
0001
0000
0010
0000
0100
1000
0001
0000
0100
0000
0010
1000
,  // measure 33
0001
0000
0010
0000
0001
0000
0100
0000
1000
0010
0100
0010
1000
0000
0001
0000
,  // measure 34
0012
0000
0000
0000
0103
0000
2000
0000
0000
0000
3010
0000
0100
0000
0001
0010
,  // measure 35
0001
0000
0100
0000
0001
0000
1000
0000
0000
0000
1000
0000
0100
0000
0010
0001
,  // measure 36
0010
0000
0100
0000
1000
0000
0001
0000
0000
0000
0001
0000
0010
0000
0100
1000
,  // measure 37
0020
0000
0100
0000
1000
0000
0130
0000
0002
0000
0010
0000
1003
0000
0001
0100
,  // measure 38
0010
0000
0000
0010
1000
0000
0001
0000
0000
0000
0000
0000
0000
0010
0000
0000
,  // measure 39
0001
0000
0000
0100
0000
0000
1000
0000
0000
0000
0010
0000
1000
0001
0000
1000
,  // measure 40
0001
0000
0010
0000
0001
0100
0010
1000
0100
0000
0010
0000
0001
1000
0010
0100
,  // measure 41
0001
0000
1000
0000
0100
0010
0001
1000
0010
0000
0100
0000
0010
1000
0001
0100
,  // measure 42
0010
1000
0000
0100
0001
0000
0010
0001
1000
0000
0010
0000
1000
0100
0000
0010
,  // measure 43
0001
0000
0100
0010
0000
1000
0010
0000
0100
0001
1000
0001
0000
0010
0000
0010
,  // measure 44
0100
1000
0100
1000
0100
0010
0100
0010
0001
0010
0001
0010
0001
1000
0001
1000
,  // measure 45
0010
0100
0001
1000
0010
0100
0001
1000
0010
0100
0001
1000
0100
0010
0001
0000
,  // measure 46
2200
0000
0000
0000
0000
0000
0000
0000
0000
0000
0000
0000
0000
0000
0000
0000
0000
0000
0300
0000
0000
0000
0000
0000
0002
0000
0000
0000
0000
0000
0000
0000
0000
0000
0000
0000
0000
0000
0000
0000
0000
0000
0000
0000
3003
0000
0000
0000
1001
0000
0000
0000
0000
0000
0000
0000
0000
0000
0000
0000
0000
0000
0000
0000
0000
0000
0000
0000
0000
0000
0000
0000
0000
0000
0000
0000
0000
0000
0000
0000
0000
0000
0000
0000
0010
0000
0000
0000
0000
0000
0000
0000
0000
0000
0000
0000
0000
0000
0000
0000
0000
0000
0000
0000
0000
0000
0000
0000
0000
0000
0000
0000
0000
0000
0000
0000
0000
0000
0000
0000
0100
0000
0000
0000
0000
0000
0000
0000
0000
0000
0000
0000
0001
0000
0000
0000
0000
0000
0000
0000
0000
0000
0000
0000
0000
0000
0000
0000
0000
0000
0000
0000
0000
0000
0000
0000
1000
0000
0000
0000
0000
0000
0000
0000
0000
0000
0000
0000
0000
0000
0000
0000
0000
0000
0000
0000
0000
0000
0000
0000
0010
0000
0000
0000
0000
0000
0000
0000
0000
0000
0000
0000
,  // measure 47
1000
0100
0000
0010
0001
0000
0000
0100
0000
0000
0010
1000
0000
1000
0001
0000
,  // measure 48
0010
0100
0000
0100
1000
0000
0001
1000
0000
0010
0100
0000
0001
0010
0100
0000
,  // measure 49
1000
0010
0000
0100
0001
0000
0010
0001
0000
1000
0010
0000
1000
0100
0010
0000
,  // measure 50
0100
1000
0000
0001
0100
0000
0010
1000
0010
0100
0010
1000
0100
0010
0001
0100
,  // measure 51
0001
0010
1000
0000
0100
0000
1000
0001
1000
0010
0100
0001
0010
0100
0010
0100
,  // measure 52
1000
0001
0100
0010
1000
0100
1000
0100
0001
0100
0001
0100
1000
0010
1000
0010
,  // measure 53
0001
0010
0001
0010
1000
0100
0010
0001
0100
0010
1000
0001
1000
0010
0100
0001
,  // measure 54
0010
0100
1000
0001
0200
0000
0000
0000
0000
0000
0320
0000
0000
0000
0000
0000
,  // measure 55
2030
3001
0101
0010
,  // measure 56
0020
0000
0000
0000
,  // measure 57
0030
0000
0000
0000
;
