#TITLE:Drop The Pressure;
#ARTIST:Mylo;
#BANNER:Drop The Pressure.png;
#BACKGROUND:Drop The Pressure-bg.png;
#JACKET:Drop The Pressure-jacket.png;
#MUSIC:Drop The Pressure.ogg;
#OFFSET:0.02;
#SAMPLESTART:59.46;
#SAMPLELENGTH:20;
#DISPLAYBPM:129;
#BPMS:0=129;
#BGCHANGES:0=Drop The Pressure.avi=1=1=0=0=StretchNoLoop==CrossFade==,
;

//---------------dance-single - ----------------
#NOTES:
     dance-single:
     :
     Beginner:
     4:
     :
0000
0000
0000
0000
,
0000
0000
0000
0000
,
0000
0000
0000
0000
,
0000
0000
0000
0000
,
1000
0000
1000
0000
,
0001
0000
0001
0000
,
1000
0000
1000
0000
,
0010
0000
0010
0000
,
0100
0100
0100
0000
,
0001
0000
0001
0000
,
1000
1000
1000
0000
,
0010
0000
0010
0000
,
0001
0001
0001
0000
,
1000
0000
1000
0000
,
0010
0010
0010
0000
,
0100
0000
0100
0000
,
1000
0000
0000
0000
,
0001
0000
0000
0000
,
0100
0000
0000
0000
,
0001
0000
0000
0000
,
1000
0000
0000
0000
,
0001
0000
0000
0000
,
0010
0000
0010
0000
,
1000
0000
1000
0000
,
0010
0010
0010
0010
,
0010
0010
0010
0000
,
0100
0100
0100
0100
,
0100
0100
0100
0000
,
0001
0001
0001
0000
,
1000
1000
1000
0000
,
0010
0010
0010
0010
,
0010
0010
0010
0000
,
0001
0000
0001
0000
,
1000
1000
1000
0000
,
0100
0000
0100
0000
,
0010
0010
0010
0000
,
1000
0000
0001
0000
,
1000
1000
1000
0000
,
0001
0000
0010
0000
,
0001
0001
0001
0000
,
0100
0000
0001
0000
,
0100
0100
0100
0000
,
0010
0000
1000
0000
,
0010
0010
0010
0000
,
1000
0000
0001
0000
,
1000
0000
0001
0000
,
0100
0000
0001
0000
,
0100
0000
1000
0000
,
0001
0000
0000
0000
;

//---------------dance-single - ----------------
#NOTES:
     dance-single:
     :
     Easy:
     5:
     :
0000
0000
0000
0000
,
0000
0000
0000
0000
,
0000
0000
0000
0000
,
0000
0000
0000
0000
,
2000
0000
0002
3000
,
1000
0000
1000
0003
,
0020
0000
0200
0030
,
0010
0000
0010
0300
,
1000
1000
0001
0000
,
1000
0100
1000
0000
,
0001
0001
1000
0000
,
0001
0100
0001
0000
,
1000
1000
0100
0000
,
1000
0010
1000
0000
,
0001
0001
0100
0000
,
0001
0010
0001
0000
,
0200
0000
0010
0300
,
0010
0010
0010
0000
,
0002
0000
1000
0003
,
1000
1000
1000
0000
,
0020
0000
0100
0030
,
0100
0100
0100
0000
,
2000
0000
0001
3000
,
0001
0001
0001
0000
,
0100
1000
0100
0000
,
0010
0001
0010
0000
,
0100
0001
0100
0000
,
0010
1000
0010
0000
,
1000
0100
1000
0000
,
0001
0100
0001
0000
,
1000
0010
1000
0000
,
0001
0100
0001
0000
,
0010
1000
0100
0000
,
0010
0001
0100
0000
,
0001
1000
0100
0000
,
1000
0001
0010
0000
,
0100
1000
0010
0000
,
0100
0001
0010
0000
,
0001
1000
0001
0000
,
1000
0001
1000
0000
,
0010
0100
0001
0000
,
0010
0100
1000
0000
,
0001
0010
0001
0000
,
1000
0010
1000
0000
,
0010
1000
0100
0000
,
0100
0001
0010
0000
,
0010
1000
0001
0000
,
0001
0100
1000
0000
;

//---------------dance-single - ----------------
#NOTES:
     dance-single:
     :
     Medium:
     8:
     :
0000
0000
0000
0000
,
0000
0000
0000
0000
,
0000
0000
0000
0000
,
0000
0000
0000
0000
,
0001
0001
1000
0001
,
0100
0100
0001
0001
,
1000
1000
0100
0010
,
0002
0003
2000
3000
,
0010
0010
1000
0001
,
1000
0001
1000
0000
0100
0000
0100
0000
,
1000
1000
0010
1000
,
0001
0010
0001
0000
0100
0000
0010
0000
,
0100
0100
0001
1000
,
0001
1000
0001
0000
0010
0000
0010
0000
,
0001
0001
0100
0001
,
1000
0010
1000
0000
0100
0000
0010
0000
,
0001
1000
0001
1000
,
0001
0100
0100
0010
,
0010
1000
0010
0001
,
0010
0100
1000
0001
,
0001
0010
0010
0001
,
1000
0010
0100
0001
,
0001
1000
0001
0010
,
0100
1000
0010
0100
,
0001
1000
0001
0000
1000
0001
1000
0000
,
0001
0010
0100
0000
1000
0100
1000
0000
,
0010
0100
0010
0000
0010
1000
0100
0000
,
0010
0001
0010
0000
0100
0001
1000
0000
,
0001
0001
0100
0000
1000
1000
0100
0000
,
0001
0001
0010
0000
1000
1000
0010
0000
,
0010
0100
0001
1000
,
0010
1000
0010
0000
0100
0000
0000
0000
,
0001
0010
0100
1000
,
0100
1000
0100
1000
0100
0000
0010
0000
,
0001
0100
0100
0001
,
0010
0100
0010
0100
0010
0000
0001
0000
,
1000
1000
0001
0010
,
0010
1000
0001
0100
0001
0000
1000
0000
,
0010
0010
1000
0010
,
0100
1000
0100
0010
0100
0000
0001
0000
,
1000
1000
0001
0010
,
1000
0100
1000
0001
0010
0000
0100
0000
,
1000
0001
0001
0010
,
0010
1000
0001
0100
1000
0000
0100
0000
,
0001
1000
0100
0010
,
0001
1000
0001
1000
0001
0000
0010
0000
,
1000
0001
0100
0010
,
0010
1000
0001
0010
0001
0000
1000
0000
;

//---------------dance-single - ----------------
#NOTES:
     dance-single:
     :
     Hard:
     10:
     :
0000
0000
0000
0000
,
0000
0000
0000
0000
,
0000
0000
0000
0000
,
0000
0000
0000
0000
,
1000
0000
0000
0000
0100
0000
0000
0000
0010
0000
0000
0001
0000
0000
0000
0000
,
0100
0000
0000
0000
0010
0000
0000
0000
1000
0000
0000
0100
0000
0000
0000
0000
,
1000
0000
0000
0000
0001
0000
0000
0000
0100
0000
0000
0010
0000
0000
0000
0000
,
1000
0000
0000
0001
0100
0000
0000
0000
0010
0000
0000
1000
0001
0000
0000
0000
,
1000
0000
0000
0000
1100
0000
0000
0000
0101
0000
0000
0000
0011
0000
0000
0001
,
0000
1000
0100
0000
0010
0000
0100
0000
0010
0000
0000
0000
0110
0000
0000
0000
,
0011
0000
0000
0000
1100
0000
0000
0000
1010
0000
0000
0000
0101
0000
0000
0010
,
0000
0100
0001
0000
0010
0000
0100
0000
1000
0000
0000
0000
1001
0000
0000
0000
,
1010
0000
0000
0000
0101
0000
0000
0000
0011
0000
0000
0000
1100
0000
0000
1000
,
0000
0010
0100
0000
0001
0000
0010
0000
0100
0000
0000
0000
0110
0000
0000
0000
,
0011
0000
0000
0000
1100
0000
0000
0000
0101
0000
0000
0000
1010
0000
0000
1000
,
0000
0100
0010
0000
0001
0000
0100
0000
0010
0000
0000
0000
0101
0000
0000
0000
,
0001
0000
0000
0000
0100
0000
0000
0000
0010
0000
0000
1000
0100
0000
0000
0000
,
1000
0000
0000
0000
0001
0000
0000
0000
0010
0000
0000
0001
0100
0000
0000
0000
,
0001
0000
0000
0000
1000
0000
0000
0000
0100
0000
0000
1000
0010
0000
0000
0000
,
0100
0000
0000
0000
0010
0000
0000
0000
0100
0000
0000
0010
0100
0000
0000
0000
,
0001
0000
0000
0000
1000
0000
0000
0000
0100
0000
0000
1000
0100
0000
0000
0000
,
0010
0000
0000
0000
0001
0000
0000
0000
0100
0000
0000
0001
0100
0000
0000
0000
,
0001
0000
0000
0000
0100
0000
0000
0000
0010
0000
0000
1000
0010
0000
0000
0000
,
0100
0000
0000
0000
0001
0000
0000
0000
0010
0000
0000
0001
0010
0000
0000
0000
,
0010
0000
0000
0100
1000
0000
0000
0100
0010
0000
0000
0001
0100
0000
0000
0010
,
1000
0000
0000
0001
0100
0000
0000
0100
1000
0000
0000
0001
1000
0000
0000
0100
,
1000
0000
0000
0010
0100
0000
0000
0010
1000
0000
0000
0001
0100
0000
0000
0100
,
0001
0000
0000
0001
1000
0000
0000
1000
0010
0000
0000
0100
0001
0000
0000
0000
,
0001
0100
0010
1000
0010
0100
0001
1000
,
0001
1000
0100
0100
0010
0010
0001
0001
,
1000
0100
1000
0100
0010
0000
0001
0000
,
0010
0001
0010
0010
0001
0010
0100
1000
,
1001
0000
0000
0000
0110
0000
0000
0000
0011
0000
0000
0000
1000
0000
0000
0100
,
0000
0001
0010
0000
0100
0000
1000
0000
1100
0000
0000
0000
1100
0000
0000
0000
,
0001
0000
1000
0000
0100
0000
0010
0000
0001
0000
1000
0000
0100
0000
0000
0001
,
0000
0010
0001
0000
0100
0000
0001
0000
0101
0000
0000
0000
0101
0000
0000
0000
,
1000
0000
0001
0000
0100
0000
0001
0000
1000
0000
0001
0000
0010
0000
0000
0100
,
0000
0001
0100
0000
0001
0000
0010
0000
1100
0000
0000
0000
1100
0000
0000
0000
,
0010
0000
1000
0000
0100
0000
1000
0000
0001
0000
1000
0000
0100
0000
0000
1000
,
0000
0010
0100
0000
0001
0000
0010
0000
0011
0000
0000
0000
0011
0000
0000
0000
,
1000
0000
0001
0000
0100
0000
0001
0000
1000
0000
0001
0000
0010
0000
0000
0100
,
0000
0001
0100
0000
0001
0000
0100
0000
0110
0000
0000
0000
0110
0000
0000
0000
,
0001
0000
1000
0000
0010
0000
1000
0000
0001
0000
1000
0000
0100
0000
0000
0100
,
0000
0010
0001
0000
0010
0000
0001
0000
1001
0000
0000
0000
1001
0000
0000
0000
,
0010
0000
1000
0000
0001
0000
1000
0000
0100
0000
1000
0000
0001
0000
0000
1000
,
0000
0100
1000
0000
0001
0000
0010
0000
0100
0000
0000
0000
0110
0000
0000
0000
,
0001
0000
0100
0000
1000
0000
0100
0000
0010
0000
1000
0000
0100
0000
0000
0010
,
0000
0001
0100
0000
0010
0000
1000
0000
0001
0000
0000
0000
1001
0000
0000
0000
;

//---------------dance-single - ----------------
#NOTES:
     dance-single:
     :
     Challenge:
     13:
     :
0000
0000
0000
0000
,
0000
0000
0000
0000
,
0000
0000
0000
0000
,
0000
0000
0000
0000
,
0001
0000
0000
0100
0000
0000
0001
0000
0000
0100
0000
0000
0001
0000
0000
0000
0000
0000
0010
0000
0000
0100
0000
0000
0000
0000
0000
0000
2000
0000
0000
0000
0000
0000
0000
0000
0000
0000
0000
0000
0000
0000
0000
0000
0000
0000
0000
0000
,
0010
0000
0000
0000
0100
0000
0000
0000
3010
1000
0000
0100
0000
0000
0000
0000
,
0001
0000
0000
0100
0000
0000
0001
0000
0000
0100
0000
0000
0001
0000
0000
0000
0000
0000
0010
0000
0000
0100
0000
0000
0000
0000
0000
0000
2000
0000
0000
0000
0000
0000
0000
0000
0000
0000
0000
0000
0000
0000
0000
0000
0000
0000
0000
0000
,
3001
0100
0000
0100
0010
0000
0000
0000
1000
0100
0000
0100
0010
0000
0000
0000
,
0001
1000
0001
1000
0001
0000
0100
0000
0010
1000
0000
1000
0100
0000
0000
0010
,
0000
0010
0001
0000
0100
0000
0010
0000
1000
0100
0000
0100
0010
0000
0001
0000
,
0100
0010
0100
0010
0100
0000
0001
0000
0010
0100
0000
0100
1000
0000
0000
0001
,
0000
0001
1000
0000
0010
0000
0100
0000
0010
1000
0000
1000
0001
0000
0100
0000
,
0001
0010
0001
0010
0001
0000
1000
0000
0010
0100
0000
0100
0001
0000
0000
1000
,
0000
1000
0100
0000
0010
0000
1000
0000
0010
0001
0000
0001
0100
0000
0010
0000
,
1000
0100
1000
0100
1000
0000
0010
0000
0100
0001
0000
0001
0010
0000
0000
0100
,
0000
0100
0010
0000
0001
0000
0100
0000
0010
1000
0000
1000
0001
0000
0000
0000
,
0010
0000
0000
1000
0000
0000
0010
0000
0000
1000
0000
0000
0010
0000
0000
0000
0000
0000
0100
0000
0000
0001
0000
0000
0000
0000
0000
0000
0020
0000
0000
0000
0000
0000
0000
0000
0000
0000
0000
0000
0000
0000
0000
0000
0000
0000
0000
0000
,
1000
0000
0000
0000
0001
0000
0000
0000
1030
0010
0000
0001
0000
0000
0100
0000
,
0001
0000
0000
1000
0000
0000
0001
0000
0000
1000
0000
0000
0001
0000
0000
0000
0000
0000
0100
0000
0000
0010
0000
0000
0000
0000
0000
0000
2000
0000
0000
0000
0000
0000
0000
0000
0000
0000
0000
0000
0000
0000
0000
0000
0000
0000
0000
0000
,
0100
0000
0000
0000
0001
0000
0000
0000
3100
1000
0000
0001
0000
0000
0010
0000
,
0001
0000
0000
1000
0000
0000
0001
0000
0000
1000
0000
0000
0001
0000
0000
0000
0000
0000
0100
0000
0000
0010
0000
0000
0000
0000
0000
0000
0200
0000
0000
0000
0000
0000
0000
0000
0000
0000
0000
0000
0000
0000
0000
0000
0000
0000
0000
0000
,
1000
0000
0000
0000
0010
0000
0000
0000
0301
0100
0000
0010
0000
0000
0000
0000
,
1000
0000
0000
0100
0000
0000
1000
0000
0000
0100
0000
0000
1000
0000
0000
0000
0000
0000
0001
0000
0000
0100
0000
0000
0000
0000
0000
0000
0020
0000
0000
0000
0000
0000
0000
0000
0000
0000
0000
0000
0000
0000
0000
0000
0000
0000
0000
0000
,
1000
0000
0000
0000
0100
0000
0000
0000
1030
0010
0000
0100
0000
0000
0000
0000
,
0001
0100
0001
0100
0001
0000
0000
0000
1000
0100
1000
0100
1000
0000
0000
0000
,
0001
0010
0001
0010
0001
0000
0000
0000
1000
0010
1000
0010
1000
0000
0000
0000
,
0001
1000
0000
0000
0001
0100
0000
0000
0010
1000
0000
0000
0100
0010
0000
0000
,
0100
1000
0000
0000
0001
1000
0000
0000
0100
0010
0000
0000
0001
1000
0000
0000
,
0010
1000
0010
0000
0100
0000
0100
0000
0001
0000
0001
0000
1000
0000
1000
0000
,
0001
0001
0010
0010
1000
1000
0100
0100
,
0001
0010
0001
0010
0001
0000
0000
0000
1000
0100
1000
0100
1000
0000
0000
0000
,
0001
1000
0001
0000
0010
0000
0010
0000
0002
0000
0000
0000
2003
0000
0000
0000
,
3010
0100
0010
0100
0010
0000
1000
0000
0100
0010
0000
0010
0001
0000
0000
1000
,
0000
1000
0001
0000
0100
0000
0010
0000
1000
0100
0000
0100
0010
0000
0001
0000
,
0100
0010
0100
0010
0100
0000
0001
0000
1000
0010
0000
0010
0100
0000
0000
0010
,
0000
0010
1000
0000
0100
0000
0010
0000
0001
0100
0000
0100
0010
0000
1000
0000
,
0100
1000
0100
1000
0100
0000
0010
0000
0001
1000
0000
1000
0010
0000
0000
0100
,
0000
0100
0001
0000
0010
0000
0100
0000
0010
0001
0000
0001
1000
0000
0010
0000
,
1000
0100
1000
0100
1000
0000
0001
0000
0100
0010
0000
0010
1000
0000
0000
0001
,
0000
0001
0010
0000
0001
0000
0100
0000
0010
1000
0000
1000
0000
0000
0001
0100
,
0010
0000
0000
0000
0000
0000
1000
0000
0000
0100
0000
0000
0010
0000
0000
0000
0000
0000
0001
0000
0000
1000
0000
0000
0000
0000
0000
0000
2002
0000
0000
0000
0000
0000
0000
0000
0000
0003
0000
0000
0000
0000
0000
0000
0000
3010
0000
0000
,
0000
0100
0010
0000
1000
0000
0100
0000
0001
0010
0000
0001
0000
0000
0100
0010
,
1000
0000
0000
0000
0000
0000
0100
0000
0000
0010
0000
0000
0001
0000
0000
0000
0000
0000
1000
0000
0000
0100
0000
0000
0000
0000
0000
0000
0220
0000
0000
0000
0000
0000
0000
0000
0000
0030
0000
0000
0000
0000
0000
0000
0000
0301
0000
0000
,
0000
0100
0010
0000
0001
0000
1000
0000
0010
0100
0000
0001
0000
0000
1000
0010
,
1000
0000
0000
0100
0000
0000
0010
0000
0000
0001
0000
0000
0100
0000
0000
0000
0000
0000
0010
0000
0000
1000
0000
0000
0000
0000
0000
0000
2002
0000
0000
0000
0000
0000
0000
0000
0000
0003
0000
0000
0000
0000
0000
0000
0000
3001
0000
0000
,
0000
1000
0100
0000
0010
0000
0001
0000
0100
0010
0000
1000
0000
0000
0100
0010
,
0001
0000
0000
1000
0000
0000
0001
0000
0000
0100
0000
0000
0010
0000
0000
0000
0000
0000
1000
0000
0000
0001
0000
0000
0000
0000
0000
0000
0220
0000
0000
0000
0000
0000
0000
0000
0000
0030
0000
0000
0000
0000
0000
0000
0000
0310
0000
0000
,
0000
1000
0100
0000
1000
0000
0001
0000
0100
0010
0000
1000
0000
0000
0001
0100
,
0001
0000
0000
1000
0000
0000
0010
0000
0000
0100
0000
0000
0001
0000
0000
0000
0000
0000
1000
0000
0000
0200
0000
0000
0000
0000
0000
0000
0020
0000
0000
0000
0000
0000
0000
0000
0000
0000
0000
0000
0000
0000
0330
0000
0000
0000
0000
0000
;

//---------------dance-double - ----------------
#NOTES:
     dance-double:
     :
     Easy:
     5:
     :
00000000
00000000
00000000
00000000
,
00000000
00000000
00000000
00000000
,
00000000
00000000
00000000
00000000
,
00000000
00000000
00000000
00000000
,
20000000
00000000
02000000
30000000
,
00010000
00000000
00010000
03000000
,
00020000
00000000
00002000
00030000
,
00000010
00000000
00000010
00003000
,
00000010
00000010
00000001
00000000
,
00000100
00000001
00000100
00000000
,
00001000
00001000
00010000
00000000
,
00001000
00100000
00001000
00000000
,
01000000
01000000
00010000
00000000
,
10000000
00100000
10000000
00000000
,
10000000
10000000
01000000
00000000
,
00010000
00001000
00010000
00000000
,
00002000
00000000
00010000
00003000
,
00010000
00010000
00010000
00000000
,
00002000
00000000
00000010
00003000
,
00000010
00000010
00000010
00000000
,
00000002
00000000
00001000
00000003
,
00000100
00000100
00000100
00000000
,
00002000
00000000
00010000
00003000
,
00010000
00010000
00100000
00000000
,
00100000
10000000
00100000
00000000
,
01000000
00010000
01000000
00000000
,
00001000
00010000
00001000
00000000
,
00000010
00001000
00000010
00000000
,
00000001
00000100
00000001
00000000
,
00000100
00001000
00000100
00000000
,
00001000
00010000
00001000
00000000
,
00000100
00000010
00000100
00000000
,
00000001
00000010
00000100
00000000
,
00000010
00000001
00000100
00000000
,
00000100
00001000
00010000
00000000
,
00010000
01000000
10000000
00000000
,
10000000
00100000
01000000
00000000
,
01000000
00010000
00100000
00000000
,
00100000
01000000
00010000
00000000
,
00001000
00010000
00000100
00000000
,
00001000
00000010
00000100
00000000
,
00000100
00000010
00000001
00000000
,
00001000
00000001
00001000
00000000
,
00000010
00000100
00000010
00000000
,
00001000
00000100
00010000
00000000
,
00001000
01000000
00010000
00000000
,
00100000
00010000
10000000
00000000
,
01000000
10000000
00010000
00000000
,
01000000
00000000
00000000
00000000
;

//---------------dance-double - ----------------
#NOTES:
     dance-double:
     :
     Medium:
     8:
     :
00000000
00000000
00000000
00000000
,
00000000
00000000
00000000
00000000
,
00000000
00000000
00000000
00000000
,
00000000
00000000
00000000
00000000
,
00001000
00001000
00010000
00001000
,
00100000
00100000
00010000
00010000
,
10000000
10000000
00100000
01000000
,
00020000
00030000
20000000
30000000
,
01000000
01000000
00010000
00001000
,
00010000
00001000
00010000
00000000
00000010
00000000
00001000
00000000
,
00000001
00000001
00000100
00000001
,
00001000
00000100
00001000
00000000
00000010
00000000
00000100
00000000
,
00000001
00000100
00001000
00010000
,
00001000
00010000
00001000
00000000
00010000
00000000
01000000
00000000
,
10000000
10000000
00100000
01000000
,
00010000
01000000
00010000
00000000
10000000
00000000
01000000
00000000
,
00010000
00001000
00010000
00001000
,
00001000
00000010
00000010
00000100
,
00000100
00001000
00000001
00000100
,
00000100
00000010
00010000
00001000
,
00001000
01000000
01000000
00010000
,
00010000
00100000
01000000
10000000
,
10000000
00100000
10000000
01000000
,
00010000
00010000
00001000
00010000
,
00001000
00010000
00001000
00000000
00010000
00001000
00010000
00000000
,
00001000
00000100
00000010
00000000
00001000
00000010
00001000
00000000
,
00000010
00000100
00000010
00000000
00000100
00000001
00000010
00000000
,
00000100
00001000
00000100
00000000
00000010
00001000
00010000
00000000
,
00001000
00001000
00010000
00000000
00100000
00100000
00010000
00000000
,
00001000
00001000
00100000
00000000
00010000
00010000
10000000
00000000
,
01000000
10000000
00010000
10000000
,
01000000
01000000
00010000
00010000
00001000
00000000
00000000
00000000
,
00001000
00010000
00000010
00010000
,
00000010
00001000
00000010
00001000
00000010
00000000
00001000
00000000
,
00000100
00000010
00000010
00000001
,
00000100
00000010
00000100
00000010
00000100
00000000
00001000
00000000
,
00010000
00010000
00001000
01000000
,
00010000
01000000
00010000
01000000
00010000
00000000
10000000
00000000
,
10000000
01000000
00100000
00010000
,
00100000
00010000
00100000
00010000
00100000
00000000
00001000
00000000
,
00010000
00010000
00001000
00000100
,
00000001
00000100
00000001
00000100
00000001
00000000
00000010
00000000
,
00001000
00010000
00010000
00001000
,
00010000
00001000
00010000
00001000
00010000
00000000
00100000
00000000
,
10000000
00010000
01000000
00010000
,
10000000
00010000
10000000
00010000
10000000
00000000
01000000
00000000
,
00010000
00001000
00000010
00000100
,
00001000
00000100
00001000
00000100
00001000
00000000
00000001
00000000
;

//---------------dance-double - ----------------
#NOTES:
     dance-double:
     :
     Hard:
     10:
     :
00000000
00000000
00000000
00000000
,
00000000
00000000
00000000
00000000
,
00000000
00000000
00000000
00000000
,
00000000
00000000
00000000
00000000
,
00001000
00000000
00000000
00000000
00010000
00000000
00000000
00000000
00001000
00000000
00000000
00010000
00000000
00000000
00000000
00000000
,
00000010
00000000
00000000
00000000
00001000
00000000
00000000
00000000
00000010
00000000
00000000
00000100
00000000
00000000
00000000
00000000
,
00000001
00000000
00000000
00000000
00000010
00000000
00000000
00000000
00000100
00000000
00000000
00001000
00000000
00000000
00000000
00000000
,
00000010
00000000
00000000
00010000
00001000
00000000
00000000
00000000
00010000
00000000
00000000
00001000
00100000
00000000
00000000
00000000
,
00010000
00000000
00000000
00000000
11000000
00000000
00000000
00000000
01010000
00000000
00000000
00000000
00110000
00000000
00000000
00010000
,
00000000
00100000
01000000
00000000
10000000
00000000
01000000
00000000
00010000
00000000
00000000
00000000
00011000
00000000
00000000
00000000
,
00001100
00000000
00000000
00000000
00001010
00000000
00000000
00000000
00000101
00000000
00000000
00000000
00000011
00000000
00000000
00000010
,
00000000
00000001
00000100
00000000
00001000
00000000
00010000
00000000
01000000
00000000
00000000
00000000
10010000
00000000
00000000
00000000
,
10100000
00000000
00000000
00000000
01010000
00000000
00000000
00000000
00110000
00000000
00000000
00000000
00011000
00000000
00000000
00010000
,
00000000
00001000
00010000
00000000
00100000
00000000
10000000
00000000
01000000
00000000
00000000
00000000
01100000
00000000
00000000
00000000
,
00110000
00000000
00000000
00000000
11000000
00000000
00000000
00000000
01010000
00000000
00000000
00000000
10100000
00000000
00000000
10000000
,
00000000
00100000
00010000
00000000
00001000
00000000
00000010
00000000
00000001
00000000
00000000
00000000
00001100
00000000
00000000
00000000
,
00000001
00000000
00000000
00000000
00000100
00000000
00000000
00000000
00001000
00000000
00000000
00010000
00001000
00000000
00000000
00000000
,
00010000
00000000
00000000
00000000
01000000
00000000
00000000
00000000
10000000
00000000
00000000
00100000
00010000
00000000
00000000
00000000
,
00001000
00000000
00000000
00000000
00000100
00000000
00000000
00000000
00000001
00000000
00000000
00000010
00001000
00000000
00000000
00000000
,
00010000
00000000
00000000
00000000
00001000
00000000
00000000
00000000
01000000
00000000
00000000
00100000
01000000
00000000
00000000
00000000
,
00010000
00000000
00000000
00000000
00100000
00000000
00000000
00000000
01000000
00000000
00000000
10000000
00100000
00000000
00000000
00000000
,
10000000
00000000
00000000
00000000
01000000
00000000
00000000
00000000
00010000
00000000
00000000
00001000
00010000
00000000
00000000
00000000
,
00000100
00000000
00000000
00000000
00010000
00000000
00000000
00000000
00001000
00000000
00000000
00000010
00001000
00000000
00000000
00000000
,
00010000
00000000
00000000
00000000
01000000
00000000
00000000
00000000
10000000
00000000
00000000
00010000
01000000
00000000
00000000
00000000
,
00100000
00000000
00000000
10000000
01000000
00000000
00000000
01000000
00010000
00000000
00000000
00010000
00001000
00000000
00000000
00001000
,
00100000
00000000
00000000
00010000
00100000
00000000
00000000
00001000
00010000
00000000
00000000
00010000
00001000
00000000
00000000
00001000
,
00010000
00000000
00000000
00000010
00001000
00000000
00000000
00000001
00000100
00000000
00000000
00001000
00010000
00000000
00000000
00010000
,
00001000
00000000
00000000
00001000
01000000
00000000
00000000
00100000
10000000
00000000
00000000
01000000
10000000
00000000
00000000
00000000
,
00010000
01000000
00001000
00100000
00010000
01000000
00001000
00010000
,
00000010
00001000
00000100
00000100
00000010
00000010
00000001
00000001
,
00000100
00000010
00000100
00000010
00001000
00000000
00000100
00000000
,
00010000
00001000
00100000
00100000
00010000
00100000
01000000
10000000
,
10010000
00000000
00000000
00000000
11000000
00000000
00000000
00000000
10100000
00000000
00000000
00000000
10000000
00000000
00000000
01000000
,
00000000
00010000
00001000
00000000
00000010
00000000
00001000
00000000
00010000
00000000
00000000
00000000
00001000
00000000
00000000
00000000
,
00000100
00000000
00000001
00000000
00001000
00000000
00000010
00000000
00000100
00000000
00001000
00000000
00010000
00000000
00000000
00001000
,
00000000
00100000
00010000
00000000
01000000
00000000
00100000
00000000
10000000
00000000
00000000
00000000
00010000
00000000
00000000
00000000
,
10000000
00000000
01000000
00000000
00010000
00000000
00001000
00000000
00010000
00000000
00100000
00000000
00010000
00000000
00000000
00001000
,
00000000
00010000
00000010
00000000
00001000
00000000
00000100
00000000
00000010
00000000
00000000
00000000
00000001
00000000
00000000
00000000
,
00000010
00000000
00001000
00000000
00010000
00000000
00100000
00000000
10000000
00000000
01000000
00000000
00100000
00000000
00000000
00010000
,
00000000
00100000
01000000
00000000
10000000
00000000
01000000
00000000
00010000
00000000
00000000
00000000
00001000
00000000
00000000
00000000
,
00010000
00000000
00000010
00000000
00001000
00000000
00000100
00000000
00010000
00000000
00001000
00000000
00000100
00000000
00000000
00000100
,
00000000
00000001
00000100
00000000
00001000
00000000
00010000
00000000
00100000
00000000
00000000
00000000
01000000
00000000
00000000
00000000
,
10000000
00000000
01000000
00000000
00010000
00000000
00100000
00000000
01000000
00000000
00100000
00000000
00010000
00000000
00000000
10000000
,
00000000
01000000
00010000
00000000
00001000
00000000
00010000
00000000
00001000
00000000
00000000
00000000
00011000
00000000
00000000
00000000
,
00000010
00000000
00001000
00000000
00000001
00000000
00000100
00000000
00000010
00000000
00000100
00000000
00001000
00000000
00000000
00010000
,
00000000
00001000
00010000
00000000
01000000
00000000
00100000
00000000
10000000
00000000
00000000
00000000
00100000
00000000
00000000
00000000
,
00010000
00000000
00100000
00000000
00001000
00000000
00010000
00000000
00001000
00000000
00000100
00000000
00000001
00000000
00000000
00000010
,
00000000
00000001
00001000
00000000
00000100
00000000
00000010
00000000
00000001
00000000
00000000
00000000
00001001
00000000
00000000
00000000
;
