#TITLE:Don't Start Now;
#ARTIST:Dua Lipa;
#BANNER:Don't Start Now-bn.png;
#BACKGROUND:Don't Start Now-bg.png;
#JACKET:Don't Start Now-jacket.png;
#MUSIC:Don't Start Now.ogg;
#SAMPLESTART:45.726;
#SAMPLELENGTH:20;
#DISPLAYBPM:124;
#BPMS:0=124;
#BGCHANGES:;

//---------------dance-single - ----------------
#NOTES:
     dance-single:
     :
     Beginner:
     3:
     :
0000
0000
0000
0000
,
0000
0000
0000
0000
,
0020
0000
0000
0000
,
0030
0000
0000
0000
,
1000
0000
1000
0000
,
0001
0000
0001
0000
,
0010
0010
0010
0000
,
0001
0000
0100
0000
,
0010
0000
1000
0000
,
0000
0100
0100
0000
,
1000
1000
1000
0000
,
0010
0000
0000
0000
,
0001
0001
0001
0000
,
0100
0100
0100
0000
,
1000
1000
1000
0000
,
0020
0000
0030
0000
,
0200
0000
0300
0000
,
0002
0000
0003
0000
,
1000
1000
0000
0000
,
0001
0001
0000
0000
,
2000
0000
3000
0000
,
0200
0000
0300
0000
,
1000
1000
0000
0000
,
0001
0001
0000
0010
,
0010
0000
0000
0100
,
0100
0000
0000
1000
,
1000
0000
0001
0000
,
0100
0100
0000
0001
,
0001
0000
0000
0010
,
0010
0000
0000
0100
,
0100
0000
1000
0000
,
0010
0000
0000
0000
,
1000
0000
0010
0000
,
0100
0000
0001
0000
,
1000
1000
1000
0000
,
0001
0000
0010
0000
,
0100
0000
1000
0000
,
0000
0010
0010
0000
,
1000
1000
1000
0000
,
0001
0000
0000
0000
,
0100
0100
0100
0000
,
0010
0010
0010
0000
,
1000
1000
1000
0000
,
0020
0000
0030
0000
,
2000
0000
3000
0000
,
0002
0000
0003
0000
,
0010
0010
0000
0000
,
0001
0001
0000
0000
,
0200
0000
0300
0000
,
0002
0000
0003
0000
,
1000
1000
0000
0000
,
0001
0001
0000
0010
,
0010
0000
0000
0001
,
0001
0000
0000
0100
,
0100
0000
0010
0000
,
1000
1000
0000
0001
,
0001
0000
0000
0100
,
0100
0000
0000
0001
,
0001
0000
0010
0000
,
0001
0000
0000
0000
,
2000
0000
3000
0000
,
0002
0000
0003
0000
,
0020
0000
0000
0000
,
0030
0000
0000
0000
;

//---------------dance-single - ----------------
#NOTES:
     dance-single:
     :
     Easy:
     6:
     :
0000
0000
0000
0000
,
0000
0000
0000
0000
,
0010
1000
0000
0001
,
0000
1000
0001
1000
,
0010
1100
0001
0100
,
0010
0101
1000
0001
,
0010
0100
2000
3000
,
0010
1000
0001
1000
,
0100
0011
1000
0001
,
0100
1010
1000
0010
,
1000
0001
0200
0300
,
0010
1000
0100
0001
,
1000
1000
0001
0100
,
0010
0010
1000
0100
,
0010
0001
1000
0020
,
0200
0000
0330
0110
,
1001
0001
0000
0001
,
0000
1000
0000
1000
,
0000
0010
0000
0010
,
0000
1000
0000
1000
,
0100
1000
0000
0001
,
0000
1000
0000
0010
,
0000
0100
0000
0001
,
0000
0010
0000
0010
,
0010
0001
0100
0010
,
1000
0100
1000
0001
,
0010
0100
1000
0010
,
0100
0001
0001
1000
,
0010
1000
0100
0001
,
1000
0001
0010
0100
,
1000
0010
0100
0001
,
0010
0001
1000
0001
,
0100
1010
0001
0010
,
0100
0011
1000
0001
,
0100
0001
0020
0030
,
0100
1000
0001
1000
,
0010
0101
1000
0001
,
0010
1100
0010
0100
,
0001
0010
0200
0300
,
1000
0010
1000
0001
,
0100
0100
0010
1000
,
0001
0001
0010
0100
,
0010
0001
1000
0020
,
0200
0000
0330
0110
,
1001
0010
0000
0010
,
0000
0100
0000
0100
,
0000
0001
0000
0001
,
0000
1000
0000
1000
,
0010
0100
0000
0010
,
0000
1000
0000
0100
,
0000
1000
0000
0001
,
0100
0100
0100
0010
,
0010
1000
0100
0001
,
0010
0001
0100
0010
,
1000
0001
0010
0100
,
1000
0010
0010
0100
,
0010
1000
0100
0001
,
0010
0001
0100
0010
,
0100
0001
0010
0100
,
1000
0010
1000
0001
,
0100
0010
0000
0010
,
0000
1000
0000
1000
,
0000
0001
0000
0001
,
0010
0000
0000
0000
;

//---------------dance-single - ----------------
#NOTES:
     dance-single:
     :
     Medium:
     9:
     :
0000
0000
0000
0000
,
0000
0000
0000
0000
,
0020
0000
0000
2000
0000
0000
0000
0000
0000
0000
0000
0000
0000
0000
0000
0000
,
3030
0000
0001
0100
0001
0000
0001
0000
,
0010
0000
0000
0001
0000
0000
1000
0000
0000
0000
1010
0000
0000
0000
0000
0000
,
0100
0000
0000
1000
0000
0000
0001
0000
0000
0000
0101
0000
0000
0000
0000
0000
,
0001
0100
1000
0100
0002
0000
0003
0100
,
0010
0000
1000
0100
1000
0000
1000
0000
,
0001
0000
0000
0010
0000
0000
0100
0000
0000
0000
1100
0000
0000
0000
0000
0000
,
0001
0200
0000
0301
1000
0000
0011
0000
,
1000
0100
0001
0100
2000
0000
3000
0001
,
0010
0000
0000
0001
0000
0000
1000
0000
0020
0000
0000
0000
1030
0000
0001
0000
,
0100
0000
0110
0000
0001
0010
1000
0000
,
0010
0000
1001
0000
1000
0100
0001
0000
,
0010
0000
0000
0001
0000
0000
1000
0000
0000
0000
1000
0000
0100
0000
0020
0000
,
0001
1000
0031
0110
,
1001
0000
0001
0010
0100
0000
1000
0010
,
1000
0000
0001
0000
1000
0010
0100
0010
,
0100
0002
0000
0003
,
2000
0000
0000
0002
0000
0000
0000
0000
3000
0000
0100
0000
0000
0100
0000
0000
,
0103
0000
0010
1000
0001
0000
0010
0001
,
1000
0000
0010
0000
0100
0001
0100
0001
,
0010
0200
0000
0300
,
1000
0000
0000
0001
0000
0000
0100
0000
0000
0000
0010
0000
0000
0010
0000
0000
,
0010
0000
0000
0100
0000
0000
0101
0000
0000
0000
0001
0000
0000
0001
0000
0000
,
0001
0000
0000
1000
0000
0000
1100
0000
0000
0000
0100
0000
0000
0100
0000
0000
,
0100
0000
0000
1000
0000
0000
0001
0000
0000
0000
0010
0000
0000
0001
0000
0000
,
1000
0000
0000
0000
0000
0000
0000
0000
0000
0000
0000
0000
0010
0000
0000
0000
0100
0000
0000
0000
0010
0000
0000
0000
0000
0000
0000
0000
0000
0000
1000
0000
0000
0000
0000
0000
0000
0000
0000
1000
0000
0000
0000
0000
0000
0000
0000
0000
,
1000
0000
0000
0001
0000
0000
0011
0000
0000
0000
0100
0000
0000
0100
0000
0000
,
0100
0000
0000
0010
0000
0000
1010
0000
0000
0000
0010
0000
0000
0010
0000
0000
,
0010
0000
0000
1000
0000
0000
0100
0000
0000
0000
1000
0000
0000
0001
0000
0000
,
0010
0002
2003
3002
,
0203
0000
0000
0000
0310
0000
2000
0000
0001
0000
0000
3001
0000
0000
0000
0000
,
0020
0000
0000
0000
0031
0000
0200
0000
1000
0000
0000
1300
0000
0000
0000
0000
,
0001
0010
1000
0010
0002
0000
0003
1000
,
0001
0000
0100
0010
0100
0000
0100
0000
,
0002
0000
0000
0000
0013
0000
2000
0000
0100
0000
0000
3100
0000
0000
0000
0000
,
1000
0001
0020
0000
0031
2000
0000
3100
,
1000
0010
0001
0010
2000
0000
3000
0100
,
0010
0000
0011
0000
1100
0000
0001
1000
,
0010
0000
1001
0000
0100
0001
1000
0000
,
0100
0000
0110
0000
0010
0001
1000
0000
,
0001
0000
0000
0010
0000
0000
1000
0000
0000
0000
1000
0000
0001
0000
0200
0000
,
0010
1000
0301
0110
,
1001
0000
0010
0001
1000
0000
0100
1000
,
0010
0000
0010
0000
1000
0100
1000
0100
,
0010
0002
0000
0003
,
0200
0000
0000
0020
0000
0000
0000
0000
0300
0000
1000
0000
0000
1000
0000
0000
,
1030
0000
0010
1000
0100
0000
0010
0001
,
0100
0000
0100
0000
0001
1000
0001
1000
,
0100
0000
0020
0000
0000
0000
0030
0002
,
0000
0000
2003
0000
0000
0000
3002
0000
0000
0000
0013
0000
0000
0010
0000
0000
,
0010
0000
0000
0001
0000
0000
0101
0000
0000
0000
1000
0000
0000
1000
0000
0000
,
1000
0000
0000
0100
0000
0000
1100
0000
0000
0000
0001
0000
0000
0001
0000
0000
,
0001
0000
0000
1000
0000
0000
0010
0000
0000
0000
1000
0000
0000
0100
0000
0000
,
1000
0000
0000
0000
0000
0000
0000
0000
0000
0000
0000
0000
0010
0000
0000
0000
0100
0000
0000
0000
0010
0000
0000
0000
0000
0000
0000
0000
0000
0000
0100
0000
0000
0000
0000
0000
0000
0000
0000
0100
0000
0000
0000
0000
0000
0000
0000
0000
,
0100
0000
0000
0001
0000
0000
0011
0000
0000
0000
0010
0000
0000
0010
0000
0000
,
0010
0000
0000
0100
0000
0000
1100
0000
0000
0000
0001
0000
0000
0001
0000
0000
,
0001
0000
0000
0100
0000
0000
0010
0000
0000
0000
1000
0000
0000
0001
0000
0000
,
1000
0000
0010
0100
0001
0000
0100
0010
,
1000
0000
0001
0010
0100
0000
1000
0010
,
2000
0002
0000
3003
,
0002
0000
0000
0200
0000
0000
0000
0000
0000
0000
0000
0000
0003
0000
0000
0000
,
0310
0000
0000
0000
;

//---------------dance-single - ----------------
#NOTES:
     dance-single:
     :
     Hard:
     12:
     :
0000
0000
0000
0000
,
0000
0000
0000
0000
,
0020
0000
0000
2000
0000
0000
0000
0000
0000
0000
0000
0000
0030
0000
0000
0000
,
3002
0000
0103
1000
0002
0000
0203
0000
,
1300
0000
0000
0010
0100
0000
0002
0000
0000
0000
0013
0000
0100
0000
1000
0010
,
1000
0000
0000
0001
0010
0000
0200
0000
0000
0000
1300
0000
0010
0000
0100
0001
,
0100
0010
0001
0010
1000
0100
0001
0100
,
1000
0000
0000
0010
0100
0000
0001
1000
0002
0000
0100
0000
0103
0000
0000
0000
,
0110
0000
0000
0010
1000
0000
0002
0000
0000
0000
0013
0000
0100
0000
1000
0001
,
1000
0020
0130
0001
2000
0100
3100
0010
,
0001
0100
0010
0001
0010
1000
0100
1000
,
0010
0000
0000
1000
0100
0000
0010
0000
0002
1000
0000
0000
0103
0000
0010
0000
,
1000
0000
0000
0100
1000
0000
0001
0000
0000
0100
0000
0000
0010
0000
1000
0000
,
0100
0000
0000
0010
0100
0000
1000
0000
0000
0001
0000
0000
0010
0000
0001
0000
,
0010
0000
0000
0001
0100
0000
1000
0000
0100
0000
0001
0000
0010
0000
0100
1000
,
0100
0000
0000
0010
0001
0000
0100
0000
0010
1000
0000
0000
1100
0000
0000
0000
,
0101
0000
0001
0100
2000
0000
3010
0100
,
0002
0000
2003
0000
3100
0010
0001
1000
,
0020
0230
0001
1300
,
0101
0000
0000
2010
0000
0000
0001
0000
0000
0000
0100
0000
0000
3100
0000
0000
,
1001
0000
0010
1000
0002
0000
0013
0001
,
0200
0000
0302
0000
0013
1000
0010
0100
,
2000
3020
0001
0130
,
0110
0000
0000
1001
0000
0000
0010
0100
0010
0000
2000
0000
0000
3002
0000
0000
,
0013
0000
0000
0001
0100
0000
0010
0000
0000
0000
1000
0000
0100
1000
0000
0000
,
0001
0000
0000
0010
0001
0000
0100
0000
0000
0000
0010
0000
1000
0001
0000
0000
,
0100
0000
0000
0010
1000
0000
0001
0000
0000
0000
0010
0000
0001
0100
0000
0000
,
0010
0000
0000
0000
1000
0000
0000
0000
0001
0000
0000
0000
0100
0000
0000
0000
0100
0000
0000
0000
0100
0000
0000
0000
0000
0000
0000
0000
0000
0000
0010
0000
0000
0000
0000
0000
1000
0000
0000
0001
0000
0000
0000
0000
0000
0000
0000
0000
,
0011
0000
0000
0010
0100
0000
1000
0000
0000
0000
0010
0000
1000
0001
0000
0000
,
1010
0000
0000
0100
0010
0000
1000
0000
0000
0000
0100
0000
0010
0001
0000
0000
,
0110
0000
0000
0001
0010
0000
0001
0000
0000
0000
0100
0000
0010
1000
0000
0000
,
1001
0002
2003
3002
,
0013
0000
0000
0001
0100
0000
0010
0000
1000
0000
0100
1000
0000
0000
0001
1000
,
0001
0000
0000
0010
0001
0000
0100
0000
0010
0000
1000
0010
0000
0000
0100
0001
,
0100
0010
0001
0010
1000
0100
0001
0100
,
1000
0000
0000
0010
0100
0000
0001
0000
0020
0000
0100
0000
0230
0000
0000
0000
,
1300
0000
0000
0001
1000
0000
0010
0000
0100
0000
0001
0010
0000
0000
0001
0100
,
0001
0000
0110
0000
0120
0000
0000
0000
1030
0000
0010
0100
0000
0000
0001
0000
,
1000
0100
0001
0100
0010
0001
1000
0010
,
0100
0000
0001
1000
0000
0000
0010
0000
1000
0100
0000
0000
1000
0000
0001
0000
,
0010
0000
0000
0001
0100
0000
0010
0000
0000
1000
0000
0000
0100
0000
0010
0000
,
0100
0000
0000
1000
0001
0000
0100
0000
0000
0010
0000
0000
1000
0000
0001
0000
,
0100
0000
0000
0001
0010
0000
1000
0000
0010
0000
0100
0000
0010
0000
0001
0000
,
0100
0000
0010
1000
0000
0000
0001
0000
0010
0100
0000
0000
1100
0000
0000
0000
,
0101
0000
0010
1000
0200
0000
1300
0001
,
0200
0000
0320
0000
0130
0001
1000
0010
,
2000
3200
0001
0310
,
0011
0000
0000
2100
0000
0000
0001
0000
0000
0000
3100
0000
1000
0100
0000
1000
,
0010
0000
1000
0001
0020
0000
0031
0100
,
0020
0000
2030
0000
3100
1000
0001
0100
,
0002
0023
1000
0130
,
0110
0000
0000
1001
0000
0000
0010
0000
0001
0000
2000
0000
0000
3002
0000
0000
,
0013
0000
0000
0010
0100
0000
1000
0000
0000
0000
0010
0000
1000
0001
0000
0000
,
0100
0000
0000
0100
0001
0000
0010
0000
0000
0000
0001
0000
1000
0010
0000
0000
,
1000
0000
0000
1000
0010
0000
0100
0000
0000
0000
0001
0000
1000
0001
0000
0000
,
0010
0000
0000
0000
1000
0000
0000
0000
0001
0000
0000
0000
0100
0000
0000
0000
0100
0000
0000
0000
0100
0000
0000
0000
0000
0000
0000
0000
0000
0000
0010
0000
0000
0000
0000
0000
1000
0000
0000
0001
0000
0000
0000
0000
0000
0000
0000
0000
,
1010
0000
0000
0100
1000
0000
0001
0000
0000
0000
0010
0000
0001
0100
0000
0000
,
0101
0000
0000
1000
0010
0000
0100
0000
0000
0000
0001
0000
0010
0100
0000
0000
,
1100
0000
0000
0010
1000
0000
0100
0000
0000
0000
1000
0000
0001
0100
0000
0000
,
1001
0000
0010
1000
0000
0000
0100
0010
0100
0000
1000
0001
0000
0000
1000
0001
,
2000
0000
3010
0100
0002
0000
0013
0100
,
2000
3002
0100
0013
,
0200
0000
0000
0002
0000
0300
0000
0000
1000
0000
0000
0000
0103
0000
0000
0000
,
0010
0000
0000
0000
;
