#TITLE:Don't Eat the Yellow Snow;
#SUBTITLE:;
#ARTIST:Frank Zappa;
#TITLETRANSLIT:;
#SUBTITLETRANSLIT:;
#ARTISTTRANSLIT:;
#GENRE:;
#CREDIT:;
#BANNER:Don't Eat the Yellow Snow-bn.png;
#BACKGROUND:Don't Eat the Yellow Snow-bg.png;
#LYRICSPATH:;
#CDTITLE:;
#MUSIC:Don't Eat the Yellow Snow.ogg;
#OFFSET:0.000000;
#SAMPLESTART:70.224998;
#SAMPLELENGTH:20.000000;
#SELECTABLE:YES;
#DISPLAYBPM:134.000000:144.000000;
#BPMS:0.000000=135.000000
,3.000000=136.699997
,5.000000=138.399994
,7.000000=137.000000
,9.000000=138.940002
,21.000000=139.000000
,28.000000=137.179993
,46.000000=138.410004
,47.000000=141.000000
,54.000000=136.139999
,65.000000=144.000000
,66.000000=137.815399
,77.000000=137.399994
,83.000000=136.000000
,91.000000=137.018005
,96.000000=135.666672
,99.000000=141.899994
,105.000000=137.300003
,112.000000=135.960007
,121.000000=134.000000
,124.000000=135.645004
,134.000000=136.878906
,138.000000=135.975998
,141.000000=138.130005
,145.000000=137.020996
,147.000000=138.013504
,151.000000=137.365005
,154.000000=139.010895
,160.000000=139.800003
,161.000000=142.100006
,170.000000=136.800003
,175.000000=137.136993
,177.000000=135.399994
,186.000000=136.718002
,190.000000=138.940002
,199.000000=137.147995
,200.000000=138.639999
,203.000000=137.419998
,217.000000=138.100006
,226.000000=136.971497
,232.000000=137.649994
,236.000000=142.509995
,238.000000=140.000000
;
#STOPS:
;
#BGCHANGES:;
#KEYSOUNDS:;
#ATTACKS:;

//---------------dance-single - ----------------
#NOTES:
     dance-single:
     :
     Hard:
     13:
     0.563626,0.686822,0.325765,0.253373,0.081441,436.000000,400.000000,36.000000,28.000000,0.000000,0.000000,0.563626,0.686822,0.325765,0.253373,0.081441,436.000000,400.000000,36.000000,28.000000,0.000000,0.000000:
// measure 0
0000
0000
0000
0000
,  // measure 1
0000
0000
0000
0000
,  // measure 2
0000
0000
0000
0000
,  // measure 3
0000
0000
1000
1000
,  // measure 4
0001
0100
0010
1000
0000
0001
0000
0001
,  // measure 5
0100
0010
0100
0000
0100
0000
0010
1000
,  // measure 6
0001
0100
0000
0010
0000
0010
1000
0001
,  // measure 7
0100
0000
0100
0000
0100
0000
0000
0001
1000
0000
0001
1000
0000
0000
0010
1000
,  // measure 8
0010
1000
0010
0000
0001
1000
0001
0000
0100
1000
0100
0000
1000
0000
0000
0000
,  // measure 9
1000
0000
0001
1000
0100
0010
0000
0010
,  // measure 10
0000
0000
0010
0000
0100
0000
0001
0000
1000
0000
1000
0000
1000
0000
0000
0010
,  // measure 11
0100
0000
0010
0100
0010
0000
1000
0000
0000
0000
0001
0000
0000
0000
0100
0000
,  // measure 12
0010
0001
0100
0000
0100
0000
0100
0010
,  // measure 13
1000
0001
0000
0001
0000
0001
0010
1000
,  // measure 14
0010
0000
0010
0000
0010
0001
0100
0001
,  // measure 15
0000
0000
0001
0000
0000
0000
1000
0000
1000
0000
0100
0000
1000
0001
1000
0000
,  // measure 16
1001
0000
0000
0010
0100
0000
0110
0000
0000
0000
0010
0000
1000
0000
0100
0000
,  // measure 17
1000
0010
0100
0001
0101
0000
1100
0000
,  // measure 18
1000
0100
0010
0001
0000
1000
0000
1000
,  // measure 19
0001
0010
0011
0000
1010
0000
0100
0010
,  // measure 20
1000
0001
0000
0001
0000
1000
0100
0010
,  // measure 21
1000
0001
0000
0001
1000
0010
0100
0001
,  // measure 22
0000
0100
0000
0100
0010
1000
1100
0000
,  // measure 23
0011
0000
0001
1000
0100
1000
0000
1000
,  // measure 24
0000
0010
0100
0010
1001
0000
0100
0010
,  // measure 25
1000
0100
0001
0100
0010
0001
0010
1000
,  // measure 26
0100
0010
0101
0000
1010
0000
0010
0001
,  // measure 27
0100
1000
0000
0001
0000
0010
0100
1000
,  // measure 28
0120
0000
0200
0330
0100
0010
1000
0001
,  // measure 29
0000
0001
0000
0001
1000
0010
2000
0000
,  // measure 30
3200
0000
1300
0001
0100
0002
0000
0023
,  // measure 31
0000
0031
0100
1000
1000
0001
0100
0010
,  // measure 32
1000
0001
0010
0100
0000
0100
0000
0100
,  // measure 33
0010
0001
2000
0000
3002
0000
0013
0001
,  // measure 34
0100
1000
0000
1000
0000
0100
0010
0001
,  // measure 35
0101
0000
0110
0000
2000
3002
0203
0320
,  // measure 36
0000
0001
0000
1030
0010
0100
1000
0100
,  // measure 37
0010
0001
0100
1000
0010
0001
0000
0001
,  // measure 38
1000
0001
0100
0010
0011
0000
1010
0000
,  // measure 39
0002
0023
0230
2300
0000
0100
0000
3001
,  // measure 40
1000
0000
0010
0000
1000
0000
1000
0000
1000
0100
0010
0000
0001
0000
0001
0100
,  // measure 41
0010
2000
0000
3020
0000
0230
0302
0103
,  // measure 42
1001
0000
1100
0000
0010
0001
0010
1000
,  // measure 43
0100
0010
0001
0100
1000
1000
1100
0000
,  // measure 44
0101
0000
0001
1000
0010
0100
0010
0001
,  // measure 45
0010
0100
1000
0001
1001
0000
0011
0000
,  // measure 46
1000
0001
0010
1000
0100
0010
0001
0100
,  // measure 47
1000
0001
1010
0000
0110
0000
1000
0100
,  // measure 48
0001
0010
0100
0010
0001
0100
0010
0010
,  // measure 49
0200
0300
0200
0000
0301
0100
0010
0001
,  // measure 50
0100
1000
0010
0100
0001
1000
0020
0030
,  // measure 51
0020
0000
0031
0100
1000
0010
0100
0001
,  // measure 52
1000
0100
0010
1000
2000
3000
2000
0000
,  // measure 53
3100
0001
1000
0100
0010
1000
0001
0010
,  // measure 54
0100
0001
0002
0003
0002
0000
0013
1000
,  // measure 55
0001
1000
0100
0010
1000
0010
0001
0100
,  // measure 56
0010
0000
0010
0000
1000
0100
0010
0001
,  // measure 57
0100
0001
1000
0001
0010
1000
0100
0000
,  // measure 58
0100
0000
0001
1000
0010
0100
0010
1000
,  // measure 59
0100
0000
0001
0000
1000
0000
0010
0000
0101
0000
1010
0000
0110
0000
0000
0010
,  // measure 60
0100
0000
0011
0000
1100
0000
0000
1000
0001
0000
0001
0000
0001
0000
0001
0000
,  // measure 61
0001
0100
1000
0000
1001
0000
0000
0000
1100
0000
1001
0000
0101
0000
0000
0100
,  // measure 62
1000
0000
1010
0000
0110
0000
0000
0010
0100
0000
0100
0000
0100
0000
0100
0000
,  // measure 63
0100
0001
0010
0000
0011
0000
0000
0000
0000
0000
0000
0000
0000
0000
0000
0000
;

//---------------dance-single - ----------------
#NOTES:
     dance-single:
     :
     Medium:
     9:
     0.345156,0.515116,0.054294,0.000000,0.000000,267.000000,261.000000,6.000000,0.000000,0.000000,0.000000,0.345156,0.515116,0.054294,0.000000,0.000000,267.000000,261.000000,6.000000,0.000000,0.000000,0.000000:
0000
0000
0000
0000
,
0000
0000
0000
0000
,
0000
0000
0000
0000
,
0000
0000
1000
1000
,
1000
0000
0000
0001
0000
0100
0000
0001
,
0100
0010
0010
0010
,
0000
1000
0000
0001
0000
1000
0001
0000
,
0100
0010
0100
0000
0001
1000
0001
0000
,
0100
0001
1000
0001
,
0001
0000
0001
0000
0000
0100
0000
0010
,
0000
0100
0010
0000
1000
0100
1000
0000
,
0001
0100
0001
0000
0010
0000
1000
0000
,
0100
0010
0010
0010
,
0000
0100
0000
1000
0000
0100
1000
0000
,
0001
0000
0001
0000
0001
0000
0000
1000
,
0000
0010
0000
0100
0010
0000
1000
0001
,
0100
0000
0001
0010
1000
0000
0001
0000
,
0100
0001
0010
0010
,
0010
0000
0000
0001
0000
1000
0000
0100
,
1000
0010
1000
0001
,
0000
1000
0000
0100
0000
0010
0001
0000
,
0100
0000
0100
0000
1000
0000
0000
0010
,
0000
1000
0000
0001
0010
0000
1000
0000
,
1000
0000
0001
0000
0000
0100
0000
0001
,
0000
0100
0010
0000
0010
0000
0100
0000
,
1000
0000
0000
0010
0000
0100
0000
0001
,
1000
0001
1000
0100
,
0000
0100
0000
1000
0000
0001
0010
0000
,
0001
0000
0100
0000
1000
0000
0000
1000
,
0000
0001
0000
0100
0010
0000
0100
0000
,
1000
0000
0100
0000
0000
0010
0000
0010
,
0000
0001
1000
0000
0001
0100
1000
0100
,
0001
0000
0000
0010
0000
0010
0000
0001
,
1000
0100
0100
0001
,
0000
1000
0000
0100
0000
0010
0010
0000
,
0001
0000
1000
0000
0100
0000
0000
1000
,
0000
0100
0000
0010
0010
0000
0001
0000
,
0010
0000
0001
0000
0000
0100
0000
0010
,
0000
1000
1000
0000
0001
0000
1000
0000
,
0100
0000
0000
0010
0000
1000
0000
0100
,
0010
0000
0001
1000
0001
0100
0010
1000
,
0100
0010
0010
0010
,
0001
0000
0100
0000
1000
0000
0000
0010
,
0000
0010
0000
0001
0100
0000
1000
0000
,
0100
0000
0010
0000
0000
0001
0000
0100
,
0000
1000
1000
0000
0010
0000
0001
0000
,
0010
0000
0000
1000
0000
0100
0000
0010
,
0010
0001
0001
0001
,
0000
1000
0000
0001
0000
0100
0100
0000
,
0010
0000
1000
0000
0100
0000
0000
1000
,
0000
0010
0000
0001
0001
0000
0001
0000
,
0100
0000
0010
0000
0000
0001
0000
1000
,
0000
0100
0100
0000
1000
0000
1000
0000
,
1000
0000
0000
0100
0000
0010
0000
0100
,
0100
0010
0010
0010
,
0000
1000
0000
0100
0000
1000
1000
0000
,
0100
0000
0100
0000
0100
0000
0000
0100
,
0000
0100
0000
0100
0100
0000
0010
0000
,
0001
0000
0100
0000
0000
0010
0000
1000
,
0000
0001
1000
0000
0001
0001
0101
0000
,
1000
1000
1100
0000
0100
0100
0010
0010
,
1000
0100
1001
0000
0001
0001
0011
0000
,
0010
0010
1010
0000
1000
1000
0100
0100
,
0010
0100
0110
0000
0000
0000
0000
0000
;

//---------------dance-single - ----------------
#NOTES:
     dance-single:
     :
     Easy:
     7:
     0.255958,0.372029,0.054294,0.000000,0.000000,198.000000,192.000000,6.000000,0.000000,0.000000,0.000000,0.255958,0.372029,0.054294,0.000000,0.000000,198.000000,192.000000,6.000000,0.000000,0.000000,0.000000:
0000
0000
0000
0000
,
0000
0000
0000
0000
,
0000
0000
0000
0000
,
0000
0000
1000
1000
,
1000
0000
0000
0100
0000
0010
0000
0000
,
0000
0001
0001
0001
,
0000
0010
0000
0100
0000
0000
0000
0000
,
0100
0010
0100
1000
,
0001
0010
1000
0010
,
0010
0000
0010
0000
0000
1000
0000
0001
,
0000
0000
1000
0100
,
1000
0010
0001
0100
,
0010
0100
0100
0100
,
0000
0001
0000
1000
0000
0000
0000
0000
,
0001
0000
1000
0000
0100
0000
0000
1000
,
0000
0001
0000
0000
0000
0000
0100
0000
,
0001
0010
1000
0100
,
0010
1000
0010
0010
,
0010
0000
0000
1000
0000
0100
0000
0000
,
0000
1000
0100
0001
,
0000
0100
0000
0010
0000
0000
1000
0000
,
0100
0010
0001
0100
,
1000
0000
0000
0010
,
0010
0000
1000
0000
0000
0100
0000
0010
,
0000
0000
1000
0010
,
0001
0100
0010
0001
,
1000
0100
1000
0010
,
0000
1000
0000
0100
0000
0000
0000
0000
,
0010
0000
0100
0000
0010
0000
0000
0001
,
0000
1000
0000
0000
0001
1000
0001
0000
,
0100
0000
0010
0000
0000
1000
0000
0100
,
0000
0000
0000
0000
1000
0100
1000
0000
,
0001
0000
0000
0100
0000
0001
0000
0000
,
0000
0010
0010
0010
,
0000
0010
0000
0010
0000
0000
0000
0000
,
1000
0000
1000
0000
1000
0000
0000
1000
,
0000
1000
0000
0000
0000
0000
0001
0000
,
0001
0000
0001
0000
0000
0001
0000
0001
,
0000
0000
0100
0100
,
0100
0000
0000
0100
0000
0100
0000
0000
,
0000
0000
0001
1000
0100
0000
1000
0001
,
0100
0010
0010
0010
,
1000
0000
0100
0000
0001
0000
0000
0100
,
0000
1000
0000
0000
0000
0000
0010
0000
,
0100
0000
0010
0000
0000
0001
0000
1000
,
0000
0000
0100
0010
,
0001
0000
0000
0100
0000
1000
0000
0000
,
0000
0010
0100
1000
,
0000
0010
0000
0001
0000
0000
0000
0000
,
0100
0000
0010
0000
1000
0000
0000
0100
,
0000
0001
0000
0000
0000
0000
0010
0000
,
0010
0000
0001
0000
0000
1000
0000
1000
,
0000
0000
0100
0010
,
0010
0000
0000
1000
0000
0001
0000
0000
,
0000
0010
1000
0100
,
0000
0010
0000
0010
0000
0000
0000
0000
,
0001
0000
1000
0000
0100
0000
0000
1000
,
0000
1000
0000
0000
0000
0000
0001
0000
,
0100
0000
1000
0000
0000
0010
0000
0010
,
0000
0000
1000
1100
,
0001
0101
0100
0100
,
0100
1001
0001
0011
,
1000
1010
0010
0010
,
0010
0110
0000
0000
;

//---------------dance-single - ----------------
#NOTES:
     dance-single:
     :
     Beginner:
     3:
     0.138321,0.171705,0.000000,0.000000,0.000000,107.000000,107.000000,0.000000,0.000000,0.000000,0.000000,0.138321,0.171705,0.000000,0.000000,0.000000,107.000000,107.000000,0.000000,0.000000,0.000000,0.000000:
0000
0000
0000
0000
,
0000
0000
0000
0000
,
0000
0000
0000
0000
,
0000
0000
1000
1000
,
1000
0000
0000
0000
,
0000
0001
0001
0001
,
0000
0000
0000
0000
,
0100
0000
0010
0000
,
1000
0000
0000
0100
,
0100
0100
0000
0000
,
0000
0000
0001
0000
,
1000
0000
0010
0000
,
0000
0010
0010
0010
,
0000
0000
0000
0000
,
1000
1000
1000
0000
,
0000
0000
0000
0001
,
0000
1000
0000
0100
,
0000
0000
0010
0010
,
0010
0000
0000
0000
,
0000
0010
0010
0010
,
0000
0000
0000
0000
,
1000
0000
0001
0000
,
0100
0000
0000
0001
,
0001
0001
0000
0000
,
0000
0000
1000
0000
,
0100
0000
0001
0000
,
0000
1000
1000
1000
,
0000
0000
0000
0000
,
0001
0001
0001
0000
,
0000
0000
0000
0100
,
0100
0100
0000
0000
,
0000
0000
0010
0010
,
0010
0000
0000
0000
,
0000
0100
0100
0100
,
0000
0000
0000
0000
,
0100
0100
0100
0000
,
0000
0000
0000
0001
,
0000
1000
0000
0010
,
0000
0000
1000
1000
,
1000
0000
0000
0000
,
0000
0001
0000
1000
,
0000
0001
0000
0000
,
0100
0100
0100
0000
,
0000
0000
0000
1000
,
1000
1000
0000
0000
,
0000
0000
1000
1000
,
1000
0000
0000
0000
,
0000
0001
0001
0001
,
0000
0000
0000
0000
,
0001
0001
0001
0000
,
0000
0000
0000
0010
,
0010
0010
0000
0000
,
0000
0000
0100
0100
,
0100
0000
0000
0000
,
0000
0100
0100
0100
,
0000
0000
0000
0000
,
0100
0100
0100
0000
,
0000
0000
0000
0001
,
0001
0001
0000
0000
,
0000
0000
1000
0000
,
1000
0000
0001
0001
,
0001
0000
0100
0000
,
0100
0000
0010
0010
,
0010
0010
0000
0000
;
