#TITLE:Does Your Mother Know;
#ARTIST:ABBA;
#BANNER:Does Your Mother Know-bn.png;
#BACKGROUND:Does Your Mother Know-bg.png;
#JACKET:Does Your Mother Know-jacket.png;
#MUSIC:Does Your Mother Know.ogg;
#SAMPLESTART:49.583;
#SAMPLELENGTH:20;
#DISPLAYBPM:132:138;
#BPMS:0=133,8=132,12=136,24=135,32=134,40=136.7,52=135.86,58=134.3,60=137,66=135.135,72=136.15,74=135.531,78=136.444,104=135.73,120=136.875,132=136.333,140=138,148=135.4,152=134.42,156=133.333,180=136.31,188=135.9,200=134.75,204=136.125,212=135.8,220=137.9,228=133.64,232=135.738,236=136.78;
#BGCHANGES:;

//---------------dance-single - ----------------
#NOTES:
     dance-single:
     :
     Beginner:
     3:
     :
0000
0000
0000
0000
,
0000
0000
0000
0000
,
0000
0000
0000
0000
,
0000
0000
0000
0000
,
0020
0000
0030
0000
,
2000
0000
3000
0000
,
0002
0000
0003
0000
,
0200
0000
0300
0000
,
0000
0001
0001
0000
,
1000
0000
0001
0000
,
0000
0100
0100
0000
,
0010
0000
0100
0000
,
0002
0000
0003
0000
,
2000
0000
3000
0000
,
0010
0000
1000
0000
,
0100
0000
0001
0000
,
0010
0000
0100
0100
,
0100
0000
1000
0000
,
0001
0000
0100
0100
,
0100
0000
0010
0000
,
1000
0000
0020
0000
,
0030
0000
0200
0000
,
0300
0000
0001
0000
,
0010
0000
0100
0000
,
1000
0000
0010
0000
,
1000
1000
1000
0000
,
0001
0000
0010
0000
,
0001
0001
0001
0000
,
0100
0000
0100
0000
,
0010
0000
1000
0000
,
0010
0000
1000
0000
,
0001
0001
0001
0001
,
0000
0000
0000
0000
,
0010
0000
0100
0000
,
0010
0000
0100
0000
,
1000
1000
1000
1000
,
0000
0000
0000
0000
,
0010
0000
0100
0000
,
0001
0000
1000
0000
,
0010
0000
0000
0000
,
0100
0000
0000
0000
,
0001
0000
0010
0000
,
0100
0000
1000
0000
,
0001
0000
0000
0000
,
1000
0000
0000
0000
,
0010
0000
0010
0000
,
0100
0000
0001
0000
,
0100
0000
0001
0000
,
1000
1000
1000
1000
,
0000
0000
0000
0000
,
0100
0000
0010
0000
,
0100
0000
0010
0000
,
0100
0100
0100
0100
,
0000
0000
0000
0000
,
1000
0000
0010
0000
,
0100
0000
0001
0000
,
0010
0010
0010
0010
,
0000
0000
0000
0000
,
0001
0000
1000
0000
,
0001
0000
0100
0000
,
0010
0010
0010
0010
,
0000
0000
0000
0000
,
0010
0000
0000
0000
;

//---------------dance-single - ----------------
#NOTES:
     dance-single:
     :
     Easy:
     7:
     :
0000
0000
0000
0000
,
0000
0000
0000
0000
,
0000
0000
0000
0000
,
0000
0000
0000
0000
,
0010
1000
0010
1000
,
0001
0010
0001
0010
,
0100
1000
0100
1000
,
0001
0100
0001
0100
,
0010
1000
0001
0000
,
0010
0001
0100
1000
,
0010
0100
0010
0000
,
1000
0100
0010
0001
,
0100
0010
0010
0000
,
1000
0001
0001
0010
,
0001
0100
1001
0100
,
1010
0100
0011
0100
,
1010
0100
1001
0010
,
1000
0000
0100
0010
,
0001
0100
0001
0010
,
1000
0000
0100
0010
,
0001
1000
0010
0100
,
0100
0000
0001
1000
,
1000
0010
1000
0100
,
0110
0001
0101
1000
,
1100
0001
0101
0100
,
0110
0010
1000
0000
,
0001
0010
0001
0100
,
1000
0010
0100
0000
,
0002
2003
3002
2003
,
3010
0010
1000
1000
,
0001
0001
0010
0010
,
0001
0100
1000
0100
,
0020
0230
0320
0230
,
1300
1000
0001
0001
,
0100
0100
0001
0001
,
1000
0010
0001
0010
,
2000
3200
0320
0032
,
0103
0010
1000
0001
,
0100
0010
1000
0001
,
0010
0100
1000
0000
,
0001
0100
0010
0000
,
1000
0001
1000
0010
,
0100
0001
0010
0100
,
1000
0010
0100
0000
,
0001
1000
0010
0000
,
2000
3002
0203
0320
,
1030
1000
0100
0100
,
0001
0001
0010
0010
,
0001
0100
0010
1000
,
0200
2300
3200
2300
,
3010
0010
1000
1000
,
0100
0100
0001
0001
,
0010
0001
0100
1000
,
0002
0203
0302
0203
,
0310
0010
0100
0100
,
0001
0001
1000
1000
,
0100
0010
0001
1000
,
0020
2030
3020
2030
,
3001
0001
0010
0010
,
0100
0100
1000
1000
,
0010
1000
0100
0001
,
0020
0032
0023
0032
,
0013
0000
0000
0000
;

//---------------dance-single - ----------------
#NOTES:
     dance-single:
     :
     Medium:
     10:
     :
0000
0000
0000
0000
,
0000
0000
0000
0000
,
0000
0000
0000
0000
,
0000
0000
0000
0000
0000
0010
0100
0010
,
1000
0001
0100
0000
0001
1000
0100
0000
,
1000
0001
0010
0000
0001
1000
0010
0000
,
1000
0100
0010
0000
0001
0100
0010
0000
,
1000
0001
1000
0001
0100
0010
0100
0010
,
1000
0000
0100
0010
0001
1000
0000
0020
,
0000
1030
0100
1000
0100
0000
0000
0000
,
0010
0000
0001
1000
0001
0100
0000
0020
,
0000
1030
0100
1000
0100
0000
0000
0000
,
0001
1000
0000
1001
0000
0000
0000
0000
,
0010
0100
0000
0110
0000
0001
1000
0001
,
1000
0100
0000
0010
0002
0000
0103
0010
,
2000
0000
3001
1000
0200
0000
0310
0001
,
0100
0010
0000
1000
0001
0000
0010
0001
,
0100
0010
0000
2000
0000
3100
1000
0010
,
1000
0100
0010
0001
0000
0000
0100
0001
,
1000
0001
0000
0020
0000
0130
0010
0001
,
1000
0000
0000
0000
0010
1000
0000
1010
,
0000
0000
0000
0000
0001
0100
0000
0101
,
0000
0010
1000
0010
1000
0001
0000
0010
,
0200
0000
0310
0001
2000
0000
3001
0100
,
0020
0000
1030
0010
0100
0001
1000
0001
,
0100
0000
0001
0010
0001
1000
0000
0200
,
0000
0310
0100
0010
0001
1000
0010
0100
,
0001
0000
1000
0010
1000
0100
0000
0000
,
1100
0101
1100
0101
,
0010
0000
1000
0001
1000
0100
0000
0020
,
0000
0031
0100
0010
0100
0001
0000
2000
,
0000
3100
0010
0100
0010
0001
0100
0010
,
2000
3200
2300
3200
,
0310
0000
0100
1000
0001
0100
0000
0002
,
0000
0013
0001
0010
0100
1000
0000
0020
,
0000
1030
0100
0010
0001
0100
0010
1000
,
0002
0203
0302
0203
,
0310
0000
1000
0001
1000
0000
0100
0010
,
0001
1000
0000
1010
0000
0000
0010
0100
,
0010
1000
0000
0101
0000
0000
0001
0100
,
0001
1000
0000
1001
0000
0000
0010
0100
,
0010
0000
1000
0100
0010
0000
0001
0100
,
0001
0010
0000
0011
0000
0000
0100
1000
,
0010
1000
0000
1100
0000
0000
0001
0100
,
0010
0100
0000
0110
0000
0000
0000
0000
,
0101
1100
0101
1100
,
0001
0000
0010
0001
0010
0100
0000
2000
,
0000
3010
0100
0010
1000
0001
0000
0200
,
0000
0301
0010
0100
1000
0010
0100
0001
,
0020
0230
0320
0230
,
1300
0000
0010
1000
0010
0100
0000
0002
,
0000
0013
0001
0100
0001
1000
0000
0020
,
0000
0130
0010
1000
0001
0010
0100
1000
,
0020
2030
3020
2030
,
3100
0000
0100
0010
0001
1000
0000
0002
,
0000
0013
0100
0010
0001
1000
0000
0200
,
0000
0310
0100
0010
0001
1000
0001
0100
,
0002
0023
0032
0023
,
0130
0000
0010
0001
1000
0010
0000
2000
,
0000
3100
0010
0001
0100
0010
0000
2000
,
0000
3001
1000
0100
0010
0001
0100
0010
,
2000
3002
2003
3002
,
0023
0000
0000
0000
,
0000
0000
0000
0000
,
0000
0000
0000
0030
;

//---------------dance-single - ----------------
#NOTES:
     dance-single:
     :
     Hard:
     13:
     :
0000
0000
0000
0000
,
0000
0000
0000
0000
,
0000
0000
0000
0000
,
0000
0000
0000
0000
0000
0000
0000
0000
0000
0000
0010
0000
0010
0000
1000
0001
,
1000
0000
0100
0000
0010
0000
0100
0000
1000
0000
0100
0000
0010
0000
0001
1000
,
0001
0000
0100
0000
0010
0000
0100
0000
0001
0000
0100
0000
0010
0000
1000
0100
,
1000
0000
0001
0000
0010
0000
0100
0000
0010
0000
0001
0000
0010
0000
0100
1000
,
0100
0000
0010
0000
0001
0000
1000
0000
0001
0000
0100
0000
0100
0000
0010
1000
,
0010
0000
1001
0100
0001
0010
0100
2000
,
0000
3010
0001
0010
1000
0100
0100
0010
,
0001
0000
0110
0001
1000
0010
0100
0002
,
0000
0000
0013
0000
1000
0000
0010
0000
0001
0000
0100
0000
0100
0000
0010
1000
,
0010
0100
0001
1000
0100
0010
0001
0000
,
1000
0010
0100
0001
0000
0010
0010
0010
,
0001
0100
0010
1000
1001
0010
0100
0001
,
0011
0100
1000
0001
1010
0100
0001
1000
,
0010
0010
0100
0001
1000
0000
0110
0001
,
0010
0100
1000
0020
0000
0130
1000
0100
,
0001
0010
0001
1000
0100
0000
1001
0010
,
0001
0100
1000
0002
0000
0103
1000
0100
,
0001
0000
0010
0000
0010
0000
0100
1000
0100
0000
0001
0000
0100
0000
1000
0000
,
0010
0100
0001
0000
0010
0001
0100
1000
,
0000
0010
0010
0010
1000
0001
0100
0010
,
1001
1000
0100
0010
0011
0100
0001
1000
,
1010
0100
0001
0010
1000
1000
0100
0010
,
0001
0000
0110
0100
1000
0010
0100
0002
,
0000
0013
1000
0010
0100
1000
0001
0100
,
0010
0000
1001
0100
1000
0010
0001
0000
,
0010
0010
0001
0001
0100
0100
1000
1000
,
0010
0100
0010
0001
0010
1000
0010
0100
,
0010
0001
0010
1000
0010
0001
0010
0100
,
1000
0000
0100
0000
0001
0000
0100
0000
1000
0000
0100
0000
0001
0000
0010
1000
,
0100
0100
0010
0010
0001
0001
1000
1000
,
0010
0001
0010
0100
0010
0001
0010
1000
,
0010
0100
0010
0001
0010
0100
0010
0001
,
0010
0000
1000
0000
0100
0000
0001
0000
0100
0000
0010
0000
1000
0000
0010
0001
,
0100
0010
1000
0001
1000
0010
0001
0100
,
0001
0001
0010
0100
1000
0010
0100
0001
,
1000
0100
0000
0110
0001
0000
0100
0010
,
1000
1000
0000
1010
0001
0000
0010
0100
,
0001
1000
0000
0101
0010
0000
1000
0100
,
0010
0010
0001
1000
0001
0100
0010
1000
,
0100
0010
0000
0011
1000
0000
0001
0100
,
0010
1000
0000
1100
0010
0000
0100
0001
,
1000
0010
0000
1001
0000
0100
0100
0100
,
0001
0001
0010
0010
0100
0100
1000
1000
,
0010
0100
0010
0001
0010
0100
0010
1000
,
0100
0001
0100
0010
1000
0010
0100
0010
,
0001
0000
0100
0000
0010
0000
0001
0000
0010
0000
1000
0000
0010
0000
0100
0001
,
1000
1000
0001
0001
0010
0010
0100
0100
,
1000
0010
0100
0010
1000
0010
0001
0100
,
0010
0001
0010
1000
0010
0100
0010
1000
,
0100
0000
0001
0000
0100
0000
0010
0000
0100
0000
0001
0000
0100
0000
1000
0001
,
0010
0010
0100
0100
1000
1000
0001
0001
,
0100
0010
0100
0010
0001
0010
1000
0100
,
0010
1000
0010
0001
0100
0010
0100
0001
,
0010
0000
1000
0000
0010
0000
0100
0000
0010
0000
1000
0000
0010
0000
0001
1000
,
0100
0100
0010
0010
1000
1000
0001
0001
,
0010
1000
0010
0100
0010
1000
0010
0001
,
0100
0010
0100
1000
0100
0001
1000
0100
,
0001
0000
0100
0000
0010
0000
0100
0000
0001
0000
0100
0000
1000
0000
0001
0100
,
0010
0010
1000
1000
0100
0100
0001
0001
,
0020
0000
0000
0000
,
0000
0000
0000
0000
,
0000
0000
0000
0030
;
