#TITLE:Do you love me?;
#ARTIST:reo-nagumo;
#BANNER:Do you love me.png;
#BACKGROUND:Do you love me-bg.png;
#JACKET:Do you love me-jacket.png;
#MUSIC:Do you love me.ogg;
#SAMPLESTART:55.17;
#SAMPLELENGTH:20;
#DISPLAYBPM:100;
#BPMS:0=100;
#BGCHANGES:0=Do you love me.mp4=1=0=0=0,
;

//---------------dance-single - ----------------
#NOTES:
     dance-single:
     :
     Beginner:
     1:
     :
0000
0000
0000
0000
,
0000
0000
0000
0000
,
0000
0000
0000
0000
,
0000
0000
0000
0000
,
0000
0000
0000
0000
,
0001
0000
0001
0000
,
1000
0000
1000
0000
,
0010
0000
0010
0000
,
0100
0000
0100
0000
,
0001
0000
1000
0000
,
0010
0000
0100
0000
,
0010
0000
1000
0000
,
0001
0000
0010
0000
,
0100
0000
1000
0000
,
1000
0000
0000
0000
,
0001
0000
0010
0000
,
0001
0000
0100
0000
,
0010
0000
1000
0000
,
0001
0000
0000
0000
,
0010
0000
0001
0000
,
0100
0000
0000
0000
,
0010
0000
1000
0000
,
0100
0000
0000
0000
,
0010
0000
0010
0000
,
0001
0000
1000
0000
,
0010
0000
0000
0000
,
1000
0000
0001
0000
,
2000
0000
3000
0000
,
0200
0000
0300
0000
,
0020
0000
0030
0000
,
0002
0000
0003
0000
,
1001
0000
0000
0000
;

//---------------dance-single - ----------------
#NOTES:
     dance-single:
     :
     Easy:
     6:
     :
0000
0000
0000
0000
,
0000
0000
0000
0000
,
0000
0000
0000
0000
,
0000
0000
0000
0000
,
0000
0000
0000
0000
,
0010
0010
0010
0100
,
0010
0000
0010
0000
0010
1000
0100
0000
,
0010
0010
0010
0100
,
0010
0010
0010
0100
,
0010
0010
0010
0100
,
0010
0000
0010
0000
0010
0001
0100
0000
,
0100
0000
0000
0000
,
0010
1000
0100
0001
,
0010
1000
0100
0001
,
0100
1000
0000
0000
,
0100
0000
0000
0000
,
0010
1000
0100
0001
,
1000
0000
0001
0000
,
0010
0001
0100
0000
0000
0000
0000
0000
,
0010
0000
0000
0000
,
0000
0010
0001
0000
0001
0000
0100
0000
,
0010
0000
0000
0000
,
0000
0010
0001
0000
0001
0000
0100
0000
,
0100
0000
0100
0000
0100
0100
0100
0000
,
0001
0000
0001
0000
0001
0001
0001
0000
,
0010
0000
0010
0000
0010
0010
0010
0000
,
1000
0000
1000
0000
1000
1000
1000
1000
,
0100
0000
0000
0000
,
0010
0000
0010
0000
0010
0010
0010
0000
,
0100
0000
0000
0000
,
0100
0000
0000
0000
,
1001
0000
0000
0000
;

//---------------dance-single - ----------------
#NOTES:
     dance-single:
     :
     Medium:
     8:
     :
0000
0000
0000
0000
,
0000
0000
0000
0000
,
0000
0000
0000
0000
,
0000
0000
0000
0000
,
0000
0000
0000
0000
,
0010
0000
0010
0000
0010
1000
0100
0000
,
0010
0000
0010
0000
0010
0001
0100
0000
,
0010
0000
0010
0000
0010
1000
0100
0000
,
0010
0001
0010
0000
0010
1000
0100
0000
,
0010
0010
0010
0100
,
0010
0001
0010
1000
0010
0001
1000
0010
,
1001
0010
0001
0100
,
0010
1000
0100
0001
,
0010
1000
0100
0001
,
0010
1000
0100
0001
,
0100
1000
0010
0001
,
0010
1000
0100
0001
,
1000
0000
0001
0000
,
0010
0001
0100
1000
0100
0001
1000
0000
,
0001
0010
0000
0000
0000
0000
0001
0010
0000
0000
0000
0000
0001
0010
0000
0000
,
0000
0010
0001
0000
0001
0000
0100
0000
,
0001
0010
0000
0000
0000
0000
0001
0010
0000
0000
0000
0000
0001
0010
0000
0000
,
0000
0010
0001
0000
0001
0000
0100
0000
,
0100
0010
0100
0010
0100
0010
0100
0000
,
0001
0100
0001
0100
0001
0100
0001
0000
,
0010
0100
0010
0100
0010
0100
0010
0000
,
1000
0100
1000
0100
1000
0100
1000
1000
,
0100
0000
0000
0000
,
0010
0000
0010
0000
0010
0100
0010
0000
,
0100
0000
0000
0000
,
1000
0000
1000
0000
1000
0100
1000
0100
,
1001
0000
0000
0000
;

//---------------dance-single - ----------------
#NOTES:
     dance-single:
     :
     Hard:
     10:
     :
0000
0000
0000
0000
,
0000
0000
0000
0000
,
0000
0000
0000
0000
,
0000
0000
0000
0000
,
0000
0000
0000
0000
,
0010
0000
0010
0000
0010
1000
0100
0000
,
0000
0001
0000
0001
0000
0001
0000
0001
,
0010
1000
0010
0000
0010
1000
0100
0000
,
0010
1000
0010
0000
0010
1000
0100
0000
,
0010
0010
0010
0100
,
0010
0000
0000
0000
0010
0000
0000
0000
0010
0001
0000
0100
0000
1000
0010
0000
,
1001
0000
0010
0000
1000
0100
0001
0000
,
0010
0000
1000
0000
0100
0001
0010
0000
,
0010
0000
1000
0000
0100
0001
0010
0000
,
0000
0001
0000
0001
0000
0001
0000
0001
,
0100
0000
1000
0000
0010
0001
0100
0000
,
0010
0000
1000
0000
0100
0001
0010
0000
,
1000
0000
0001
0000
,
0010
0001
0100
1000
0100
0001
1000
0000
,
0001
0010
0001
0010
0001
0000
0001
0010
0001
0010
0001
0000
0001
0010
0001
0010
,
0001
0010
0001
0000
0001
0000
0100
0000
,
0001
0010
0001
0010
0001
0000
0001
0010
0001
0010
0001
0000
0001
0010
0001
0010
,
0000
0010
0001
0000
0001
0000
0100
0000
,
0100
0000
0000
0000
0100
0000
0000
0100
0001
0000
0001
0000
0001
0000
0000
0000
,
0001
0000
0000
0000
0001
0000
0000
0001
0010
0000
0010
0000
0010
0000
0000
0000
,
0010
0000
0000
0000
0010
0000
0000
0010
1000
0000
1000
0000
1000
0000
0000
0000
,
1000
0000
0000
0000
1000
0000
0000
1000
0100
0000
0100
0000
0100
0000
1000
0000
,
0100
0000
0000
0000
,
0010
0000
0000
0000
0010
0000
0000
0010
0100
0000
0100
0000
0100
0000
0000
0000
,
0100
0000
0000
0000
,
1000
0000
0000
0000
1000
0000
0000
1000
0001
0000
0001
0000
0001
0000
0001
0000
,
1001
0000
0000
0000
;

//---------------dance-single - ----------------
#NOTES:
     dance-single:
     :
     Challenge:
     12:
     :
0000
0000
0000
0000
,
0000
0000
0000
0000
,
0000
0000
0000
0000
,
0000
0000
0000
0000
,
0000
0000
0000
0000
,
0001
0010
0000
0000
0100
1000
0000
0000
0010
0100
0010
0100
0010
0000
0000
0000
,
1000
0001
1000
0000
0000
0000
0010
0100
0001
0000
0001
0000
1000
0000
0000
0000
,
0010
1000
0000
1000
0100
0000
0010
0000
0001
1000
0001
1000
0001
0000
0000
0000
,
0100
0000
0010
0000
1000
0000
0001
0000
0010
0000
0100
1000
0100
1000
0000
0000
,
0001
1000
0000
0000
0010
0000
1000
0000
0001
0000
0010
0000
0100
0000
1000
0000
,
0010
0100
0010
0100
0000
0000
0001
0000
1000
0100
0000
0010
0000
0001
1000
0000
,
0101
0000
0000
0000
1010
0000
0001
0000
1000
0000
0100
0000
0010
0000
0001
2000
,
0010
0000
0000
0000
3001
1000
0001
0100
0010
0000
0100
0000
0100
0000
0001
0000
,
2000
0000
0100
0000
3100
0000
0010
0001
0010
0000
0100
0000
1000
0000
0001
0000
,
0100
0000
1010
0000
0000
0000
0101
0000
0000
0000
1000
0001
0010
0100
1000
0000
,
0010
0000
0000
0000
0100
0000
0001
0000
0010
0000
0100
0000
1000
0000
0001
0100
,
0000
0010
1000
0000
0001
0010
0001
1000
0100
0000
0010
0000
0010
0000
0001
0000
,
0200
0000
0010
0000
0310
0000
1000
0001
1000
0000
0100
0000
0010
0000
0002
0000
,
0000
1003
0001
0000
0100
0000
0010
1000
0100
0000
1001
0000
0000
0000
0110
0000
,
0001
0100
1000
0100
0001
0000
1000
0100
0001
0100
1000
0000
0001
0100
1000
0100
,
0001
0000
0010
0001
0010
0100
0010
1000
0010
0000
0001
0100
0000
0010
0000
0000
,
1000
0100
0001
0100
1000
0000
0001
0100
1000
0100
0001
0000
1000
0001
0100
0010
,
0000
0000
1000
0100
1000
0000
0001
0000
0100
0010
0000
0100
0000
0001
0000
0000
,
0011
0000
0100
0000
1000
0000
0010
1000
0001
0000
0100
0000
0010
0000
1000
0000
,
0100
0000
1000
0000
0001
0000
0010
0001
0100
0000
0010
0000
1000
0000
0001
0000
,
0010
0000
1000
0000
0100
0000
1000
0001
1000
0000
0010
0000
0100
0000
0001
0000
,
0010
0000
0100
0000
1000
0000
0001
1000
0001
0000
0100
0010
1000
0000
0001
0010
,
0200
0000
1000
0000
1300
0000
0001
0100
0001
0000
0010
0000
0100
0000
1000
0000
,
0020
0000
0100
0000
0130
0000
0001
0010
0001
0000
1000
0000
0100
0000
0010
0000
,
0002
0000
0100
0000
0103
0000
0010
1000
0010
0000
1000
0000
0100
0000
0001
0000
,
2000
0000
0010
0000
3010
0000
1000
0100
0010
0000
0001
1000
0010
0000
0100
0000
,
1001
0000
0000
0000
;

//---------------dance-double - ----------------
#NOTES:
     dance-double:
     :
     Easy:
     6:
     :
00000000
00000000
00000000
00000000
,
00000000
00000000
00000000
00000000
,
00000000
00000000
00000000
00000000
,
00000000
00000000
00000000
00000000
,
00000000
00000000
00000000
00000000
,
00000001
00000100
00001000
00011000
,
00100000
00000000
00000000
00000000
00001000
00010000
00000100
00000000
,
00010000
01000000
00001000
00000100
,
00010000
01000000
00001000
00000100
,
00000001
00001000
00000100
00010000
,
00000010
00000000
00000000
00000000
00010000
00001000
01000000
00000000
,
00010000
00000000
00000000
00000000
,
00100000
10000000
01000000
00010000
,
00001000
00000100
00000001
00000010
,
00001000
00010000
00000000
00000000
,
00001000
00000000
00000000
00000000
,
00000010
00000001
00000100
00001000
,
00010000
00000000
00000010
00000000
,
00010000
00001000
01000000
00000000
00000000
00000000
00000000
00000000
,
00001000
00000000
00000000
00000000
,
00000000
00000010
00001000
00000000
00001000
00000000
00000100
00000000
,
00010000
00000000
00000000
00000000
,
00000000
00100000
00010000
00000000
00010000
00000000
01000000
00000000
,
01000000
00000000
01000000
00000000
01000000
01000000
01000000
00000000
,
00001000
00000000
00001000
00000000
00001000
00001000
00001000
00000000
,
00010000
00000000
00010000
00000000
00010000
00010000
00010000
00000000
,
00000100
00000000
00000100
00000000
00000100
00000100
00000100
00000100
,
00001000
00000000
00000000
00000000
,
10000000
00000000
00000000
00000000
,
00000001
00000000
00000000
00000000
,
10000000
00000000
00000000
00000000
,
00011000
00000000
00000000
00000000
;

//---------------dance-double - ----------------
#NOTES:
     dance-double:
     :
     Medium:
     9:
     :
00000000
00000000
00000000
00000000
,
00000000
00000000
00000000
00000000
,
00000000
00000000
00000000
00000000
,
00000000
00000000
00000000
00000000
,
00000000
00000000
00000000
00000000
,
00000001
00000000
00000100
00000000
00001000
01000000
00010000
00000000
,
00000000
00001000
00000000
00010000
00000000
00001000
00000000
00010000
,
00100000
10000000
01000000
00000000
00100000
00001000
00010000
00000000
,
00000010
00001000
00000100
00000000
00001000
00010000
00000100
00000000
,
00000010
00000001
00001000
00000100
,
00000010
00000001
00000100
00001000
00010000
01000000
00100000
00010000
,
10010000
10000000
01000000
00010000
,
00001000
00000100
00000001
00000010
,
00001000
00010000
00100000
10000000
,
00000000
10000000
00000000
01000000
00000000
00100000
00000000
00010000
,
00001000
00000100
00000001
00000010
,
00001000
00100000
10000000
01000000
,
10010000
00000000
00011000
00000000
,
00000010
00010000
00001000
00100000
00010000
01000000
10000000
00000000
,
00010000
00100000
00010000
00100000
00010000
00000000
00010000
00100000
00010000
00100000
00010000
00000000
00010000
00100000
00010000
00100000
,
00010000
00001000
00010000
00000000
00000100
00000000
00001000
00000000
,
00001000
00000010
00001000
00000010
00001000
00000000
00001000
00000010
00001000
00000010
00001000
00000000
00001000
00000010
00001000
00000010
,
00000000
00010000
00001000
00000000
01000000
00000000
00010000
00000000
,
01000000
00000000
00000000
00000000
01000000
00000000
00000000
01000000
00010000
00000000
00010000
00000000
00010000
00000000
00000000
00000000
,
00001000
00000000
00000000
00000000
00001000
00000000
00000000
00001000
00000010
00000000
00000010
00000000
00000010
00000000
00000000
00000000
,
00000100
00000000
00000000
00000000
00000100
00000000
00000000
00000100
00001000
00000000
00001000
00000000
00001000
00000000
00000000
00000000
,
00010000
00000000
00000000
00000000
00010000
00000000
00000000
00010000
00100000
00000000
00100000
00000000
00100000
00000000
00100000
00000000
,
01000000
00000000
00000000
00000000
,
10000000
00100000
00010000
00000100
,
00000001
00000100
00001000
00100000
,
10000000
00000000
00000000
00000000
10000000
00000000
00000000
10000000
00010000
00000000
00010000
00000000
00010000
00000000
00010000
00000000
,
00011000
00000000
00000000
00000000
;

//---------------dance-double - ----------------
#NOTES:
     dance-double:
     :
     Hard:
     10:
     :
00000000
00000000
00000000
00000000
,
00000000
00000000
00000000
00000000
,
00000000
00000000
00000000
00000000
,
00000000
00000000
00000000
00000000
,
00000000
00000000
00000000
00000000
,
00110000
00000000
00000000
00000000
00001010
00000000
00000000
00000000
00010000
00001000
00010000
00001000
00010000
00000000
00000000
00000000
,
00000100
00001000
00000001
00000000
00000000
00000000
00000110
00000000
00000000
00000000
00001001
00000000
00000000
00000000
00000110
00000000
,
00001000
00000100
00000000
00000100
00001000
00000000
00010000
00000000
01000000
00000000
10000000
00000000
10000000
00000000
00000000
00000000
,
01000000
00010000
00100000
00010000
01000000
00001000
00001000
00000000
,
00010010
00000000
00000100
00000001
00000010
00000001
00001000
00000100
,
00000010
00000000
00000001
00000000
00000100
00000000
00000010
00000000
00001000
00000100
00000000
00010000
00000000
00001000
00100000
00000000
,
01100000
00000000
00000000
00000000
10000000
00000000
01000000
00000000
00100000
00000000
00010000
00000000
01000000
00000000
00100000
20000000
,
00000000
00000000
30000000
00000000
00010000
01000000
00010000
00100000
,
00002000
00000000
00013000
00010100
00000000
00000100
00000010
00000002
,
00000000
00001003
00000000
00000110
00000000
00001001
00000000
00000110
,
00010000
00000000
00000000
00000000
00001000
00000000
00000100
00000000
00000001
00000000
00000010
00000000
00000001
00000000
00001000
00000020
,
00000000
00000000
00000030
00000000
00000100
00000010
00010000
00001000
,
00200000
00000000
00301000
01001000
00000000
01000000
00100000
20000000
,
00000000
30010000
00100000
00001000
00000000
00010100
00000000
00000011
,
00001000
00000100
00000001
00000100
00001000
00000000
00000001
00000100
00001000
00000100
00000001
00000000
00001000
00000100
00010000
00000100
,
00001000
00100000
01000000
00010000
00100000
01000000
10000000
00000000
,
00010000
01000000
10000000
01000000
00010000
00000000
10000000
01000000
00010000
01000000
10000000
00000000
00100000
01000000
00010000
10000000
,
00000000
00000000
00100000
01000000
00010000
00000000
10000000
00000000
00010000
00000000
00000100
00000000
00000010
00000000
00000000
00000000
,
00001001
00000100
00000010
00001010
00000001
00000100
00000101
00000000
,
00001100
00000100
00010000
00011000
00001000
01000000
00100000
10000000
,
01000000
00100000
01000000
10000000
00100000
01000000
00001000
00010000
,
00000010
00000000
00010000
00000000
00000100
00000000
00000010
00000000
00000001
00000000
00000100
00000000
00001000
00000000
00000010
00000100
,
00000002
00000000
00000000
00000000
00000013
00000000
00000000
00000001
00000100
00000000
00000110
00000000
00000110
00000000
00010000
00000000
,
00002000
00000000
00000000
00000000
00103000
00000000
00000000
00010000
01000000
00000000
01100000
00000000
01100000
00000000
10000000
00000000
,
02000000
00000000
00000000
00000000
03100000
00000000
00000000
00001000
00010000
00000000
00010100
00000000
00010100
00000000
00001000
00000000
,
00000002
00000000
00000000
00000000
00000103
00000000
00000000
00000010
00001000
00000000
00000000
00000001
00000100
00000000
00000000
00000000
,
00011000
00000000
00000000
00000000
;

//---------------dance-double - ----------------
#NOTES:
     dance-double:
     :
     Challenge:
     12:
     :
00000000
00000000
00000000
00000000
,
00000000
00000000
00000000
00000000
,
00000000
00000000
00000000
00000000
,
00000000
00000000
00000000
00000000
,
00000000
00000000
00000000
00000000
,
00010000
10000000
00000000
00000000
01000000
00010000
00000000
00000000
00001000
00010000
00000010
00001000
00000100
00000000
00000000
00000000
,
00000010
00000001
00001000
00000000
00000000
00000000
00000100
00001000
00000001
00000000
00010010
00000000
00010100
00000000
00000000
00000000
,
00010000
00001000
00000000
00010000
01000000
00000000
10000000
00000000
00100000
01000000
00100000
10000000
00010000
00100000
00000000
00000000
,
01000000
00100000
00000000
00001000
00000000
00000100
00000000
00000001
00000010
00000000
00000100
00001000
00000100
00000010
00000000
00000001
,
00001000
00100000
00000000
00000000
10100000
00000000
10000000
00000000
00010000
00000000
00110000
00000000
00100000
00000000
01000000
10000000
,
00000000
00000000
00100000
00000000
01000000
00000000
00010000
00000000
00100000
01000000
00000000
10000000
00000000
00010000
00000100
00000000
,
00000110
00000000
00000000
00000000
00000001
00000000
00000010
00000000
00000001
00000000
00000100
00000000
00000010
00000000
00001000
00000002
,
00000010
00000000
00000000
00000000
00000103
00000010
00001000
00000001
00001000
00000000
00000100
00000000
00010000
00000000
01000000
00000000
,
00200000
00000000
00000000
00000000
00310000
00000000
10000000
00100000
10000000
00000000
01000000
00000000
10000000
00000000
00010000
00000000
,
00001000
00000000
00000100
00000000
00000001
00000000
00000010
00000100
00001000
00000000
00000010
00001000
00000001
00001000
00000100
00000000
,
00000010
00000000
00000000
00000000
00000001
00000000
00000100
00000000
00000010
00000000
00001000
00000000
00000100
00000000
00010000
00001000
,
00000000
01000000
00100000
00000000
10000000
01000000
10000000
00010000
00100000
00000000
01000000
00000000
00100000
00000000
00001000
00000000
,
00020000
00000000
00000000
00000000
00030010
00000000
00001000
00000001
00001000
00000000
00000100
00000000
00010000
00000000
00001000
00000000
,
01000000
00100000
10000000
00000000
10000000
00000000
01000000
10000000
00010000
00000000
00101000
00000000
00010000
00000000
00010010
00000000
,
00000100
00000010
00001000
00000001
00000010
00000000
00000100
00001000
00000010
00010000
00001000
00000000
00100000
00001000
00010000
00000010
,
00000100
00000000
00000001
00001000
00000001
00000100
00000010
00001000
00000100
00000000
00010000
00001000
00000000
01001000
00000000
00000000
,
00100000
10000000
01000000
00100000
00010000
00000000
01000000
00001000
00010000
00000100
00000010
00000000
00000001
00001000
00000010
00000100
,
00000000
00000000
00000001
00000010
00000001
00000000
00000100
00000000
00000010
00001000
00000000
00010000
00000000
01000000
00000000
00000000
,
11000000
00000000
00100000
00000000
01000000
00000000
00010000
10000000
00010000
00000000
00100000
00000000
01000000
00000000
10000000
00000000
,
00010000
00000000
00100000
00000000
00001000
00000000
00010000
00000010
00010000
00000000
00000100
00000000
00000010
00000000
00000001
00000000
,
00001000
00000000
00000010
00000000
00000100
00000000
00000001
00000010
00000001
00000000
00001000
00000000
00000100
00000000
00010000
00000000
,
00001000
00000000
01000000
00000000
00100000
00000000
10000000
01000000
00100000
00000000
00010000
01000000
00001000
00000000
00010000
00001000
,
00200000
00000000
00000000
00000000
01300000
00000000
10000000
00100000
10000000
00000000
00010000
00000000
00100000
00000000
00001000
00000000
,
00000200
00000000
00000010
00000000
00000310
00000000
00001000
00000001
00000010
00000000
00000001
00000000
00000100
00000000
00000010
00000000
,
00020000
00000000
00000100
00000000
00030100
00000000
00001000
00010000
00000100
00000000
00001000
00000010
00000100
00000000
00000001
00000000
,
00000010
00000000
00000001
00000000
00000100
00000000
00000010
00001000
00010000
00000000
01000000
10000000
00100000
00000000
01000000
00000000
,
01010000
00000000
00000000
00000000
;
