#TITLE:Do you love me?;
#SUBTITLE:~SOFT LANDING MIX~;
#ARTIST:reo-nagumo Remixed by DOCTOR S;
#BANNER:Do you love me ~SOFT LANDING MIX~-bn.png;
#BACKGROUND:Do you love me ~SOFT LANDING MIX~-bg.png;
#JACKET:Do you love me ~SOFT LANDING MIX~-jacket.png;
#MUSIC:Do you love me ~SOFT LANDING MIX~.ogg;
#SAMPLESTART:24;
#SAMPLELENGTH:20;
#DISPLAYBPM:200;
#BPMS:0=200;
#BGCHANGES:;

//---------------dance-single - ----------------
#NOTES:
     dance-single:
     :
     Beginner:
     3:
     :
0000
0000
0000
0000
,
0000
0000
0000
0000
,
0000
0000
0000
0000
,
0000
0000
0000
0000
,
1000
0000
1000
0000
,
1000
0000
1000
0000
,
0001
0000
0001
0000
,
0001
0000
0001
0000
,
0100
0000
0100
0000
,
0100
0000
0100
0000
,
0010
0000
0010
0000
,
0010
0000
0010
0000
,
1000
0000
1000
0000
,
0001
0000
0001
0000
,
0100
0000
0100
0000
,
0010
0000
0010
0000
,
1000
0000
0001
0000
,
0100
0000
0010
0000
,
1001
0000
0000
0000
,
0000
0000
0000
0000
,
0000
0000
0010
0000
,
1000
0000
0100
0000
,
0001
0000
0000
0000
,
0010
0010
0010
0000
,
0001
0000
0100
0000
,
0001
0000
1000
0000
,
0200
0000
0000
0000
,
0300
0000
0110
0000
,
0000
0000
0001
0000
,
1000
0000
0010
0000
,
0100
0000
0000
0000
,
0010
0010
0010
0000
,
1000
0000
0100
0000
,
1000
0000
0001
0000
,
0100
0100
0100
0000
,
0010
0000
0010
0000
,
1000
1000
1000
0000
,
0001
0000
0100
0000
,
0001
0001
0001
0000
,
0010
0000
0000
0000
,
0100
0100
0100
0000
,
0010
0000
0001
0000
,
1000
0000
0000
0000
,
1001
0000
0110
0000
,
0001
0000
0000
1000
,
0000
0000
0010
0000
,
0010
0000
0000
1000
,
0000
0000
0100
0000
,
0002
0000
0000
0000
,
0003
0000
0010
0000
,
0001
0000
0000
1000
,
0000
0000
0100
0000
,
2000
0000
0000
0000
,
0000
0000
3000
0000
,
0020
0000
0000
0000
,
0000
0000
0030
0000
,
0002
0000
0000
0000
,
0000
0000
0003
0000
,
0200
0000
0000
0000
,
0000
0000
0300
0000
,
0001
0001
0001
0000
;

//---------------dance-single - ----------------
#NOTES:
     dance-single:
     :
     Easy:
     7:
     :
0000
0000
0000
0000
,
0000
0000
0000
0000
,
0000
0000
0000
0000
,
0000
0000
0000
0000
,
1000
0010
0001
0100
,
0001
0010
0001
0100
,
0010
0100
0010
1000
,
0100
0001
0010
0001
,
1000
0001
1000
0100
,
0001
0010
0001
0100
,
0010
0100
0010
0100
,
1000
0100
0010
0001
,
0100
0010
1000
0001
,
0010
0001
0010
1000
,
0100
0010
0001
0100
,
0001
0010
0001
1000
,
0100
1000
0100
0010
,
0100
1000
0010
0001
,
2002
0000
0000
0003
,
0001
3100
1000
0100
,
0001
0000
0011
0001
,
0100
0010
1000
0100
,
0002
0003
1000
0001
,
0010
0001
0200
0000
,
0310
0000
1000
0001
,
1000
0010
0100
0001
,
0000
1010
1010
0100
,
1001
0100
1001
0100
,
0010
0000
0110
0001
,
0010
0001
0100
0010
,
2000
0000
0000
3000
,
0100
1000
0002
0000
,
0023
0000
0031
1000
,
0000
0010
0000
0100
,
0000
0101
0101
0010
,
1001
0100
0110
1001
,
0010
0010
1000
0001
,
1000
0100
0100
0010
,
0001
0100
0001
1000
,
0100
0000
0000
0000
,
0010
0001
0100
0010
,
1000
1000
1000
0100
,
0000
0001
0010
1000
,
0010
0100
0010
0010
,
2000
0000
0000
3001
,
0010
0001
0200
0300
,
2000
0000
0000
3020
,
0000
0000
0230
0301
,
0000
0011
1010
0100
,
0001
0010
0001
1000
,
0200
0000
1300
0001
,
0100
0010
0100
0001
,
2000
0010
0010
0010
,
0100
0001
0000
3001
,
0020
0001
0001
0000
,
1000
0000
0130
0000
,
0002
1000
1000
1000
,
0010
0100
0000
0103
,
2000
0010
0010
0001
,
0001
0000
0100
3010
,
0120
0130
1001
0000
;

//---------------dance-single - ----------------
#NOTES:
     dance-single:
     :
     Medium:
     10:
     :
0000
0000
0000
0000
,
0000
0000
0000
0000
,
0000
0000
0000
0000
,
1000
0001
0000
0100
0000
0001
1000
0000
,
1010
0000
0001
0000
1000
0010
0100
0000
,
0101
0000
1000
0000
0001
0010
0100
0000
,
1100
0000
0001
0000
1000
0010
0100
0001
,
0010
0000
0001
0100
0010
1000
0100
0000
,
1001
0000
0010
0000
1000
0001
0100
0000
,
0110
0000
0010
0000
1000
0001
0100
0010
,
1000
0000
0000
0101
0000
0000
0001
0100
,
0010
0000
0000
1001
0000
0000
1010
0000
,
1100
0000
0010
0000
1000
0001
0100
0000
,
1010
0000
0010
1000
0100
0010
0001
0000
,
0011
0000
0100
0000
0001
1000
0010
0100
,
0001
0000
0010
0100
1000
0001
0000
1100
,
0000
0000
0010
0100
0001
1000
0100
0010
,
0001
0000
0000
0101
0000
0000
1000
0010
,
0200
0001
0001
0001
,
0302
0023
0230
2300
,
3010
0000
0000
0000
1010
0000
0001
0100
,
0010
0000
1000
0000
0100
0000
0010
0001
,
0200
0000
0300
0000
0001
1000
0001
1000
,
0002
0023
0230
2300
,
3010
0000
0000
0000
1100
0000
1000
0010
,
0100
0001
0010
1000
,
0200
0000
0010
0000
0310
0000
0001
1000
,
0001
0100
1000
0110
,
0001
0000
0000
0000
0011
0000
1000
0001
,
1000
0000
0010
0000
0100
0000
0001
1000
,
0020
0000
0030
0000
1000
0001
1000
0001
,
0200
0320
2030
3002
,
0023
0000
0130
0000
0110
0000
0001
1000
,
0100
0010
1001
1000
,
0020
0000
0100
0000
0130
0000
0001
1000
,
0100
0010
0000
0000
0001
0100
0010
1000
,
0001
0000
0001
0000
0001
1000
0000
0010
,
0000
1000
0000
0100
0000
1000
0001
0000
,
1000
0000
1000
0000
1000
0100
0010
0001
,
0100
0000
0001
1000
0000
1010
0000
0000
,
0001
0000
0001
0000
0001
0010
0000
0100
,
0000
0010
0000
0001
0000
0000
1000
0100
,
0010
0001
0000
0001
0100
0010
1000
0000
,
0100
1000
0000
1100
0000
0101
0000
0001
,
0200
0000
0010
0000
0010
0000
0301
0100
,
2000
0000
0010
0000
3100
1000
0001
0000
,
0020
0000
0001
0000
1030
0010
0000
0001
,
0100
0000
0010
1000
0000
0100
1000
0001
,
0200
0000
0010
0000
0310
1000
0010
1000
,
0002
0000
0013
0001
0100
0000
0100
0000
,
0002
1000
0100
0013
,
0001
0000
0100
1000
0000
0100
1000
0100
,
0020
0000
0001
0000
0031
0100
0000
0100
,
0010
0000
1010
0000
0000
1000
0100
0000
,
2000
0001
0000
0000
0010
0000
0000
3001
,
1000
0100
0000
0000
0010
0001
0100
0010
,
2000
0000
0001
0000
3001
0100
0000
0010
,
1000
0000
0010
1000
0000
0010
1000
0000
,
0001
0100
0000
0000
0010
1000
0100
0010
,
0000
0011
0000
0000
0001
1000
0001
0100
,
0020
0100
0130
0000
;

//---------------dance-single - ----------------
#NOTES:
     dance-single:
     :
     Hard:
     13:
     :
0000
0000
0000
0000
,
0000
0000
0000
0000
,
0000
0000
0000
0000
,
1000
0000
0001
0000
0000
0000
1010
0000
0000
0000
0100
0000
0010
0000
1000
0001
,
1000
0000
0011
0000
0100
0010
1000
0000
,
0001
0100
1000
0000
0001
0100
0001
0000
,
0010
0000
0100
0000
1000
0010
0100
0001
,
0100
0000
0000
0000
0001
0000
0010
0000
1000
0000
0010
0000
0100
0000
1000
0001
,
1000
0000
0010
0100
0001
1000
0100
0000
,
1000
0010
0100
0010
1000
0100
0001
0001
,
0010
0000
0100
0000
1000
0000
0101
0000
0000
0000
0010
0000
1000
0001
1000
0001
,
1000
0000
0000
0000
0001
0000
1010
0000
0000
0000
0100
0000
0001
0000
0010
0100
,
0010
0001
0100
0010
1000
0010
0100
1000
,
0100
0000
0001
0000
0100
0000
1000
0000
0100
0000
0001
0000
0010
0000
0001
1000
,
0001
0100
0010
1000
0000
0100
0001
0010
,
1000
0010
0100
0010
0001
1000
0000
0110
,
0100
1000
0001
0000
0100
0010
1000
0001
,
0011
0000
0000
0000
0100
0000
1010
0000
0000
0000
0001
0000
0100
0000
0010
1000
,
0010
0100
1000
0100
0001
0010
1000
0010
,
0200
2300
3002
0203
,
0310
0000
1000
0000
1010
0000
0001
0100
,
0010
0000
1000
0000
1100
0000
0100
0010
,
0001
0000
1000
0000
0001
0100
1000
0100
,
0002
0023
0230
2300
,
3002
0000
0103
0000
0110
0000
1000
0001
,
1000
0010
0101
1000
,
0002
0000
0010
0000
0013
0000
1000
0001
,
0110
0000
1000
0001
0110
0000
1001
0000
,
0010
0000
0100
0000
1010
0000
0001
1000
,
0100
0000
0010
0000
0011
0000
1000
0001
,
0100
0000
0010
0000
1000
0100
0001
0100
,
2000
3020
0230
0302
,
2003
0000
3010
0000
1001
0000
0010
0100
,
0001
1000
1100
0010
,
0001
0000
0101
0000
1100
0000
0010
0100
,
0001
0000
0010
0100
0010
0000
0001
0000
1000
0000
0010
0000
0100
0000
0001
1000
,
0001
0000
0001
0000
0001
0100
0010
0100
,
1000
0100
0010
0100
1000
0100
0001
0000
,
0010
0000
0001
1000
0001
0100
1000
0100
,
0001
0000
0000
0000
0010
0000
0001
0000
0100
0000
0010
0000
1000
0000
0001
0100
,
0001
0000
1000
0000
1000
0100
0010
0100
,
0001
0100
1000
0010
0100
0010
1000
0001
,
0000
1010
0001
0100
0001
0010
1000
1100
,
0000
0000
0011
0000
0000
0000
0101
0000
0000
0000
1001
0000
0010
0000
0001
1000
,
0002
0000
0100
0000
0103
0000
1000
0010
,
0002
0000
0000
0000
0103
0000
0000
0000
0010
0000
1000
0000
0100
0000
0010
0001
,
0020
0000
1000
0000
0031
0010
0001
1000
,
0100
0000
0001
0000
0100
0000
1000
0000
0010
0000
0100
0000
0001
0000
1000
0010
,
1000
0000
0101
0000
1010
0001
1000
0100
,
0010
1000
0010
0001
0100
0010
1000
0000
,
0001
0000
0100
0000
0010
0000
1000
0000
0100
0000
0010
0000
0001
0000
1000
0100
,
1000
0000
0001
0100
0001
0000
0010
0000
0001
0000
0100
0000
1000
0000
0010
0000
,
2001
0000
0100
0000
3010
1000
0010
0100
,
0002
0000
0010
0000
1003
0100
0001
0000
,
0100
0000
0010
0000
1000
0000
0010
0000
0100
0000
0001
0000
0000
0000
1000
0001
,
1000
0000
0011
0000
0000
0000
0000
0000
0100
0000
0010
0000
1000
0000
0001
0100
,
0001
0000
0010
0000
0001
1000
0010
0100
,
0001
0000
1000
0010
1000
0000
0100
0000
0000
0000
0010
0000
0010
0000
0001
1000
,
0001
0000
0100
0000
0000
0000
1000
0000
1000
0000
0010
0100
0010
0000
1000
0000
,
0001
0000
0010
0100
0010
0000
0001
0000
1000
0000
1000
0000
0010
0000
0100
0001
,
0100
0010
0110
0000
;
