#TITLE:Do You Want To;
#ARTIST:Franz Ferdinand;
#BANNER:Do You Want To.png;
#BACKGROUND:Do You Want To-bg.png;
#JACKET:Do You Want To-jacket.png;
#MUSIC:Do You Want To.ogg;
#SAMPLESTART:31.627;
#SAMPLELENGTH:20;
#DISPLAYBPM:122:136;
#BPMS:0=130.435,12=133.333,16=136.364,20=134.328,24=133.829,32=134.831,36=131.868,40=129.496,42=128.571,44=122.449,48=123.288,52=122.867,60=123.288,64=122.867,76=123.288,80=122.867,92=123.288,96=122.867,108=123.288,112=122.867,128=123.288,132=126.316,140=125.874,148=126.316,152=127.66,156=126.761,160=127.66,164=126.761,172=124.567,176=123.288,180=122.449,184=123.711,188=126.761,189=130.435,190=126.761,191=125,192=124.138,194=122.449,196=125.874,200=127.66,202=124.138,204=128.571,209=130.435,210=128.571,212=130.435,216=129.496,218=131.387,220=130.435,222=128.571,223=125,224=126.761;
#BGCHANGES:;

//---------------dance-single - ----------------
#NOTES:
     dance-single:
     :
     Beginner:
     3:
     :
0000
0000
0000
0000
,
0000
0000
0000
0000
,
0000
0000
0000
0000
,
1000
0000
1000
0000
,
0010
0000
0000
0000
,
0100
0000
0100
0000
,
0001
0000
0000
0000
,
1000
0000
1000
0000
,
0001
0000
0001
0000
,
0010
0010
0010
0000
,
0100
0000
0000
0000
,
0100
0100
0000
0010
,
0000
0100
0000
0000
,
0001
0001
0000
1000
,
0000
0001
0000
0000
,
0100
0100
0000
0010
,
0000
0100
0000
0000
,
0001
0000
0001
0000
,
1000
1000
1000
0000
,
0010
0000
0100
0000
,
0010
0010
0010
0000
,
1000
0000
0000
0000
,
0001
0000
0000
0000
,
1000
1000
0000
0001
,
0000
0100
0000
0000
,
0010
0000
0100
0000
,
0010
0010
0010
0000
,
1000
0000
0100
0000
,
0010
0010
0010
0000
,
0001
0001
0000
0000
,
1000
0000
0000
0000
,
0010
0010
0000
0100
,
0000
0001
0000
0000
,
1000
0000
1000
0000
,
0001
0000
0100
0000
,
0010
0000
0010
0000
,
0100
0000
0010
0000
,
1000
0000
0000
0000
,
0001
0000
0000
0000
,
1000
0000
1000
0000
,
0100
0000
0010
0000
,
0001
0000
0001
0000
,
1000
0000
0001
0000
,
0100
0100
0000
0100
,
0000
0010
0000
0000
,
0001
0001
0000
0100
,
0000
0010
0000
0000
,
1001
0000
0000
0000
,
0110
0000
0000
0000
,
2000
0000
0000
3000
,
1000
0000
0001
0000
,
0002
0000
0000
0003
,
0001
0000
0010
0000
,
0020
0000
0000
0030
,
0010
0000
0100
0000
,
0200
0000
0000
0300
,
0100
0000
0000
0000
;

//---------------dance-single - ----------------
#NOTES:
     dance-single:
     :
     Easy:
     5:
     :
0000
0000
0000
0000
,
0000
0000
0000
0000
,
0000
0000
0000
0000
,
0010
0100
0100
0000
,
0001
0010
0100
0000
,
1000
0001
0001
0000
,
0100
0010
1000
0000
,
0002
0003
0002
0003
,
0002
0003
0010
0010
,
0100
0010
0001
1000
,
0001
1000
0001
0000
,
0010
0100
0001
0000
,
2000
0000
3001
0000
,
0010
0100
1000
0000
,
0002
0000
1003
0000
,
0100
0001
0010
0000
,
0100
0100
1000
0000
,
0010
0010
0100
0001
,
0100
0010
0100
0000
,
0001
0001
1000
0100
,
1000
0001
1000
0010
,
0200
0300
0200
0300
,
0001
0100
0010
1000
,
0100
1000
0010
0000
,
0200
0000
0310
0000
,
0100
0100
0001
0010
,
0001
0100
0001
0000
,
0100
0100
1000
0010
,
1000
0100
1000
0001
,
2000
3000
2000
3000
,
0020
0000
0130
0000
,
0001
0010
0100
0000
,
2000
0000
3001
0000
,
0002
0003
0002
0003
,
0200
0300
0010
1000
,
2000
3000
2000
3000
,
0200
0300
0010
0001
,
0010
0001
0100
0000
,
0002
0000
0013
0000
,
0200
0300
0200
0300
,
0020
0030
0001
0100
,
0020
0030
0020
0030
,
0200
0300
0001
1000
,
0010
1000
0100
0000
,
2000
0000
3010
0000
,
0010
0001
0100
0000
,
0001
1000
0001
0000
,
1000
1000
0010
0010
,
1001
0000
0000
0000
,
0200
0000
0000
0301
,
2000
0000
0000
3001
,
1001
0000
0000
0000
,
0002
0000
0013
0000
,
2000
0000
3010
0000
,
2000
0100
3100
0000
,
0002
0100
0103
0000
,
0110
0000
0000
0000
;

//---------------dance-single - ----------------
#NOTES:
     dance-single:
     :
     Medium:
     8:
     :
0000
0000
0000
0000
,
0000
0000
0000
0000
,
0000
0000
0000
0000
,
0002
0000
1003
0000
0100
0010
0001
0000
,
1000
0002
0103
0000
,
0020
0000
1030
0000
0001
0100
0010
0000
,
1000
0200
0310
0000
,
0001
0000
0010
0001
0100
0000
0010
1000
,
0100
0000
0010
0000
0001
1000
0001
1000
,
0020
1000
1000
0100
,
1000
0130
0110
0000
,
1000
0001
0010
0000
0100
0010
0000
0002
,
0000
0203
0000
0010
0310
0010
0000
0000
,
1000
0100
0001
0000
0100
0010
0000
0002
,
0000
2003
0000
0010
3010
0010
0000
0000
,
0010
1000
0100
0000
1000
0001
0000
0020
,
0000
0030
0200
0000
0310
0001
1000
0000
,
1001
0000
0010
0000
1000
0100
1000
0000
,
1000
0000
0001
0000
0010
0001
0010
0000
,
0011
0000
0001
0000
0100
0010
0100
0000
,
1000
0000
0001
0000
1000
0000
0001
0100
,
0010
1000
0100
1000
,
0002
0000
0020
0003
0200
0030
1300
0000
,
1000
0010
0100
0000
1000
0001
0000
0200
,
0000
0320
0000
0100
0130
0001
0000
0000
,
1100
0101
0001
0100
,
0020
0000
0230
0000
0301
1000
0100
0000
,
1100
0101
1000
0010
,
0200
0000
0320
0000
2030
0000
3100
0010
,
0001
0000
1000
0000
0001
0001
1000
0000
,
0001
0000
0100
0000
0010
0010
0100
0000
,
0010
1000
0001
0000
0100
0010
0000
2000
,
0000
3002
0000
1000
1003
0100
0000
0000
,
1000
0000
0100
0010
0100
0000
0010
0000
,
0001
0200
0301
0000
,
0001
0000
0100
0010
0100
0000
0010
0000
,
1000
0200
1300
0000
,
1000
0001
0010
0000
0100
0010
0000
0002
,
0000
0203
0000
0001
0301
0001
0000
0000
,
0001
0000
1000
0100
0001
0000
0100
0000
,
1000
0010
0100
0001
,
1000
0000
0001
0100
1000
0000
0100
0000
,
0001
0010
0100
0000
,
1000
0100
1000
0000
0010
0100
0000
0020
,
0000
2030
0000
0001
3001
0100
0000
0000
,
0100
0010
1000
0000
0100
1000
0000
0002
,
0000
0203
0000
0010
0310
1000
0000
0000
,
1100
0101
1100
0101
,
1001
0000
1000
0000
1000
0000
0001
1000
,
0100
0000
1000
0000
1000
0000
0001
0010
,
0100
0000
1000
0000
1000
0000
1000
0100
,
0010
0001
0001
1001
,
0001
0000
0001
0010
0001
0000
1000
0000
,
0100
0000
0100
1000
0100
0000
1000
0000
,
0010
0000
0010
0100
0010
0000
0100
0000
,
0001
0000
0010
0001
1000
0000
0001
0000
,
1001
0000
0000
0000
;

//---------------dance-single - ----------------
#NOTES:
     dance-single:
     :
     Hard:
     10:
     :
0000
0000
0000
0000
,
0000
0000
0000
0000
,
0000
0000
0000
0000
,
0110
0000
0110
0000
0001
0100
0010
1000
,
0002
0000
1003
0000
1000
0001
1000
0000
,
0011
0000
0011
0000
1000
0100
0010
0001
,
0020
0000
0130
0000
1000
0000
0001
0100
,
0010
0000
1000
0100
0010
0000
0001
0100
,
0020
0000
1030
0000
0001
0010
0100
1000
,
0010
0000
1000
0000
0001
0000
1000
0001
,
1000
0001
1000
0001
1000
0001
1000
0000
,
1001
0000
0010
0000
0100
0002
0000
1003
,
0000
0100
1000
0100
1000
0010
0000
0000
,
0110
0000
0001
0000
1000
0200
0000
0310
,
0000
0001
0010
0001
0010
0100
0000
0000
,
1100
0000
0001
0000
0010
0200
0000
1300
,
0000
0000
0010
0000
0100
0001
0100
0000
,
0101
0000
0100
0010
1000
0200
0000
0320
,
0000
0031
0100
0001
0100
0010
0000
0000
,
0110
0000
1000
0001
0100
0020
0000
0230
,
0000
0301
0010
0100
1000
0001
0100
0010
,
1000
0000
0001
0000
1000
1000
0001
0010
,
0001
0000
1000
0000
0001
0001
1000
0100
,
1100
0000
0101
0000
1000
0002
0000
0103
,
0000
0010
1000
0010
1000
0100
0000
0000
,
0011
0000
1000
0001
0010
0200
0000
2300
,
0000
3001
0100
0010
0001
0010
0100
1000
,
0110
0000
0001
0010
0001
0200
0000
0320
,
0000
0130
0001
0010
0001
0100
0010
0010
,
2000
0000
3002
0000
0000
0013
0100
1000
,
0001
0010
0000
0100
0000
0001
0100
0001
,
0101
0000
1100
0000
0001
0020
0000
0031
,
0000
0100
0010
0100
0010
1000
0000
0000
,
0110
0000
1000
0100
0010
0000
0010
0100
,
1000
0010
0100
0001
0010
0000
0101
0000
,
0101
0000
0001
0010
0100
0000
0100
0010
,
0001
0010
0100
1000
0010
0000
0110
0000
,
1010
0000
0011
0000
1000
0002
0000
1003
,
0000
0010
0100
0010
0100
0001
0000
0000
,
1001
0000
1000
0100
0001
0100
1000
0010
,
0001
0010
1000
0100
1000
0100
0010
0001
,
0010
0000
0100
1000
0020
0000
0000
0130
,
0100
0010
0000
1000
0000
0010
0100
0001
,
0101
0000
1010
0000
0001
0020
0000
0031
,
0000
0010
0001
0010
0100
1000
0000
0000
,
1001
0000
0110
0000
0010
0200
0000
0301
,
0000
1000
0100
0010
0001
0010
0100
0010
,
0110
0011
1010
0110
,
0020
0000
1000
1000
1030
0001
0010
0100
,
2000
0000
0010
0010
3010
0100
0001
1000
,
0200
0000
1000
1000
1300
0010
0100
0001
,
0020
0000
0001
0001
0031
0100
0010
1000
,
0002
0000
1000
1000
1003
0100
0010
0001
,
0020
0000
0100
0100
0130
1000
0010
0100
,
0002
0000
0010
0010
0013
0001
1000
0010
,
0110
0000
0100
0100
0100
0001
1000
0100
,
1100
0000
0000
0000
;

//---------------dance-single - ----------------
#NOTES:
     dance-single:
     :
     Challenge:
     12:
     :
0000
0000
0000
0000
,
0000
0000
0000
0000
,
0000
0000
0000
0000
,
0011
0000
0000
0000
1100
0000
0000
0001
0100
0000
0010
0000
1000
0000
0010
0000
,
0001
0000
0010
0000
1000
0000
0000
0100
1000
0000
0001
0000
1000
0000
0010
0000
,
0101
0000
0000
0000
1010
0000
0000
0001
1000
0000
0100
0000
0001
0000
0100
0000
,
0010
0000
0001
0000
0100
0000
0000
0010
1000
0010
1000
0010
1000
0000
0001
0000
,
0200
0010
0310
1000
0002
0010
0013
0100
,
2000
0000
3010
1000
1000
0001
0100
0020
,
1000
0000
0001
0000
1030
0010
0010
0100
,
0001
0001
1000
1000
1001
0110
1001
0000
,
1100
0001
0100
0010
0100
1000
0100
0001
,
0000
0001
0010
1000
0001
0100
1000
0000
,
0010
1000
0010
0100
1000
0100
0001
1000
,
0000
1000
0010
0001
1000
0100
0001
0000
,
0010
0010
0001
0100
1000
0100
0001
1000
,
0000
0000
0010
0000
1010
0000
0000
0000
0101
0000
1000
0000
0100
0000
0001
1000
,
0001
0010
1000
0010
0100
0010
0001
1000
,
0010
0100
0010
0001
0010
1000
0100
0000
,
1000
0010
0001
0010
0100
0010
1000
0100
,
0001
0100
0010
0100
1000
0010
0100
0001
,
0010
0010
0001
1000
0000
0100
1000
0001
,
0100
0100
0010
1000
0000
0001
0100
1000
,
0010
0100
0010
0001
0010
1000
0100
0010
,
0000
0000
0001
0000
0010
0000
0100
0000
1000
0000
0001
0100
0001
0000
1000
0100
,
1000
0001
0001
0100
1000
0100
0001
0010
,
1000
0010
0100
0010
1000
0010
0001
0000
,
0100
0010
0100
1000
0100
0001
0010
1000
,
0010
0001
0010
1000
0010
0100
0010
0001
,
1000
1000
0001
0100
0000
0001
0010
1000
,
0100
0100
0010
0001
0000
0100
0010
1000
,
0100
0010
1000
0010
0001
0100
0010
1000
,
0000
0000
1000
0000
0001
0000
0100
0000
0010
0000
1000
0100
1000
0000
0001
0100
,
0001
0010
0010
0001
0100
0010
1000
0001
,
0010
0000
1000
0000
0010
0000
0002
0000
0000
0000
0100
0000
0103
0000
0010
1000
,
0010
0000
0010
0100
1000
0100
0001
0100
,
0010
0000
1000
0000
1000
0000
0002
0000
0000
0000
1003
0000
0100
0000
1000
0001
,
1000
0010
0100
0010
0001
0010
1000
0100
,
0000
0000
1000
0000
0010
0000
0001
0000
1000
0000
0100
0000
0001
0000
0010
0100
,
0010
0001
0100
0010
0100
1000
0100
0001
,
0010
0000
1000
0000
0010
0000
0100
0000
0010
0000
0001
0100
0001
0000
1000
0000
,
0010
1000
0100
1000
1000
0001
0100
0010
,
0100
0000
1000
0000
0100
0000
0001
0000
0000
0000
0010
0000
0001
1000
0001
1000
,
0001
0010
0001
0100
1000
0100
0001
1000
,
0000
1000
0010
0001
1000
0100
0001
0000
,
0010
0100
0010
0001
0010
1000
0010
0100
,
0000
1000
0100
0001
1000
0010
0001
0100
,
0101
1010
0101
1010
,
0012
0000
0000
0000
0103
0000
0010
0000
0100
0000
1000
0000
0100
0000
0001
1000
,
0002
0000
0000
0000
1003
0000
0010
0000
0100
0000
1000
0000
0100
0000
0001
0010
,
0002
0000
0000
0000
1003
0000
0001
0000
0100
0000
1000
0000
0100
0000
0010
1000
,
0020
0000
0000
0000
0130
0000
0001
0000
1000
0000
0001
0000
0010
0100
0010
0100
,
0020
0000
0000
0000
0031
0000
0100
0000
1000
0000
0100
0000
0001
0000
1000
0010
,
2000
0000
0000
0000
3100
0000
0010
0000
1000
0000
0010
0000
0001
0000
0100
0010
,
0200
0000
0000
0000
1300
0000
0100
0000
0010
0000
0100
0000
0001
0000
1000
0010
,
2000
0000
0000
0000
3001
0000
0010
0000
1000
0000
0100
0000
0010
0000
0001
1000
,
0002
0000
0200
0303
,
0110
0000
0000
0000
;

//---------------dance-double - ----------------
#NOTES:
     dance-double:
     :
     Easy:
     4:
     :
00000000
00000000
00000000
00000000
,
00000000
00000000
00000000
00000000
,
00000000
00000000
00000000
00000000
,
00000100
00000000
00010000
00000000
,
00001000
00001000
00000000
00000000
,
00010000
00000000
00001000
00000000
,
00100000
00100000
00000000
00000000
,
00010000
00000000
10000000
00000000
,
00100000
00000000
00000000
00000000
,
01000000
00000000
00000000
00000000
,
00100000
01000000
00010000
00000000
,
00100000
00000000
00000000
00000000
,
00001000
00000000
00010000
00000000
,
00000100
00000000
00000000
00000000
,
00010000
00000000
00001000
00000000
,
00010000
00000000
00000000
00000000
,
00000010
00000000
00000000
00000000
,
00000100
00000000
00000001
00000000
,
00001000
00001000
00001000
00000000
,
00000100
00000000
00010000
00000000
,
00001000
00010000
00001000
00010000
,
00001000
00000000
00000000
00000000
,
00100000
00000000
00000000
00000000
,
00010000
00000000
00000000
00000000
,
00100000
00000000
01000000
00000000
,
00010000
00000000
10000000
00000000
,
00100000
10000000
00100000
00000000
,
01000000
00000000
00001000
00000000
,
00010000
00001000
00010000
00001000
,
00010000
00000000
00000000
00000000
,
00000100
00000000
00000000
00000000
,
00001000
00000000
00000001
00000000
,
00000100
00000001
00000100
00000000
,
00000010
00000000
00010000
00000000
,
00001000
00000000
00000000
00000000
,
00010000
00000000
00001000
00000000
,
01000000
00000000
00000000
00000000
,
00010000
00000000
10000000
00000000
,
01000000
00100000
01000000
00000000
,
00100000
00000000
10000000
00000000
,
00010000
00000000
00000000
00000000
,
01000000
00000000
00001000
00000000
,
00100000
00000000
00000000
00000000
,
00010000
00000000
00100000
00000000
,
00001000
00010000
00001000
00000000
,
00010000
00000000
00000100
00000000
,
00001000
00000010
00000100
00000000
,
00000001
00000001
00001000
00001000
,
00000100
00000000
00000000
00000000
,
00010000
00000000
00000000
00000000
,
00001000
00000000
00000000
00000000
,
00100000
00000000
00000000
00000000
,
01000000
00000000
00000000
10000000
,
00010000
00000000
00000000
00100000
,
00001000
00000000
00000000
00010000
,
00001000
00010000
00001000
00010000
,
00011000
00000000
00000000
00000000
;

//---------------dance-double - ----------------
#NOTES:
     dance-double:
     :
     Medium:
     8:
     :
00000000
00000000
00000000
00000000
,
00000000
00000000
00000000
00000000
,
00000000
00000000
00000000
00000000
,
00001000
00000000
00010000
00000000
00001000
00000100
00000010
00000100
,
00000001
00000100
00001000
00000000
,
00000100
00000000
00000001
00000000
00000010
00000100
00001000
00000100
,
00010000
00001000
00100000
00000000
,
00010000
01000000
00100000
01000000
,
01100000
10010000
00110000
00011000
,
00001100
00000010
00000010
00000001
,
00000001
00000100
00000100
00000000
,
00000010
00000000
00010000
00000000
00001000
00000100
00000000
00001000
,
00000000
00010000
01000000
00000000
00100000
00010000
00000000
00000000
,
00100000
00000000
00010000
00000000
10000000
01000000
00000000
00100000
,
00000000
01000000
00100000
00000000
00001000
00010000
00000000
00000000
,
00001000
00000000
00010000
00000000
00000100
00000010
00000000
00000001
,
00000000
00000000
00001000
00000000
00000001
00001000
00000001
00000000
,
00000100
00000000
00000001
00000000
00000100
00001000
00010000
00000000
,
00100000
10000000
01000000
00000000
00100000
00010000
01000000
00000000
,
00010000
00000000
10000000
00000000
01000000
00010000
00001000
00000000
,
00000100
00000010
00001000
00000000
00000001
00001000
00000100
00000000
,
00001100
00000000
00011000
00000000
00010000
00001000
00010000
00000000
,
00001100
00000000
00011000
00000000
01000000
00100000
10000000
00000000
,
00010000
00000000
10000000
00000000
00010000
01000000
00000000
00100000
,
00000000
10000000
00010000
00000000
00100000
00001000
00000000
00000000
,
00000100
00000000
00000001
00000000
00000010
00000100
00001000
00000000
,
00000100
00000010
00000001
00000000
00001000
00000100
00010000
00000000
,
00001000
00000000
00010000
00000000
01000000
10000000
00100000
00000000
,
01000000
00010000
10000000
00000000
01000000
00100000
00010000
00000000
,
00110000
00000000
00011000
00000000
00010000
00001000
00010000
00000000
,
00110000
00000000
00011000
00000000
00010000
00001000
00000100
00000000
,
00000010
00000000
00001000
00000000
00000001
00000010
00000000
00000001
,
00000000
00000100
00000010
00000000
00001000
00000001
00000000
00000000
,
00000100
00000000
00001000
00010000
01000000
00000000
00010000
00000000
,
00001000
00010000
00001000
00000000
00100000
00010000
01000000
00000000
,
00010000
00000000
10000000
01000000
00010000
00000000
10000000
00000000
,
00100000
01000000
00010000
00000000
00100000
00001000
00010000
00000000
,
00001000
00000000
00000100
00000000
00000010
00000100
00000000
00000001
,
00000000
00001000
00000100
00000000
00000010
00000100
00000000
00000000
,
00001000
00000000
00000001
00000000
00000100
00000010
00000100
00000000
,
00000001
00000100
00010000
01000000
,
00100000
00000000
10000000
00000000
00010000
00100000
00010000
00000000
,
10000000
01000000
00010000
00000100
,
00001000
00000000
00000010
00000000
00000100
00000010
00000000
00001000
,
00000000
00000010
00001000
00000000
00000010
00000100
00000000
00000000
,
00000001
00000000
00000010
00000000
00000001
00001000
00000000
00000100
,
00000000
00010000
00001000
00000000
00010000
01000000
00000000
00000000
,
01100000
00011000
00110000
00011000
,
01000000
00000000
00100000
00000000
00010000
00000000
00100000
00001000
,
00010000
00000000
01000000
00000000
10000000
00000000
00100000
01000000
,
00010000
00000000
00100000
00000000
00001000
00000000
00010000
00000100
,
00000010
00000000
00000001
00000000
00001000
00000000
00000010
00001000
,
00000100
00000000
00001100
00000000
00001100
00000000
00000001
00000100
,
00001000
00000000
00011000
00000000
00011000
00000000
00100000
00010000
,
01000000
00000000
01010000
00000000
01010000
00000000
10000000
01000000
,
00010000
01100000
01100000
10010000
,
01100000
00000000
00000000
00000000
;

//---------------dance-double - ----------------
#NOTES:
     dance-double:
     :
     Hard:
     10:
     :
00000000
00000000
00000000
00000000
,
00000000
00000000
00000000
00000000
,
00000000
00000000
00000000
00000000
,
00000001
00000000
00001000
00000000
00000001
00000100
00001000
00000100
,
00000001
00000010
00000100
00000000
00000110
00000000
00010000
00001000
,
00100000
00000000
01000000
00000000
10000000
01000000
00010000
01000000
,
10000000
00100000
01000000
00000000
01100000
00000000
00010000
00100000
,
01000000
00000000
00100000
00001000
00010000
00000000
00001000
00010000
,
00000100
00000000
00001000
00000000
00000100
00000010
00000001
00000100
,
00000010
00000000
00000100
00000000
00000110
00000000
00000001
00000100
,
00001000
00010000
01000000
10000000
00100000
10000000
01000000
00100000
,
00010000
00000000
10000000
00000000
00100000
00100000
00000000
01000000
,
00000000
10000000
01000000
00010000
00100000
00001000
00000000
00000000
,
00010000
00001000
00010000
00000000
00000100
00000100
00000000
00001000
,
00000000
00000010
00001000
00000100
00000010
00000100
00000000
00000000
,
00000010
00000001
00000100
00000000
00000001
00000100
00000010
00002000
,
00000000
00000000
00003100
00000000
00010000
00001000
00010000
00000000
,
00011000
00000000
00120000
00000000
01030000
01000000
00000000
01100000
,
00000000
10000000
01000000
10000000
01000000
00100000
00010000
01000000
,
01010000
00000000
00012000
00000000
00013000
00010000
00000000
00001100
,
00000000
00000010
00000001
00000010
00000001
00000100
00000010
00001000
,
00000200
00000000
00020300
00000000
00031000
00000000
00000100
00000010
,
00000100
00001000
00010000
01000000
00100000
00010000
10000000
00010000
,
10000000
00000000
00010000
00000000
01000000
01000000
00000000
00100000
,
00000000
10000000
01000000
00100000
00010000
00100000
00000000
00000000
,
00110000
00000000
20100000
00000000
00100000
30100000
00000000
10010000
,
00000000
00100000
00001000
00010000
00000100
00001000
00000010
00000100
,
00000110
00000000
00000102
00000000
00000103
00000100
00000000
00001001
,
00000000
00000100
00010000
00001000
00100000
00010000
01000000
00100000
,
10000000
00000000
00010000
00000000
10000000
00000000
00100000
10000000
,
01000000
10000000
00000000
00100000
00000000
01000000
00010000
00100000
,
00010000
00000000
10000000
00000000
00100000
00100000
00000000
10000000
,
00000000
00010000
00100000
00001000
00010000
01000000
00000000
00000000
,
00020000
00000000
00130000
00001000
00010000
00000000
00001000
00000100
,
00000010
00001000
00000100
00000010
00000001
00000000
00000010
00000001
,
00002000
00000000
00003100
00010000
00001000
00000000
00100000
00010000
,
01000000
00100000
10000000
01000000
10000000
00100000
01000000
00010000
,
00100000
00000000
01000000
00000000
10000000
10000000
00000000
00010000
,
00000000
00100000
00001000
00010000
00001000
00000100
00000000
00000000
,
00000001
00000100
00000010
00000100
00000001
00000010
00000100
00010000
,
00000000
00001000
01000000
00020000
00000000
00130000
00000000
00000000
,
00000000
01000000
10000000
01000000
00010000
00000000
01000000
00100000
,
00010000
01000000
10000000
01000000
00000000
00010000
00100000
00010000
,
10000000
00000000
00010000
00000000
00100000
00100000
00000000
00001000
,
00000000
00010000
00001000
00000100
00000001
00000010
00000000
00000000
,
00000001
00000000
00001000
00000000
00000010
00000010
00000000
00000100
,
00000000
00000010
00010000
00001000
00100000
01000000
00000000
00000000
,
20000000
30020000
20030000
30010000
,
10010000
00000000
10000000
01000000
00010000
00001000
00000010
00000001
,
00000010
00000000
00000001
00000100
00001000
00010000
00100000
10000000
,
00100000
00000000
01000000
00001000
00010000
00000100
00001000
00000010
,
00000100
00000000
00000010
00010000
00001000
01000000
00010000
00100000
,
01000000
00000000
00100000
00001000
00010000
00001000
00010000
00001000
,
00000100
00000000
00000010
00010000
00001000
00010000
00001000
00010000
,
01000000
00000000
00100000
10000000
01000000
00100000
00010000
01000000
,
00010000
00000000
00100000
00001000
00010000
00001000
00000100
00000010
,
00000110
00000000
00000000
00000000
;
