#TITLE:Der Kommissar;
#SUBTITLE:;
#ARTIST:After The Fire;
#TITLETRANSLIT:;
#SUBTITLETRANSLIT:;
#ARTISTTRANSLIT:;
#GENRE:;
#CREDIT:;
#MUSIC:Der Kommissar.ogg;
#BANNER:Der Kommissar-bn.png;
#BACKGROUND:Der Kommissar-bg.png;
#CDTITLE:;
#SAMPLESTART:47.697;
#SAMPLELENGTH:20.000;
#SELECTABLE:YES;
#OFFSET:-0.102;
#BPMS:0.000=118.090
,3.000=116.090
,4.000=120.090
,6.000=118.090
,7.000=120.090
,8.000=119.090
,11.000=120.090
,16.000=123.090
,17.000=118.090
,18.000=123.090
,19.000=121.090
,20.000=120.090
,21.000=119.090
,22.000=123.090
,25.000=120.090
,28.000=122.090
,29.000=121.090
,30.000=120.090
,31.500=108.090
,32.000=118.090
,33.000=121.536
,35.000=119.536
,36.000=121.536
,37.000=120.536
,40.000=123.536
,41.000=122.536
,43.000=117.536
,44.000=120.536
,47.000=122.536
,48.000=121.536
,49.000=120.536
,50.000=125.536
,51.000=120.678
,52.000=118.678
,54.000=124.678
,55.000=123.678
,56.000=119.678
,58.000=128.678
,59.000=119.678
,62.000=123.678
,66.000=120.678
,68.000=125.678
,70.000=120.678
,71.000=122.678
,72.000=123.678
,74.000=117.678
,75.000=120.678
,76.000=118.678
,78.000=122.678
,80.000=118.678
,82.000=126.678
,83.000=119.678
,84.000=123.678
,85.000=120.678
,86.000=117.678
,87.000=118.678
,88.000=126.678
,89.000=124.678
,90.000=119.678
,93.000=123.678
,95.000=114.678
,96.000=116.678
,97.000=119.678
,98.000=124.678
,99.000=121.678
,100.000=118.678
,103.000=121.678
,105.000=119.678
,106.000=124.678
,107.000=118.678
,108.000=124.678
,109.000=119.678
,110.000=122.678
,113.000=120.678
,114.000=122.678
,115.000=124.678
,116.000=122.678
,118.000=120.678
,135.000=124.678
,136.000=122.678
,137.000=117.678
,138.000=120.678
,141.000=121.678
,143.000=117.678
,144.000=119.678
,145.000=123.678
,146.000=124.678
,147.000=114.678
,148.000=116.678
,149.000=119.678
,152.000=122.678
,154.000=121.678
,155.000=117.678
,156.000=121.678
,162.000=123.678
,164.000=115.678
,165.000=120.678
,166.000=123.678
,167.000=121.380
,168.000=123.380
,172.000=126.380
,173.000=121.380
,175.000=123.380
,177.000=122.380
,178.000=121.380
,180.000=118.380
,181.000=121.380
,182.000=127.380
,183.000=122.000
,184.000=119.000
,186.000=123.000
,187.000=125.000
,188.000=123.000
,189.000=121.000
,190.000=120.000
,191.000=122.000
,192.000=120.000
,193.000=125.000
,194.000=123.000
,195.000=120.000
,196.000=123.000
,198.000=126.000
,199.000=122.090
,200.000=116.090
,201.000=120.090
,202.000=123.090
,204.000=121.090
,205.000=122.090
,206.000=124.000
,209.000=123.000
,210.000=120.000
,211.000=124.000
,212.000=122.000
,214.000=125.000
,216.000=120.000
,217.000=123.000
,218.000=127.000
,219.000=124.000
,221.000=123.000
,222.000=122.000
,223.000=123.000
,224.000=119.000
,225.000=121.000
,226.000=127.000
,227.000=125.000
,232.000=121.000
,233.000=122.000
,234.000=124.000
,235.000=122.000
,237.000=126.000
,238.000=121.000
,239.000=123.000
,240.000=124.000
,241.000=123.000
,244.000=124.000
;
#STOPS:;
#DISPLAYBPM:108.000:129.000;
#ORIGIN:;
#PREVIEWVID:;
#JACKET:Der Kommissar-jacket.png;
#CDIMAGE:;
#DISCIMAGE:;
#BGCHANGES:;
#FGCHANGES:;

//--------------- dance-single - x scale 3 ----------------
#NOTES:
     dance-single:
     x scale 3:
     Beginner:
     3:
     0.122383,0.170622,0.07343,0.081589,0,105,96,9,10,0,0,0,0,0,0.122383,0.170622,0.07343,0.081589,0,105,96,9,10,0,0,0,0,0:
0000
0000
0000
0000
,
0010
0000
0000
0000
,
0100
0000
0000
0000
,
0001
0000
0000
0000
,
1000
0000
0000
0000
,
0001
0000
0000
0000
,
0100
0000
0000
0000
,
0010
0000
0000
0000
,
0000
0000
0010
0000
,
0000
0000
1000
1000
,
0000
0000
0010
0000
,
0000
0000
2002
3003
,
0000
0000
0100
0000
,
0000
0000
0001
0001
,
0000
0000
0100
0000
,
0000
0000
0000
0000
0000
0000
0000
0000
0220
0000
0000
0330
0000
0000
0000
0000
,
0010
0000
0010
0000
,
1000
0000
1000
0000
,
0001
0000
0001
0000
,
0100
0000
0100
0000
,
0001
0000
0001
0000
,
0010
0000
0010
0000
,
0100
0000
0100
0000
,
1000
0000
1000
0000
,
0001
0001
0001
0000
,
1001
0000
0000
0000
,
1000
1000
1000
0000
,
0110
0000
0000
0000
,
0010
0000
0010
0000
,
0100
0000
0100
0000
,
0001
0000
0000
0000
,
0010
0000
0000
0000
,
0100
0000
0000
0000
,
1000
0000
0000
0000
,
0000
0010
0000
0010
,
0000
0100
0000
0100
,
0000
0001
0000
1000
,
0000
0000
0220
0330
,
0000
1000
0000
1000
,
0000
0001
0000
0001
,
0000
0100
0000
0010
,
0000
0000
0000
0000
0000
0000
0000
0000
2002
0000
0000
3003
0000
0000
0000
0000
,
1000
0000
1000
0000
,
0100
0000
0100
0000
,
0010
0000
0010
0000
,
0001
0000
0001
0000
,
0010
0000
0010
0000
,
0100
0000
0100
0000
,
0001
0000
0001
0000
,
1000
0000
1000
0000
,
0010
0010
0010
0000
,
0110
0000
0000
0000
,
0100
0100
0100
0000
,
1001
0000
0000
0000
,
0001
0000
0001
0000
,
1000
0000
1000
0000
,
0010
0000
0100
0000
,
0001
0000
1000
0000
,
2002
0000
0000
0000
,
0000
0000
0000
3003
;

//--------------- dance-single - x scale 7 ----------------
#NOTES:
     dance-single:
     x scale 7:
     Easy:
     7:
     0.261084,0.341245,0.195813,0.179495,0.016318,224,200,24,22,0,0,0,0,0,0.261084,0.341245,0.195813,0.179495,0.016318,224,200,24,22,0,0,0,0,0:
0000
0000
0000
0000
,
0010
0100
0001
1000
,
0001
0010
0100
1000
,
0100
0010
1000
0001
,
1000
0100
0010
0001
,
0100
0001
1000
0010
,
0001
0100
0010
1000
,
0010
0001
0100
1000
,
0000
0000
0100
0000
0000
0010
0000
0000
1001
0000
0000
0000
0000
0000
0000
0000
,
0100
0000
0000
0000
1000
1000
1000
0000
,
0000
0000
1000
0000
0000
0001
0000
0000
0110
0000
0000
0000
0000
0000
0000
0000
,
0200
0000
0020
0330
,
0000
0000
0010
0000
0000
0100
0000
0000
0011
0000
0000
0000
0000
0000
0000
0000
,
0010
0000
0000
0000
1000
1000
1000
0000
,
0000
0000
0001
0000
0000
1000
0000
0000
1010
0000
0000
0000
0000
0000
0000
0000
,
0020
0000
0200
0330
,
0010
1000
0010
0100
,
0001
1000
0001
0000
,
1000
0010
0100
0010
,
0100
0001
1000
1100
,
0010
1000
0001
1000
,
0010
0100
0000
0100
,
0001
1000
0100
1000
,
0001
0010
0000
0010
,
1000
0000
1000
0000
1000
0000
0002
2000
,
0000
0000
0000
3003
,
0010
0000
0010
0000
0010
0000
0200
0020
,
0000
0000
0330
0101
,
1000
1000
0001
0001
,
0100
0100
0010
0010
,
2000
0100
0010
3001
,
0002
0010
0100
1003
,
0200
0001
0010
1300
,
0020
0100
0001
1030
,
0010
1100
0010
0101
,
0100
1010
0100
0011
,
1000
1001
0001
0110
,
2000
0000
0002
3003
,
0100
0101
0100
1100
,
0010
0011
0010
1010
,
1000
0110
0001
1001
,
0002
0000
2000
3003
,
0001
0010
0100
1000
,
0100
0010
0001
0000
,
1000
0100
0010
0001
,
0010
0100
1000
0000
,
0010
1000
0100
0001
,
0100
1000
0010
0000
,
1000
0001
0100
0001
,
0010
1000
0000
0100
,
0001
0000
0001
0000
0001
0000
2000
0002
,
0000
0000
0000
3003
,
0100
0000
0100
0000
0100
0000
0020
0200
,
0000
0000
0330
0110
,
1000
1000
0001
0001
,
0100
0100
0010
0010
,
1000
1100
0001
0011
,
0100
0101
0010
1010
,
2002
0000
0000
0000
,
0000
0000
0000
3003
;

//--------------- dance-single - x scale 10 ----------------
#NOTES:
     dance-single:
     x scale 10:
     Medium:
     10:
     0.42193,0.463118,0.301878,0.293719,0.097906,362,325,37,36,0,0,0,0,0,0.42193,0.463118,0.301878,0.293719,0.097906,362,325,37,36,0,0,0,0,0:
0000
0000
0000
0000
,
0010
1000
0010
1000
0100
0000
0100
0000
,
0010
1000
0010
1000
0100
0000
0100
0000
,
0010
1000
0010
1000
0100
0000
0100
0000
,
0010
1000
0010
1000
0100
0000
0100
0000
,
0010
1000
0010
1000
0100
0000
0100
0000
,
0010
1000
0010
1000
0100
0000
0100
0000
,
0010
1000
0010
1000
0100
0000
0100
0000
,
1000
0000
1100
0000
0000
0101
0000
0000
1001
0000
0100
0000
0010
0000
0000
0000
,
1000
0000
0000
0000
1000
0001
1000
0000
0010
0000
0010
0000
0010
0000
0000
0000
,
0001
0000
0011
0000
0000
1010
0000
0000
0110
0000
0010
0000
0100
0000
0000
0000
,
0010
0000
1000
0002
0200
0000
0303
0000
,
0100
0000
0101
0000
0000
1100
0000
0000
0110
0000
1000
0000
0001
0000
0000
0000
,
0010
0000
0000
0000
0010
1000
0010
0000
0100
0000
0100
0000
0100
0000
0000
0000
,
0010
0000
1010
0000
0000
0011
0000
0000
1001
0000
0001
0000
1000
0000
0000
0000
,
0100
0000
0010
2000
0002
0000
3003
0000
,
1000
0000
1100
0000
0000
1010
0000
0000
1001
0000
0001
0000
0100
0000
0000
0000
,
0010
0000
0000
0000
0010
0100
0010
0000
1000
0000
1000
0000
1000
0000
0000
0000
,
0001
0000
0101
0000
0000
0011
0000
0000
0110
0000
1000
0000
0010
0000
0000
0000
,
1000
0000
0100
0020
0002
0000
0033
0000
,
0010
0000
1001
0000
0000
0011
0000
0000
1010
0000
0100
0000
1000
0000
0000
0000
,
1000
0000
0000
0000
1000
0010
1000
0000
0001
0000
0001
0000
0001
0000
0000
0000
,
1000
0000
0110
0000
0000
0101
0000
0000
1100
0000
0001
0000
0010
0000
0000
0000
,
0100
0000
0010
2000
0002
0000
3003
0000
,
0020
0000
0130
0010
2000
0000
3002
1000
,
0000
0003
0001
0200
0000
0000
0310
0000
,
1000
0001
0100
0001
1000
0000
0020
0200
,
0030
0300
0002
2000
0000
3000
0013
0000
,
1000
0100
1000
0000
0001
0100
0001
0000
,
1000
0010
1000
0000
0001
0010
0001
0000
,
0010
1000
0010
1000
0100
0000
0100
0000
,
0010
1000
0010
1000
0100
0000
0100
0000
,
0010
1000
0010
1000
0100
0000
0100
0000
,
0010
1000
0010
1000
0100
0000
0100
0000
,
0001
0100
0000
0100
0010
1000
0000
1000
,
0001
1000
0000
1000
0010
0100
0000
0100
,
0010
1000
0000
0001
0100
0001
0000
1000
,
0001
0000
0010
0200
2000
0000
3300
0000
,
1000
0010
0000
0010
0100
0001
0000
0001
,
1000
0001
0000
0001
0100
0010
0000
0010
,
1000
0100
0000
1000
0001
0100
0000
0001
,
0010
0000
1000
0200
0002
0000
0303
0000
,
0010
0000
1010
0000
0000
0101
0000
0000
1001
0000
0100
0000
0001
0000
0000
0000
,
0000
0000
0010
1000
0010
1000
0000
0000
0000
0000
0001
0100
0001
0100
0000
0000
,
1000
0000
0110
0000
0000
1100
0000
0000
0011
0000
0010
0000
1000
0000
0000
0000
,
0100
0000
0001
2000
0020
0000
3030
0000
,
0001
0000
0011
0000
0000
0101
0000
0000
1100
0000
1000
0000
0100
0000
0000
0000
,
0000
0000
1000
0100
1000
0100
0000
0000
0000
0000
0010
0001
0010
0001
0000
0000
,
0100
0000
0101
0000
0000
1001
0000
0000
0110
0000
0001
0000
0010
0000
0000
0000
,
1000
0000
0001
0200
0020
0000
0330
0000
,
2000
0000
3001
0010
0002
0000
0103
0020
,
0000
0030
1000
0200
0000
0300
1000
0000
,
0010
0100
0001
0100
0010
0000
2000
0002
,
3000
0003
0200
0020
0000
0030
0310
0000
,
1000
0010
1000
0000
0001
0010
0001
0000
,
1000
0100
1000
0000
0001
0100
0001
0000
,
0010
0100
0010
0100
0001
1000
0001
1000
,
0001
0200
0000
0310
2000
0000
3000
0000
,
2002
0000
0000
0000
,
0000
0000
0000
3003
;

//--------------- dance-single - x scale 13 ----------------
#NOTES:
     dance-single:
     x scale 13:
     Hard:
     13:
     0.52683,0.536242,0.228448,0.138701,0.040794,452,424,28,17,0,0,0,0,0,0.52683,0.536242,0.228448,0.138701,0.040794,452,424,28,17,0,0,0,0,0:
0000
0000
0000
0000
,
0010
1000
0100
0001
0100
1000
0010
0001
,
0010
1000
0100
0001
0100
1000
0010
0001
,
0010
1000
0100
0001
0100
1000
0010
0001
,
0010
1000
0100
0001
0100
1000
0010
0001
,
0010
1000
0100
0001
0100
1000
0010
0001
,
0010
1000
0100
0001
0100
1000
0010
0001
,
0010
1000
0100
0001
0100
1000
0010
0001
,
0010
0000
1000
0000
0001
0100
0000
0000
0110
0000
0010
0000
1000
0000
0000
0000
,
0001
0000
0000
0000
1000
0001
0100
0000
0020
0000
1000
0000
1030
0000
0000
0000
,
0100
0000
0010
0000
1000
0001
0000
0000
1001
0000
0001
0000
0100
0000
0000
0000
,
0010
0000
0000
0000
0010
0000
1000
0001
0200
0000
0001
0000
0301
0000
0000
0000
,
1000
0000
0100
0000
0010
0001
0000
0000
0110
0000
0100
0000
1000
0000
0000
0000
,
0100
0000
0000
0000
0001
1000
0100
0000
2000
0000
0010
0000
3010
0000
0000
0000
,
0100
0000
0001
0000
0010
1000
0000
0000
1001
0000
0001
0000
0010
0000
0000
0000
,
1000
0000
0000
0000
1000
0000
0010
0100
0002
0000
0010
0000
0013
0000
0000
0000
,
0100
0010
1000
0010
0001
0100
1000
0001
,
0100
0001
0010
0001
0100
1000
0010
0000
,
1000
0100
0001
1000
0001
0010
0100
0010
,
1000
0100
0001
0100
1000
0000
1010
0000
,
0001
0010
1000
0001
0100
1000
0001
0010
,
1000
0001
0100
1000
0001
0010
1000
0000
,
0100
0010
0001
0010
1000
0100
1000
0001
,
0010
0001
1000
0100
0000
0100
0010
0000
,
0201
0000
0301
0100
0010
1000
1100
2001
,
0000
3001
0100
0002
0000
1003
0010
0100
,
0001
0001
1000
0100
0100
0010
0101
2100
,
0000
3001
0100
0010
1000
0001
0010
0000
,
1000
0100
0010
1000
0001
0010
0100
0001
,
1000
0001
0100
0010
0001
0010
1000
0100
,
0010
1000
0100
0001
0100
1000
0010
0001
,
0010
1000
0100
0001
0100
1000
0010
0001
,
0010
1000
0100
0001
0100
1000
0010
0001
,
0010
1000
0100
0001
0100
1000
0010
0001
,
0010
1000
1100
1000
0001
0100
0101
0100
,
0010
0001
0011
0001
0100
1000
1010
1000
,
0100
0010
0110
0010
1000
0001
1001
0001
,
0100
0000
0000
0000
0100
0000
0001
0010
2000
0000
0001
0000
3001
0000
0000
0000
,
0010
0100
0011
0100
1000
0001
1010
0001
,
1000
0010
1100
0010
0100
1000
0101
1000
,
0010
0001
0110
0001
0100
0010
1001
0010
,
1000
0000
0000
0000
1000
0000
0010
0100
0002
0000
0100
0000
0103
0000
0000
0000
,
0010
1000
0100
0010
0001
0100
0010
1000
,
0100
0010
0001
0100
0010
1000
0100
0000
,
1000
0001
0010
1000
0100
0001
0100
0010
,
1000
0100
0001
1000
0010
0100
0010
0000
,
0001
0100
1000
0010
1000
0100
0001
0000
,
0100
0010
0001
1000
0001
0010
0100
0000
,
1000
0001
0010
1000
0100
0010
0001
0100
,
1000
0001
0100
0010
0000
0010
1000
0000
,
1020
0000
0130
0010
1000
0001
0011
2001
,
0000
3010
0100
0002
0000
0013
1000
0001
,
1000
1000
0001
0010
0010
0100
1010
2001
,
0000
3010
0001
1000
0010
1000
0100
0000
,
0010
0001
0100
0010
1000
0100
0001
1000
,
0010
1000
0100
0010
0001
0100
0001
1000
,
0010
1000
0100
0001
1000
0010
0100
0001
,
1000
0100
0001
1000
0020
0100
0130
0000
,
2002
0000
0000
0000
,
0000
0000
0000
3003
;
