#TITLE:Deep clear eyes;
#ARTIST:QUADRA;
#BANNER:Deep clear eyes.png;
#BACKGROUND:Deep clear eyes-bg.png;
#JACKET:Deep clear eyes-jacket.png;
#MUSIC:Deep clear eyes.ogg;
#SAMPLESTART:51.061;
#SAMPLELENGTH:20;
#DISPLAYBPM:155;
#BPMS:0=155.11;
#BGCHANGES:0=Deep clear eyes.mp4=1=0=0=0,
;

//---------------dance-single - ----------------
#NOTES:
     dance-single:
     :
     Beginner:
     3:
     :
0000
0000
0000
0000
,
0000
0000
0000
0000
,
0000
0000
0000
0000
,
0000
0000
0000
0000
,
0000
0000
0000
0000
,
0001
0000
1000
0000
,
0001
0000
0010
0010
,
0010
0000
0100
0000
,
1000
0000
0001
0000
,
0100
0000
0010
0000
,
1000
0000
0001
0000
,
0010
0000
0001
0000
,
0100
0000
1000
0000
,
1001
0000
0010
0000
,
1000
0000
1000
0000
,
1001
0000
0010
0000
,
0001
0000
0001
0000
,
0100
0000
0000
0000
,
0000
0000
0110
0000
,
1000
0000
0000
0000
,
0000
0000
0110
0000
,
0001
0000
0000
0000
,
0000
0000
0110
0000
,
0010
0000
0000
0000
,
0000
0000
0000
0001
,
0001
0000
1000
1000
,
0000
0000
0100
0100
,
0000
0000
1000
1000
,
0000
0000
0010
0010
,
0000
0000
0001
0001
,
0000
0000
0100
0100
,
0000
0000
0001
0001
,
0001
0000
1000
0000
,
0010
0000
0000
0000
,
0000
0000
1000
0000
,
1001
0000
0010
0000
,
0100
0000
0001
0000
,
0010
0000
0000
0000
,
0110
0000
0000
0000
,
1001
0000
1000
0000
,
0001
0000
0100
0000
,
0010
0000
0000
0000
,
1000
1000
0000
0000
,
0100
0000
0000
0000
,
0010
0010
0000
0000
,
0001
0000
0000
0000
,
0100
0100
0000
0000
,
0001
0000
0000
0000
,
0000
1000
0000
0001
,
0000
0100
0000
0000
,
0000
0010
0010
0000
;

//---------------dance-single - ----------------
#NOTES:
     dance-single:
     :
     Easy:
     8:
     :
0000
0000
0000
0000
,
0000
0000
0000
0000
,
0000
0000
0000
0000
,
0000
0000
0000
0000
,
0000
0000
0000
0000
,
0001
0000
0001
0000
0001
0001
0001
0000
,
1000
0000
1000
0000
1000
1000
1000
0000
,
0100
0001
0100
1000
,
0100
0100
0100
0000
0110
0000
0000
0000
,
0100
0000
0000
0010
0000
0000
0001
1000
,
0001
0000
0000
1000
0000
0000
0000
0000
,
0101
0000
0000
1100
0000
0000
0010
0100
,
0010
0000
0000
0100
0000
0000
0000
0000
,
1010
0000
0000
0011
0000
0000
0100
1000
,
0001
0000
0000
0100
0000
0000
0000
0000
,
1001
0000
0000
1000
0000
0000
1000
0001
,
1000
0001
1000
0001
1000
1000
1000
0000
,
0110
0000
0000
0101
0000
0000
1000
0100
,
0100
0000
0000
0100
0000
0000
0000
0000
,
0110
0000
0000
1100
0000
0000
0001
0100
,
0100
0000
0000
0100
0000
0000
0000
0000
,
1001
0000
0000
1010
0000
0000
0001
0100
,
0100
0000
0000
1001
0000
0000
0000
0000
,
1100
0000
0000
1100
0000
0000
0011
0000
,
0000
0011
0000
0000
0100
0000
0101
0000
,
1100
0000
0000
0001
0000
0001
0100
0000
,
0000
0000
0000
1000
0000
1000
0100
0010
,
0000
0000
0000
0001
0000
0001
0100
0000
,
0000
0000
0000
0001
0001
0000
0001
0100
,
0000
0000
0000
0001
0000
0001
0100
0010
,
0000
0000
0000
1000
0000
1000
0100
0000
,
0000
0000
0000
0001
0000
0001
0100
0001
,
0000
0001
0100
0001
0000
0001
0100
0001
,
0000
0001
0000
0001
0001
0000
0100
0100
,
0000
1000
1000
0000
0010
0010
0000
0000
,
0001
1000
0001
0100
,
1000
0001
1000
0100
,
0010
0010
0000
1000
1000
0000
0100
0100
,
0000
0001
0001
0000
0010
0100
0000
0000
,
1000
0000
1000
0000
0010
0010
0001
0000
,
0100
0000
0100
0000
0010
0010
1000
0000
,
0001
0000
0000
1000
0001
1000
0000
0000
,
0110
0000
0000
1001
0000
0000
0000
0000
,
1001
0000
0000
0010
0100
0010
0000
0000
,
1001
0000
0000
0000
,
1001
0000
0000
0100
0010
0100
0000
0000
,
1001
0000
0000
0000
,
0101
0000
0000
1100
0000
0000
0000
0000
,
1000
0000
0000
0001
0000
1001
0000
0000
,
1000
0001
1000
0001
,
0000
0000
1000
0001
1000
0001
0000
0000
;

//---------------dance-single - ----------------
#NOTES:
     dance-single:
     :
     Medium:
     10:
     :
0000
0000
0000
0000
,
0000
0000
0000
0000
,
0000
0000
0000
0000
,
0000
0000
0000
0000
,
0000
0000
0000
0010
0000
0000
0000
0000
,
1000
0001
1000
0000
1000
0100
1000
0000
,
0001
1000
0001
0000
0001
0100
0001
0000
,
0100
0100
0100
0100
0100
0100
0100
0100
,
0100
0100
0100
0000
0110
0000
0000
0000
,
0010
0010
0010
0010
0010
0000
0010
0000
,
0100
0100
0100
0100
0100
0000
0100
0000
,
1000
1000
1000
0000
0100
0100
0100
0000
,
0010
0010
0010
0000
0001
0001
0001
0000
,
1000
0000
1000
1000
1000
0000
1000
0000
,
0100
0000
0100
0100
0100
0000
0100
0000
,
0001
0000
0001
0001
0001
0000
0001
0000
,
0000
1000
0000
0100
0000
1000
0000
0100
,
1000
0000
1000
1000
1000
0000
1010
0000
,
0010
0000
0010
0010
0010
0000
0110
0000
,
0100
0000
0100
0100
0100
0000
0101
0000
,
0001
0000
0001
0001
0001
0000
1001
0000
,
1000
0000
0001
0000
0100
0100
0100
0000
,
0100
0100
0100
0000
1000
0001
1000
0001
,
0000
0000
0000
0000
,
0010
0010
0010
0010
0010
0000
0101
0000
,
0101
0000
0000
0001
0000
0001
0100
0001
,
0001
0000
0000
1000
0000
1000
0100
1000
,
1000
0000
0000
0001
0000
0001
0100
0000
,
0000
0000
0000
1000
1000
0000
1000
0100
,
0001
0000
0000
0001
0000
0001
0100
0010
,
0000
0000
0000
1000
0000
1000
0100
0000
,
0000
0000
0000
1000
0000
1000
0001
0100
,
0000
0100
0001
1000
0000
1000
0001
0100
,
0000
0100
0000
1000
1000
0000
1000
0100
,
0000
0100
0001
0000
0001
0010
0000
0000
,
0100
0000
0100
0000
0100
1000
0100
0000
,
0010
0000
0010
0000
0010
0001
0010
0000
,
1000
0010
0000
0010
0001
0000
0001
0100
,
0000
0100
1000
0000
1000
0010
0000
0000
,
1100
0000
0101
0000
1000
0001
1000
0000
,
0101
0000
1100
0000
0001
1000
0001
0000
,
0110
0000
0100
0100
0100
0100
0100
0000
,
1100
0000
0000
1100
0000
0000
0000
0000
,
0011
0000
0001
0001
0001
0001
0001
0000
,
0011
0000
0000
0000
,
1010
0000
1000
1000
1000
1000
1000
0000
,
1010
0000
0000
0000
,
0101
0000
0000
1010
0000
0000
0000
0000
,
1001
0000
0000
1010
0000
0101
0000
0000
,
0100
0100
0100
0100
0100
0100
0100
0100
,
0100
0000
0001
0001
1000
1000
0000
0000
;

//---------------dance-single - ----------------
#NOTES:
     dance-single:
     :
     Hard:
     11:
     :
0000
0000
0000
0000
,
0000
0000
0000
0000
,
0000
0000
0000
0000
,
0000
0000
0000
0000
,
0000
0000
0000
0100
0000
0000
0000
0000
,
1010
0000
0000
1001
0000
0000
1100
0000
,
0000
0000
1000
0000
0000
0000
0010
0000
0001
0000
0000
1000
0000
0000
0100
0000
,
0000
0000
0100
0000
0000
0000
0100
0000
1000
0000
0000
0001
0000
0000
0000
0000
,
0000
0000
0000
0010
0000
0000
0000
0000
,
0101
0000
0000
1001
0000
0000
0011
0010
,
0010
0000
1000
0000
0000
0000
0010
0000
0001
0000
0000
1000
0000
0000
1000
0000
,
0000
0000
0100
0000
0000
0000
0100
0000
0001
0000
0000
1000
0001
0000
0001
0000
,
0000
0100
0000
0010
1000
0001
0001
0001
,
1000
0000
0000
0110
0000
0000
0001
0100
,
1000
0000
0001
0000
0000
0000
0100
0000
0001
0000
0000
1000
0001
0000
0001
0000
,
0000
0000
0100
0000
0000
0000
0100
0000
0001
0000
0000
1000
0001
0000
0001
0000
,
0000
0001
0000
0011
0000
0001
0000
0001
,
0001
1000
0000
1000
0000
0000
0100
0100
,
0100
0000
1000
0000
0000
0000
0010
0000
0001
0000
1000
0001
0000
0000
0100
0000
,
0000
0000
0001
0000
0000
0000
0001
0000
1000
0000
0000
0001
1000
0000
0100
0000
,
0100
0100
0000
0010
0000
1000
1000
1000
,
1000
0000
0000
0110
0000
0000
0001
0001
,
0001
0000
0001
0000
0000
0000
0010
0000
1000
0000
0000
0001
0000
0000
0100
0000
,
0001
0000
0000
0000
0000
0000
0001
0000
1000
0000
0000
1000
0001
0000
0000
0000
,
0000
0010
0000
0000
0010
0000
0110
0000
,
1001
0000
0000
0001
0000
0001
0001
1000
,
0001
0000
0000
1000
0000
1000
0001
1000
,
0001
0000
0000
0001
0000
0001
1000
0000
,
0000
0000
0000
1000
1000
0000
1000
0100
,
0100
1000
0000
0001
0000
0001
0100
0001
,
0000
0000
0000
1000
0000
1000
0100
0000
,
0000
0000
0000
1000
0000
1000
0100
0010
,
0000
0010
0100
0001
0000
0001
0100
0001
,
0001
0001
0000
1100
1000
0000
0101
0001
,
0000
1010
1000
0000
0011
0001
0000
0000
,
0001
0000
0010
0010
0001
0001
1000
0000
,
0100
0000
1000
1000
0001
0001
0100
0000
,
1001
0010
0000
1001
0100
0000
1001
0010
,
0000
1001
0100
0000
1001
0010
0000
0000
,
1000
1000
0100
0000
1100
0010
0100
0000
,
0001
0001
0100
0000
0101
0010
0100
0000
,
1010
1000
0000
0010
0001
0010
0001
0000
,
0010
1000
1010
0000
0000
0000
0000
0000
,
1100
0100
0000
0001
1000
0001
1000
0000
,
0100
0001
0101
0000
0000
0000
0000
0000
,
0101
0100
0000
0100
0010
0100
0010
0000
,
0100
0001
0101
0000
0000
0000
0000
0000
,
0010
1001
0000
1000
0001
1000
0001
0000
,
0000
0110
1000
0000
0000
0110
0001
0000
,
0000
0110
1001
0000
0000
0000
1000
0001
,
0001
0001
0001
1000
0010
0100
0000
0000
;

//---------------dance-single - ----------------
#NOTES:
     dance-single:
     :
     Challenge:
     14:
     :
0000
0000
0000
0000
,
0000
0000
0000
0000
,
0000
0000
0000
0000
,
0010
0000
1000
0100
1000
0000
0001
0000
0100
0000
0100
0000
0100
0000
0000
0010
,
1000
0000
0000
0000
0001
0000
0100
0000
0001
0000
0000
0000
2200
0000
0000
0000
0000
0000
0000
0300
0010
0000
0000
0000
0010
0000
0000
0000
3010
0000
0000
0000
,
0100
0000
0001
1000
0001
0000
0011
0000
0000
0000
0100
0000
1100
0000
0000
0000
,
0010
0000
1001
0000
0000
0000
0101
0000
1100
0000
0000
0101
0000
0000
1100
0000
,
0000
0000
1001
0000
0010
0000
1000
0000
1010
0000
0000
0101
0000
0000
0001
0000
,
0001
0000
1000
0100
1000
0000
0011
0000
0000
1000
0100
0000
0000
0010
0001
0000
,
1001
0000
0000
0010
0100
0000
1010
0000
0000
0000
0001
0000
0011
0000
0011
0000
,
0011
0000
1000
0000
0001
0000
1010
0000
1010
0000
0001
0100
0000
0010
1000
0000
,
1100
0000
1100
0000
0000
0000
0110
0000
0110
0000
0001
1000
0001
0000
0001
0000
,
0001
1000
0100
1010
1001
0100
0100
0100
,
0110
0000
1000
1100
0000
0010
0001
0001
,
1000
0000
1000
0000
0010
0000
1000
0000
1000
0000
0001
0100
0000
0001
0100
0000
,
0010
0000
1000
0000
1000
0000
0011
0000
0000
0000
0001
0100
0001
0000
1000
0000
,
0000
1100
0000
0101
0000
1100
0000
0101
,
0010
2000
0000
0100
0000
0001
3001
1000
,
1000
0000
0010
0000
0100
0000
0001
0000
0010
0000
0001
1000
0000
0001
1000
0000
,
0100
0000
0020
0000
0001
0000
0001
0000
0031
0000
0000
1000
0100
0000
0100
0000
,
1000
0000
0010
0000
0100
0000
2020
0000
0000
0030
0001
0000
0001
0000
3001
0000
,
1000
0200
0000
0010
0010
0000
0001
0001
,
0301
0000
0100
0000
1000
0000
0001
0000
0100
0000
0010
1000
0000
0010
1000
0000
,
0001
0000
0020
0000
0000
0000
1000
0000
1030
0000
0010
0001
0010
0000
0100
0000
,
0000
1100
0001
0100
0110
0000
1001
0000
,
0010
0000
1000
0100
0010
0000
0011
0000
0000
0000
0011
0000
0001
0000
1000
0000
,
0001
0100
0010
1010
0000
1010
1000
0001
,
0110
0000
0000
1000
0001
0000
1100
0000
0000
0000
1100
0000
0010
0000
0010
0000
,
0010
0000
0001
0100
0001
0000
1001
0000
1100
0000
0000
0000
0101
0000
0010
0000
,
0010
0000
1000
0001
0100
0000
0101
0000
0000
0000
0101
0000
1000
0000
1000
0000
,
1000
0001
0010
1001
0000
1001
0010
0100
,
0001
0010
1000
0110
0000
0110
0001
0011
,
0000
1100
0000
0101
0000
1010
0000
0101
,
2000
0001
0000
0010
0010
0000
0001
0001
,
0000
0000
0100
0000
3100
0000
0000
0000
1000
0001
1000
0001
1000
0001
1000
0000
,
1001
0000
0010
0000
0100
0000
0001
0000
1000
0000
0100
0010
0001
0000
0001
0000
,
0001
0000
0100
0010
1000
0000
0101
0000
0000
0001
1000
0000
0001
0000
0100
0000
,
0002
0010
0000
1000
1000
0000
0100
0103
,
0110
0000
0001
0000
0001
0000
1000
0000
0010
0100
0010
0100
0010
0100
0010
0100
,
0001
0000
0010
0100
1000
0000
0001
0000
0100
0000
0010
1000
0000
1000
0001
0000
,
0001
0000
0010
0100
1000
0000
1010
0000
0000
0001
0100
0000
0001
0000
1000
0000
,
1100
0101
0000
0010
1000
0001
0010
0100
,
1000
0000
1100
0000
0011
0000
1001
0000
0010
0000
1000
0001
0000
1000
0100
0000
,
0011
0000
1010
0000
0000
0000
0100
0000
0100
0000
0010
0001
1000
0000
0001
0000
,
0100
0000
0110
0000
1001
0000
0000
0000
1000
0010
1000
0010
1000
0010
1000
0010
,
0100
0000
0001
0010
0001
0000
1010
0000
0100
0000
0101
0000
1000
0000
0001
0000
,
0001
0000
1001
0000
0011
0000
1000
0000
0100
0000
0010
0001
0000
0001
1000
0000
,
0110
0000
1001
0000
0010
0000
1000
0000
1000
0000
0001
0010
0001
0000
0100
0000
,
0010
1010
0101
1000
0001
0011
1100
0010
,
0100
0101
1100
0001
1000
0010
0100
0100
,
0100
0000
0110
0110
0110
0110
0000
0000
;

//---------------dance-double - ----------------
#NOTES:
     dance-double:
     :
     Easy:
     9:
     :
00000000
00000000
00000000
00000000
,
00000000
00000000
00000000
00000000
,
00000000
00000000
00000000
00000000
,
00000000
00000000
00000000
00000000
,
00000000
00000000
00000000
00000000
,
00001000
00000000
00001000
00000000
00001000
00001000
00001000
00000000
,
00010000
00000000
00010000
00000000
00010000
00010000
00010000
00000000
,
10000000
00010000
00001000
00000001
,
00000100
00000100
00000100
00000000
00011000
00000000
00000000
00000000
,
00100000
00000000
00000000
10000000
00000000
00000000
00010000
00001000
,
00010000
00000000
00000000
00001000
00000000
00000000
00000000
00000000
,
00000010
00000000
00000000
00000001
00000000
00000000
00001000
00010000
,
00001000
00000000
00000000
00010000
00000000
00000000
00000000
00000000
,
00101000
00000000
00000000
00010010
00000000
00000000
00001000
00010000
,
00001000
00000000
00000000
00010000
00000000
00000000
00000000
00000000
,
01000000
00000000
00000000
00000100
00000000
00000000
00010000
00001000
,
00010000
01000000
00010000
01000000
00010000
01000000
00010000
01000000
,
01000000
00000000
00000000
00010000
00000000
00000000
00000100
00000001
,
00000001
00000000
00000000
00000001
00000000
00000000
00000000
00000000
,
00000010
00000000
00000000
00001000
00000000
00000000
00100000
10000000
,
10000000
00000000
00000000
10000000
00000000
00000000
00000000
00000000
,
10010000
00000000
00000000
00001000
00000000
00000000
00000001
00000010
,
00000010
00000000
00000000
00001001
00000000
00000000
00000000
00000000
,
00001010
00000000
00000000
00001010
00000000
00000000
01010000
00000000
,
00000000
01010000
00000000
00000000
00011000
00000000
00000010
00000000
,
00100000
00000000
00000000
00010000
00000000
00010000
00001000
00000000
,
00000000
00000000
00000000
00001000
00000000
00001000
00000100
00000100
,
00000000
00000000
00000000
00000100
00000000
00000100
00000001
00000000
,
00000000
00000000
00000000
00001000
00001000
00000000
00001000
00000100
,
00000000
00000000
00000000
00010000
00000000
00010000
00001000
00001000
,
00000000
00000000
00000000
00100000
00000000
00100000
00010000
00000000
,
00000000
00000000
00000000
00100000
00000000
00100000
00001000
00100000
,
00000000
00100000
00001000
00100000
00000000
00100000
00001000
00100000
,
00000000
00100000
00000000
00001000
00010000
00000000
00010000
00001000
,
00000000
00001000
00010000
00000000
00010000
00001000
00000000
00000000
,
00000010
00000001
00000100
00001000
,
00100000
10000000
01000000
00010000
,
00001000
00100000
00000000
00010000
00000010
00000000
00001000
00100000
,
00000000
00010000
00000010
00000000
00001000
00100000
00000000
00000000
,
00000010
00000000
00000010
00000000
00000010
00000010
00000100
00000000
,
00001000
00000000
00001000
00000000
00010000
00010000
00010000
00000000
,
00010000
00000000
00000000
00010000
00000000
00000100
00000000
00000000
,
00000001
00000000
00000000
00001001
00000000
00000000
00000000
00000000
,
00001000
00000000
00000000
01000000
00000000
10000000
00000000
00000000
,
10010000
00000000
00000000
00000000
,
01000000
00000000
00000000
00010000
00000000
00001000
00000000
00000000
,
00000110
00000000
00000000
00000000
,
00000100
00000000
00000000
00011000
00000000
00000000
00000000
00000000
,
00011000
00000000
00000000
00010100
00000000
01001000
00000000
00000000
,
00010000
00010000
00001000
00001000
,
00000000
00000000
00010000
00001000
00010000
00001000
00000000
00000000
;

//---------------dance-double - ----------------
#NOTES:
     dance-double:
     :
     Medium:
     10:
     :
00000000
00000000
00000000
00000000
,
00000000
00000000
00000000
00000000
,
00000000
00000000
00000000
00000000
,
00000000
00000000
00000000
00000000
,
00000000
00000000
00000000
10010000
00000000
00000000
00000000
00000000
,
00010000
00001000
00010000
00000000
00001000
00010000
00001000
00000000
,
00100000
00001000
00100000
00000000
00000010
00010000
00000010
00000000
,
00001000
00001000
00001000
00001000
00001000
00001000
00001000
00001000
,
00001000
00001000
00001000
00000000
00011000
00000000
00000000
00000000
,
00100000
00100000
00100000
00100000
00100000
00000000
00100000
00000000
,
00000010
00000010
00000010
00000010
00000010
00000000
00000010
00000000
,
00010000
00010000
00010000
00000000
00100000
00100000
00100000
00000000
,
10000000
10000000
10000000
00000000
01000000
01000000
01000000
00000000
,
00010000
00010000
00010000
00000000
00001000
00001000
00001000
00000000
,
00000010
00000010
00000010
00000000
00000001
00000001
00000001
00000000
,
00000100
00000100
00000100
00000000
00001000
00001000
00001000
00000000
,
00000000
00001000
00000000
00010000
00000000
00001000
00000000
00010000
,
00001000
00000000
00001000
00001000
00001000
00000000
00101000
00000000
,
00010000
00000000
00010000
00010000
00010000
00000000
00010010
00000000
,
00000010
00000000
00000010
00000010
00000010
00000000
00011000
00000000
,
00100000
00000000
00100000
00100000
00100000
00000000
00101000
00000000
,
00010000
00010000
00010000
00000000
00001000
00001000
00001000
00000000
,
00100000
00000000
00000010
00000000
00010000
00001000
00010000
00001000
,
00000000
00000000
00000000
00000000
,
00000000
00101000
00000000
00000000
00010010
00000000
00001000
00000000
,
00010000
00000000
00000000
00010000
00000000
00010000
01000000
00010000
,
00010000
00000000
00000000
00001000
00000000
00001000
00000100
00001000
,
00001000
00000000
00000000
00000100
00000000
00000100
00000001
00000000
,
00000000
00000000
00000000
00000001
00000001
00000000
00000010
00000100
,
00000000
00000000
00000000
00000001
00000000
00000001
00001000
00001000
,
00000000
00000000
00000000
10000000
00000000
10000000
00010000
00000000
,
00000000
00000000
00000000
00001000
00000000
00001000
00010000
00001000
,
00000000
00001000
00001000
00010000
00000000
00010000
00001000
00010000
,
00000000
00010000
00000000
00001000
00010000
00000000
00010000
00100000
,
00000000
00100000
10000000
00000000
10000000
00100000
00000000
00000000
,
00100000
10000000
01000000
00010000
,
00001000
00000010
00000001
00000100
,
00000001
00000100
00000000
00000100
00001000
00000000
00001000
00010000
,
00000000
00010000
01000000
00000000
01000000
10000000
00000000
00000000
,
10010000
00000000
00011000
00000000
00001000
00000001
00001000
00000000
,
00000110
00000000
00001001
00000000
00000001
00001000
00000001
00000000
,
00000110
00000000
00000100
00000100
00000100
00000100
00000100
00000000
,
00001100
00000000
00000000
00011000
00000000
00000000
00000000
00000000
,
00101000
00000000
00100000
00100000
00100000
00100000
00100000
00000000
,
00110000
00000000
00000000
00000000
,
10010000
00000000
10000000
10000000
10000000
10000000
10000000
00000000
,
11000000
00000000
00000000
00000000
,
00100000
00000000
00000000
00000100
00000000
00000000
00000000
00000000
,
00000110
00000000
00000000
00011000
00000000
10010000
00000000
00000000
,
00100000
00100000
00000010
00000010
,
00011000
00000000
00001000
00001000
00010000
00010000
00000000
00000000
;

//---------------dance-double - ----------------
#NOTES:
     dance-double:
     :
     Hard:
     12:
     :
00000000
00000000
00000000
00000000
,
00000000
00000000
00000000
00000000
,
00000000
00000000
00000000
00000000
,
00000100
00000000
00000000
00000000
00000001
00000000
00000010
00000000
00000001
00000000
00001000
00000000
00001000
00000000
00000000
00000010
,
00000100
00000000
00000001
00001000
00000001
00000000
00020200
00000000
00000000
00000000
00000000
00000000
00000300
00000000
00001000
00000000
,
00031000
00000000
00000000
00010000
01000000
00000000
10000000
00000000
00000000
00000000
00100000
00000000
01000000
00000000
00000000
00000000
,
00010000
00100000
01000000
22000000
00000000
00000000
03000000
00000000
,
30010000
00000000
01000000
00000000
00001000
00000000
00010000
00000000
00010010
00000000
00000000
00010010
00000000
00000000
00010010
00000000
,
00000000
00000000
00000100
00000001
00000100
00000000
00000220
00000000
00000000
00000000
00000000
00000000
00000300
00000000
00010000
00000000
,
00010030
00000000
00000000
00001000
00010000
00000000
00000010
00000000
00000000
00000000
00000100
00000000
00000001
00000000
00001000
00000000
,
00000001
00000010
00000100
00202000
00000000
00000000
00003000
00000000
,
01300000
00000000
00100000
00000000
00000000
00000000
00010000
00000000
10000000
00000000
00000000
00100000
10000000
00000000
00010000
00000000
,
10000000
00000000
01000000
00000000
00100000
00000000
20020000
00000000
00000000
30000000
00000000
00000000
00001000
00000000
00001000
00000000
,
00031000
00000100
00000001
00000011
00000000
00000000
00000100
00001000
,
00000100
00000000
00000010
00000000
00000001
00000000
00001000
00000000
00001100
00000000
00000000
00001100
00000000
00000000
00001100
00000000
,
00010000
00000000
00001000
00000000
00000000
00000000
01000000
00000000
00100000
00000000
10000000
00010000
10000000
00000000
01000000
00000000
,
00000000
01100000
00000000
01001000
00000000
00011000
00000000
00001010
,
00000001
00002000
00000000
00000100
00000000
00000000
00003001
00001000
,
00000010
00000000
00000100
00000000
00000010
00000000
00010000
00000000
00001000
00000000
00000000
01000000
00000000
00000000
00100000
00000000
,
10000000
00000000
00020000
00000000
00000000
00000000
00100000
00000000
00130000
00000000
00000000
00010000
10000000
00000000
01000000
00000000
,
00100000
00010000
01000000
20200000
00000000
00300000
00010000
00010000
,
30010000
02000000
00000000
10000000
00000000
03100000
01000000
00010000
,
00100000
00000000
00001000
00000000
01000000
00000000
00001000
00000000
00010000
00000000
00000000
00000010
00001000
00000000
00000001
00000000
,
00000010
00000000
00000002
00000000
00000000
00000000
00001000
00000000
00001003
00000000
00000100
00000010
00000100
00000000
00010000
00000000
,
00001000
01000000
00100000
10000000
00010000
00000000
10010000
00000000
,
00001000
00010000
00000100
00001100
00000000
00001100
00000010
00000001
,
00000001
00000100
00000010
00000110
00000000
00000110
00010000
00001000
,
00100000
00000000
01000000
10010000
00000000
10010000
01000000
00100000
,
00100000
10000000
01000000
00010000
00110000
00000000
00010100
00000001
,
00000001
00001000
00000010
00000101
00000000
00000101
00001000
00000100
,
00000100
00000010
00000001
00001001
00000000
00001001
00000100
00010000
,
00001000
00010000
01000000
01100000
00000000
01100000
00000000
11000000
,
00000000
01010000
00000000
11000000
00000000
01010000
00000000
00001000
,
00020000
00001000
00000000
00001000
00001000
00000000
00001000
00001000
,
00000000
00000000
00001000
00000000
00031000
00000000
00000000
00000000
00010000
00000010
00000000
00001000
00000100
00000000
00000010
00000000
,
00001001
00000000
00000000
00000000
00000100
00000000
00000010
00000000
00001000
00000000
00000000
00000001
00001000
00000000
00000010
00000000
,
00000100
00000000
00000000
00010000
00001000
00000000
00011000
00000000
00000000
00000000
01000000
00000000
00100000
00000000
10000000
00000000
,
00200000
01000000
00000000
01000000
01000000
00000000
01000000
01000000
,
00000000
00000000
01000000
00000000
01300000
00000000
00000000
00000000
00100000
10000000
00000000
00010000
01000000
00000000
00001000
00000000
,
00011000
00000000
00000000
00000000
00000010
00000000
00000100
00000000
00000001
00000000
00000000
00001000
00000100
00000000
00000010
00000000
,
00000011
00000000
00000000
00000001
00001000
00000000
00000100
00000000
00000000
00000000
00010000
00000000
00001000
00000000
00000100
00000000
,
00000001
00000001
00000010
00000100
00001000
00000010
00000100
00010000
,
01000000
10000000
10000000
01000000
00010000
00100000
00010000
10000000
,
00100000
00100000
01000000
00010000
00100000
10000000
00100000
00001000
,
00010000
00000100
00000100
00000010
00000001
00001000
00000001
00000100
,
00000010
00000010
00001000
00000001
00001000
01000000
00100000
01000000
,
00010000
01000000
01000000
10000000
00100000
10000000
00010000
00000100
,
00001000
00001000
00000100
00000001
00000010
00000100
00001000
00000010
,
00000100
00000001
00000001
00000010
00000001
00001000
00001000
00010000
,
01000000
00100000
00100000
00010000
10000000
00100000
10000000
01000000
,
00010000
00000000
00000100
00000100
00000100
00000100
00000000
00000000
;

//---------------dance-double - ----------------
#NOTES:
     dance-double:
     :
     Challenge:
     14:
     :
00000000
00000000
00000000
00000000
,
00000000
00000000
00000000
00000000
,
00000000
00000000
00000000
00000000
,
10000000
00000000
00100000
01000000
00100000
00000000
10000000
00000000
00010000
00000000
01000000
00000000
01000000
00000000
00001000
00010000
,
00001000
00000000
00010000
00001000
00010000
00000000
00002020
00000000
00000000
00000030
00000001
00000000
00003001
00000000
00000100
00000000
,
00000010
00000000
00001000
00000100
00001000
00000000
00001001
00000000
00000000
00000000
00000010
00000000
00000100
00000000
00000001
00000000
,
00001000
00000000
00000100
00000000
00010000
00000000
00011000
00000000
01001000
00000000
01000000
00100000
00000000
00100000
10000000
00000000
,
00000000
00000000
11000000
00000000
00100000
00000000
00010000
00000000
01010000
00000000
00000000
11000000
00000000
00000000
00100000
00000000
,
10000000
00000000
01000000
00100000
01000000
00000000
10010000
00000000
00000000
00000000
01100000
00000000
00000000
00000000
01010000
00000000
,
00110000
00000000
00000000
00100000
00001000
00000000
00010100
00000000
00000000
00000000
00000010
00000000
00000001
00000000
00000001
00000000
,
00000001
00000000
00000100
00000000
00000010
00000000
00001010
00000000
00001100
00000000
00000010
00000001
00000000
00000010
00000001
00000000
,
00001000
00000000
00001000
00000000
00000100
00000000
00010000
00000000
00010000
00000000
00001000
01000000
00001000
00000000
00001000
00000000
,
00001000
00000000
00010000
00000000
00100000
00000000
20200000
00000000
00000000
00300000
01000000
00000000
01000000
00000000
00010000
00000000
,
30010000
00000000
10000000
00100000
10000000
00000000
01100000
00000000
00000000
00000000
00100000
00000000
01000000
00000000
01000000
00000000
,
01000000
00000000
00001000
00000000
00010000
00000000
00000010
00000000
00000100
00000000
00000001
00001000
00000000
00000001
00001000
00000000
,
00000010
00000000
00010010
00000000
00000000
00000000
00000100
00000000
00001001
00000000
00000000
00000010
00001000
00000000
00001000
00000000
,
00000000
00001100
00000000
00011000
00000000
00110000
00000000
11000000
,
00100000
20000000
01000000
01000000
00000000
00100000
00010000
00010000
,
30010000
00000000
01000000
00000000
10000000
00000000
01000000
00000000
00001000
00000000
00010000
00000010
00000000
00000010
00000100
00000000
,
00000001
00000000
00002000
00000000
00000010
00000000
00000100
00000000
00003100
00000000
00001000
00000001
00001000
00000000
00001000
00000000
,
00001000
00000000
00000000
00000000
00000010
00000000
00000000
00000000
00000100
00000000
00000000
00000000
00000202
00000000
00000000
00000000
00000000
00000000
00000000
00000300
00010000
00000000
00000000
00000000
00010000
00000000
00000000
00000000
00010000
00000000
00000000
00000000
,
00001003
00000020
00000100
00001000
00001030
00000100
00010000
00010000
,
00010000
00000000
01000000
00000000
10000000
00000000
00100000
00000000
01000000
00000000
00010000
10000000
00000000
00010000
10000000
00000000
,
00100000
00000000
02000000
00000000
00000000
00000000
00010000
00000000
03010000
00000000
00000000
10000000
00100000
00000000
01000000
00000000
,
00001000
00010000
00000010
00001000
00000001
00000000
00001001
00000000
,
00000010
00000000
00001000
00000100
00000010
00000000
00000011
00000000
00000000
00000000
00000011
00000000
00000100
00000000
00000100
00000000
,
00000100
00000000
00010000
00001000
01000000
00000000
01010000
00000000
00000000
00000000
01010000
00000000
00100000
00000000
10000000
00000000
,
10000000
00000000
01000000
00100000
00010000
00000000
10010000
00000000
00000000
00000000
10010000
00000000
01000000
00000000
01000000
00000000
,
01000000
00000000
00001000
00010000
00000100
00000000
00000110
00000000
00001001
00000000
00000000
00000000
00000110
00000000
00001000
00000000
,
00001000
00000000
00000001
00001000
00000100
00000000
00010100
00000000
00000000
00000000
00010100
00000000
00001000
00000000
00001000
00000000
,
00001000
00000000
01000000
00100000
10000000
00000000
01100000
00000000
00000000
00000000
01100000
00000000
10000000
00000000
00010000
00000000
,
00010000
00100000
00001000
00011000
00000000
00011000
00000010
00001010
,
00000000
00001100
00000000
00010010
00000000
00011000
00000000
10100000
,
02000000
10000000
00000000
00010000
00010000
00000000
00001000
00001000
,
00000000
00000000
00100000
00000000
03100000
00000000
00000000
00000000
00001000
00010000
00001000
00010000
00001000
00010000
00001000
00000000
,
00011000
00000000
00000010
00000100
00000001
00000000
00001010
00000000
00000000
00000000
00000001
00000100
00000010
00000000
00000010
00000000
,
00000010
00000000
00010000
00001000
01000000
00000000
01100000
00000000
00000000
10000000
00010000
00000000
00100000
00010000
01000000
00000000
,
00002000
00010000
00000000
00000010
00000010
00000000
01000000
01003000
,
00110000
00000000
10000000
00000000
10000000
00000000
01000000
00000000
00010000
00001000
00010000
00001000
00010000
00001000
00010000
00001000
,
00000100
00000000
00000001
00000010
00000001
00000000
00001000
00000000
00000100
00000000
00000010
00000001
00000000
00000001
00001000
00000000
,
00000100
00000000
00010000
00001000
00010000
00000000
01000000
00000000
10000000
00100000
01000000
00000000
00010000
00000000
10000000
00000000
,
10100000
01010000
00001000
00010000
00000010
00000100
00010000
00000100
,
00000001
00000000
00000011
00000000
00001100
00000000
00000010
00000000
00001000
00000100
00001000
00000001
00000000
00000001
00000100
00000000
,
00000110
00000000
00010010
00000000
00010000
00000000
00001000
00000000
01000000
00100000
10000000
00010000
01000000
00000000
00001000
00000000
,
00100000
00000000
00101000
00000000
00011000
00000000
00000100
00000000
00000001
00001000
00000001
00001000
00000001
00001000
00000001
00001000
,
00000010
00000000
00000010
00001000
00000100
00000000
00001001
00000000
00000000
00000000
00000011
00000000
00000100
00000000
00001010
00000000
,
00001010
00000000
00010000
00000000
00010000
00000000
00001000
00000000
01000000
00100000
01000000
00010000
00000000
10000000
01000000
00000000
,
11000000
00000000
01010000
00000000
00100000
00000000
00001000
00000000
00001000
00000000
00010000
00000010
00000000
00000010
00000100
00000000
,
00000001
00000000
00000101
00000000
00010100
00000000
00001000
00000000
00010000
00000000
01001000
00000000
11000000
00000000
00100000
00010000
,
01000000
01100000
00011000
00010000
00000010
00000100
00000001
00000001
,
00000001
00001000
00001100
00000101
00001100
00000101
00000000
00000000
;
