#TITLE:Deep Freeze;
#SUBTITLE:;
#ARTIST:From Dr. Mario;
#TITLETRANSLIT:;
#SUBTITLETRANSLIT:;
#ARTISTTRANSLIT:;
#GENRE:;
#CREDIT:;
#BANNER:Deep Freeze-bn.png;
#BACKGROUND:Deep Freeze-bg.png;
#LYRICSPATH:;
#CDTITLE:;
#MUSIC:Deep Freeze.ogg;
#OFFSET:1.619092;
#SAMPLESTART:6.489000;
#SAMPLELENGTH:20.000000;
#LASTBEATHINT:1.527094;
#SELECTABLE:YES;
#DISPLAYBPM:148.000000;
#BPMS:0.000000=148.000000
;
#STOPS:144.000000=0.811000
;
#BGCHANGES:;
#KEYSOUNDS:;
#ATTACKS:;

//---------------dance-single - ----------------
#NOTES:
     dance-single:
     :
     Hard:
     12:
     0.612823,0.598295,0.126791,0.211318,0.216601,406.000000,394.000000,12.000000,20.000000,0.000000,0.000000,0.612823,0.598295,0.126791,0.211318,0.216601,406.000000,394.000000,12.000000,20.000000,0.000000,0.000000:
0000
0000
0000
0000
,
0000
0000
0000
0000
,
0000
0000
0000
0000
,
1010
0000
0101
0000
0001
0001
0000
1000
,
0001
0100
0000
0100
0001
0000
1000
0000
1000
0000
0100
0010
0000
0010
0001
0000
,
0100
1000
0100
0001
0100
0010
1000
0002
,
0000
0000
0013
0000
0001
0000
0100
0000
0001
0000
1000
0010
0000
0010
0100
0000
,
0001
0010
1000
0010
0001
0100
0010
1000
,
0100
0000
0001
0000
0100
0000
1000
0000
0010
0000
0100
0001
0000
0001
1000
0000
,
0010
0001
0010
0100
0010
1000
0100
0020
,
0000
0000
0031
0000
0100
0000
0010
0000
1000
0000
0100
0010
0000
0010
0001
0000
,
1000
0010
0001
0010
1000
0100
0010
0001
,
0100
0000
0010
0000
0100
0000
0001
0000
0010
0000
0001
1000
0001
0000
0100
0000
,
1002
0000
1003
0100
0020
0000
0032
0000
,
0203
0010
1000
0001
,
0320
0000
1030
0001
2000
0000
3200
0000
,
0320
0000
1000
0000
0001
0001
0031
0000
,
0100
0000
0001
0010
0001
0000
0100
0000
1000
0000
0100
0000
0001
0000
0000
0000
,
0001
0000
1000
0010
1000
0000
0100
0000
0010
0000
0100
0000
1000
0000
0000
0000
,
0001
0100
1000
0000
1100
0000
0101
0000
,
0110
0000
1000
0001
1000
0000
1000
0000
0000
0100
0000
0100
0010
0000
0001
1000
,
0001
0100
1000
0100
0001
0010
0100
2000
,
0000
0000
3010
0000
0100
0000
0001
0000
1000
0000
0001
0010
0000
0010
0100
0000
,
1000
0010
0001
0010
0100
0010
0001
0010
,
1000
0000
0100
0000
0001
0000
0100
0000
1000
0000
0001
0100
0000
0100
0010
0000
,
0100
1000
0100
0001
0010
0100
1000
0002
,
0000
0000
1003
0000
0001
0000
0010
0000
0100
0000
1000
0001
0000
0001
0100
0000
,
0010
1000
0100
1000
0001
0100
0010
2000
,
0000
0000
3100
0010
0000
0010
0001
0000
1000
0000
0001
0000
0200
0000
0000
0000
,
0310
0000
0100
0000
0001
0000
0100
0000
0010
0000
1000
0000
0100
0000
0010
0001
,
0010
0000
0100
0000
1000
0000
0001
0000
0100
0010
0000
0100
0010
0000
1000
0000
,
0001
0100
0001
0010
1000
0010
0100
0010
,
0001
0000
1000
0000
0001
0000
1000
0000
0010
0000
1000
0100
0000
0010
0001
0000
,
0100
0001
1000
0000
1000
0000
1000
0000
,
0001
0010
0100
1000
0000
0000
0010
0100
,
0001
1000
0100
0000
0100
0000
0100
0000
,
1000
0000
1001
0000
0110
0001
1000
0001
,
1000
0100
0000
0010
0001
0100
0001
0010
,
1000
0000
0100
1000
1000
0001
1000
0010
,
0100
0001
0010
0100
1000
0010
0001
0010
,
1000
0100
0001
0100
1000
0001
1000
0010
,
0100
0001
0000
0010
0001
0100
0001
0010
,
0100
0000
1000
0001
0001
0100
0001
1000
,
0010
0000
0100
0000
0000
0000
0001
0000
1000
0100
0000
0100
0010
0000
0001
0000
,
1000
0000
0001
1000
0000
0010
0100
0000
0002
0000
0000
0000
0013
0000
0001
0000
,
2000
0000
3020
0000
0130
0001
0100
0010
,
0100
0001
1000
0100
0020
0000
0031
1000
,
0020
0000
0230
0000
0301
0010
0001
0100
,
1000
0000
0100
0000
0001
0000
0010
0000
0100
0000
1000
0001
1000
0000
0010
0000
,
1000
0000
0100
0000
0001
0000
0000
0000
0010
0000
0001
0100
0001
0000
1000
0000
,
0010
0000
0100
0000
0001
0000
0000
0000
0010
0000
0001
1000
0001
0000
0100
0000
,
0010
0000
1000
0000
0100
0000
0000
0000
1000
0000
0100
0010
0100
0000
1000
0000
,
0000
0001
0000
0001
0100
0000
0010
1000
0010
0000
0100
0000
0001
0000
0000
0000
,
1010
0000
0100
0000
0001
0010
0100
0000
,
1100
0001
0000
0000
0100
0010
1000
0000
,
0101
0000
0010
0000
1000
0001
1000
0010
,
0100
0001
1000
0100
0010
0011
0000
0000
;

//---------------dance-single - ----------------
#NOTES:
     dance-single:
     :
     Medium:
     9:
     0.427165,0.478636,0.232450,0.253582,0.015849,283.000000,261.000000,22.000000,24.000000,0.000000,0.000000,0.427165,0.478636,0.232450,0.253582,0.015849,283.000000,261.000000,22.000000,24.000000,0.000000,0.000000:
0000
0000
0000
0000
,
0000
0000
0000
0000
,
0000
0000
0000
0000
,
1010
0000
0101
0000
0001
0001
0000
1000
,
0000
0010
0100
0000
0000
0000
0000
0000
,
0001
0010
0001
0010
0100
1000
0000
0020
,
0000
1030
0001
1000
0100
0000
0000
0000
,
1000
0010
1000
0010
0100
0001
0010
0000
,
0001
1000
0010
1000
0001
0000
0000
0000
,
0100
0001
0100
0010
0100
0001
0000
1000
,
0000
1000
0100
0010
0001
0000
0000
0000
,
0010
0001
1000
0001
0100
0001
0000
0020
,
0000
0000
0031
1000
0002
0000
0103
0000
,
2000
0000
3000
0001
2000
0000
3200
0000
,
0320
0000
0001
1000
,
0032
0000
0003
1000
0002
0000
0203
0000
,
0320
1000
0100
1000
,
0130
0000
0001
0010
0001
0000
1000
0000
,
0010
1000
0100
0000
1000
0010
0001
0000
,
0200
0301
0011
1010
,
0001
0000
1000
0000
0001
0000
0100
0000
0000
0010
0000
0000
1000
0000
0010
0000
,
0100
0001
1000
0001
1000
0100
0000
0020
,
0000
0031
1000
0001
0100
0000
0000
0000
,
0010
1000
0100
1000
0001
0000
0001
0100
,
0010
1000
0100
0010
0001
0000
0000
0000
,
0010
0100
0010
0100
0010
0001
0000
2000
,
0000
3010
1000
0100
1000
0000
0000
0000
,
0001
0010
0001
0010
0001
1000
0001
0200
,
0000
0310
1000
0010
0100
0000
0002
0000
,
0013
0000
1001
0000
0100
0001
0000
1000
,
0000
1000
0001
0010
0100
0000
0000
0000
,
0010
0001
0100
0001
1000
0010
1000
0000
,
0100
0010
0100
1000
0001
0000
0000
0000
,
0100
0100
0000
0000
0000
0000
0000
0000
,
0010
0000
1000
0001
0000
0000
0000
0000
,
0010
0010
0001
0000
0100
0000
1000
0000
,
0001
1001
1100
0101
,
1000
1000
0000
0001
0000
0010
0000
0001
,
0100
0000
0110
1001
,
0100
0100
0000
0010
0000
1000
0100
0000
,
1000
0001
0100
0000
0011
0000
1100
0000
,
0001
0001
0000
0010
0000
0010
0000
0001
,
1000
0000
0101
1100
,
1000
0001
0000
0100
0001
0000
0001
0010
,
0100
0000
0000
1000
0000
0000
0001
0000
0200
0000
0000
0000
0300
0000
0001
0000
,
2000
3002
0023
0001
,
0100
0000
0031
0000
2000
0000
3000
0010
,
0200
0302
0023
1000
,
0001
0000
0130
0000
1000
0001
0100
0000
,
0110
0000
1001
0000
0010
1000
0100
0000
,
1100
0000
1010
0000
0001
0010
0100
0000
,
1100
0000
0011
0000
0100
0001
0010
0001
,
0000
1000
0000
0000
0001
0000
0100
0000
0010
0000
0010
0000
0000
0000
0000
0000
,
1001
0000
0000
0000
0100
0000
0001
1000
,
0001
0001
0000
0000
0010
0010
0000
0000
,
0011
0000
0000
0000
1000
0001
1000
0100
,
0000
0000
0000
0000
1000
0001
0000
0000
;

//---------------dance-single - ----------------
#NOTES:
     dance-single:
     :
     Easy:
     6:
     0.241507,0.298487,0.084527,0.084527,0.000000,160.000000,152.000000,8.000000,8.000000,0.000000,0.000000,0.241507,0.298487,0.084527,0.084527,0.000000,160.000000,152.000000,8.000000,8.000000,0.000000,0.000000:
0000
0000
0000
0000
,
0000
0000
0000
0000
,
0000
0000
0000
0000
,
1000
1000
1000
0100
,
0001
0001
0001
0000
,
0010
0001
0010
0000
,
0001
0100
1000
0000
,
0001
0010
0001
0100
,
0010
1000
1000
0000
,
0100
1000
0100
0000
,
1000
0010
0001
0000
,
0010
0001
0100
0000
,
0010
1000
0100
0100
,
1000
0000
1000
0001
,
0200
0000
0000
0300
,
0001
0000
1000
0001
,
0020
0000
0000
0030
,
0001
0000
0100
0010
,
0200
0000
0000
0300
,
0010
0000
1000
0100
,
0002
0000
0000
0003
,
0010
0010
0001
0000
,
0100
0010
1000
0000
,
0001
0001
1000
1000
,
0010
1000
0100
0000
,
0010
0010
0001
0000
,
1000
0100
0100
0000
,
1000
1000
0010
0100
,
0001
0010
1000
0000
,
0110
1001
0100
0001
,
1000
0100
1000
0000
,
0001
0001
0010
0001
,
0100
0010
1000
0000
,
0110
0000
0000
0000
,
1000
0100
0000
0000
,
0010
0000
0000
0000
,
0001
1001
0010
0010
,
1000
0001
1000
0100
,
0100
0000
1000
1000
,
0001
0010
0001
0100
,
1000
0000
0010
0100
,
0010
0100
0001
0100
,
1000
0000
0001
0001
,
0001
0010
0100
1000
,
1000
0000
0100
0000
,
1000
0001
0200
0000
,
0000
0300
0010
0000
,
0010
1000
0002
0010
,
0100
0013
1000
0000
,
1000
0001
0200
0000
,
0000
0300
0001
0000
,
0100
0001
2000
0000
,
0000
3000
0010
0000
,
1001
0000
0001
0100
,
0110
0000
1000
0000
,
0110
0000
0001
1000
,
0000
0000
1001
0000
;

//---------------dance-single - ----------------
#NOTES:
     dance-single:
     :
     Beginner:
     3:
     0.158489,0.208941,0.000000,0.000000,0.000000,105.000000,105.000000,0.000000,0.000000,0.000000,0.000000,0.158489,0.208941,0.000000,0.000000,0.000000,105.000000,105.000000,0.000000,0.000000,0.000000,0.000000:
// measure 0
0000
0000
0000
0000
,  // measure 1
0000
0000
0000
0000
,  // measure 2
0000
0000
0000
0000
,  // measure 3
1000
1000
1000
0000
,  // measure 4
0001
0001
0000
0000
,  // measure 5
0010
0000
0010
0000
,  // measure 6
0001
0000
0100
0000
,  // measure 7
0010
0000
1000
0000
,  // measure 8
0100
0100
0100
0000
,  // measure 9
1000
1000
1000
0000
,  // measure 10
0001
0000
0010
0000
,  // measure 11
0001
0000
0100
0000
,  // measure 12
0010
0000
1000
0000
,  // measure 13
0100
0000
0100
0000
,  // measure 14
0100
0000
0000
0000
,  // measure 15
0010
0000
0010
0000
,  // measure 16
0010
0000
0000
0000
,  // measure 17
0001
0000
0001
0000
,  // measure 18
0001
0000
0000
0000
,  // measure 19
1000
0000
1000
0000
,  // measure 20
1000
0000
0000
0000
,  // measure 21
0001
0000
0001
0000
,  // measure 22
1000
0000
0010
0000
,  // measure 23
1000
0000
0100
0000
,  // measure 24
0010
0010
0010
0000
,  // measure 25
0001
0000
1000
0000
,  // measure 26
0001
0000
0100
0000
,  // measure 27
0100
0000
0010
0000
,  // measure 28
1000
1000
1000
0000
,  // measure 29
0001
0001
0001
0000
,  // measure 30
0010
0000
0100
0000
,  // measure 31
0010
0000
0001
0000
,  // measure 32
1000
1000
1000
0000
,  // measure 33
0010
0000
0000
0000
,  // measure 34
0100
0100
0000
0000
,  // measure 35
0001
0000
0000
0000
,  // measure 36
0000
0000
1000
1000
,  // measure 37
1000
0000
0010
0000
,  // measure 38
0100
0000
0001
0001
,  // measure 39
0001
0000
1000
0000
,  // measure 40
0100
0000
0010
0010
,  // measure 41
0010
0000
0001
0000
,  // measure 42
1000
0000
0100
0100
,  // measure 43
0100
0000
0010
0000
,  // measure 44
0000
0000
0001
0000
,  // measure 45
0001
0000
0001
0000
,  // measure 46
0000
0000
1000
0000
,  // measure 47
1000
0000
1000
0000
,  // measure 48
0000
0000
0010
0000
,  // measure 49
0010
0000
0010
0000
,  // measure 50
0000
0000
0100
0000
,  // measure 51
0100
0000
0100
0000
,  // measure 52
0000
0000
0001
0000
,  // measure 53
0000
0000
1000
1000
,  // measure 54
0000
0000
0001
0000
,  // measure 55
0000
0000
0100
0100
,  // measure 56
0000
0000
0010
0000
;
