#VERSION:0.83;
#TITLE:Decade;
#SUBTITLE:;
#ARTIST:kors k Vs. dj TAKA;
#TITLETRANSLIT:;
#SUBTITLETRANSLIT:;
#ARTISTTRANSLIT:;
#GENRE:;
#ORIGIN:;
#CREDIT:;
#BANNER:Decade-bn.png;
#BACKGROUND:Decade-bg.png;
#PREVIEWVID:;
#JACKET:Decade-jacket.png;
#CDIMAGE:;
#DISCIMAGE:;
#LYRICSPATH:;
#CDTITLE:;
#MUSIC:Decade.ogg;
#OFFSET:0.000000;
#SAMPLESTART:75.419998;
#SAMPLELENGTH:20.000000;
#SELECTABLE:YES;
#DISPLAYBPM:148.000000;
#BPMS:0.000=148.000;
#STOPS:;
#DELAYS:;
#WARPS:;
#TIMESIGNATURES:0.000=4=4;
#TICKCOUNTS:0.000=4;
#COMBOS:0.000=1;
#SPEEDS:0.000=1.000=0.000=0;
#SCROLLS:0.000=1.000;
#FAKES:;
#LABELS:0.000=Song Start;
#BGCHANGES:0.000=Decade.avi=1.000=1=0=0=StretchNoLoop==CrossFade==,
260.000=Decade-bg.png=1.000=1=0=0=StretchNoLoop==CrossFade==,
99999=-nosongbg-=1.000=0=0=0 // don't automatically add -songbackground-
;
#KEYSOUNDS:;
#ATTACKS:
;

//---------------dance-single - ----------------
#NOTEDATA:;
#CHARTNAME:;
#STEPSTYPE:dance-single;
#DESCRIPTION:;
#CHARTSTYLE:;
#DIFFICULTY:Beginner;
#METER:2;
#RADARVALUES:0.115700,0.173945,0.036814,0.000000,0.000000,88.000000,84.000000,4.000000,0.000000,0.000000,0.000000,0.000000,0.000000,0.000000,0.115700,0.173945,0.036814,0.000000,0.000000,88.000000,84.000000,4.000000,0.000000,0.000000,0.000000,0.000000,0.000000,0.000000;
#CREDIT:;
#DISPLAYBPM:148.000000;
#NOTES:
0000
0000
0000
0000
,
0000
0000
0000
0000
,
0000
0000
0000
0000
,
0000
0000
0000
0000
,
0000
0000
0000
0000
,
0001
0000
0000
0000
,
1000
0000
0000
0000
,
0001
0000
1000
0000
,
0001
0000
0000
0000
,
0010
0000
0000
0000
,
1000
0000
0000
0000
,
0100
0000
0000
0000
,
0001
0000
0000
0000
,
0010
0000
0000
0000
,
0001
0000
0000
0000
,
0100
0000
0000
0000
,
1000
0000
0000
0000
,
0010
0010
0000
0000
,
1000
1000
0000
0000
,
0100
0100
0000
0000
,
0001
0001
0000
0000
,
0010
0010
0000
0000
,
0001
0001
0000
0000
,
0100
0100
0000
0000
,
1000
1000
0000
0000
,
1001
0000
0000
0000
,
0000
0000
0000
0000
,
1001
0000
0000
0000
,
0000
0000
0000
0000
,
1001
0000
0000
0000
,
0000
0000
0000
0000
,
0000
0000
0000
0000
,
0000
0000
0000
0000
,
0001
0000
0000
0000
,
0001
0000
0000
0000
,
1000
0000
0000
0000
,
1000
0000
0000
0000
,
0010
0000
0000
0000
,
0010
0000
0000
0000
,
0100
0000
0000
0000
,
0100
0000
0000
0000
,
1001
0000
0000
0000
,
0000
0000
0000
0000
,
0001
0000
1000
0000
,
0001
0000
1000
0000
,
0001
0000
1000
0000
,
0000
0000
0000
0000
,
0001
0001
0001
0000
,
0010
0000
0000
0000
,
1000
1000
1000
0000
,
0010
0000
0000
0000
,
0001
0001
0001
0000
,
0100
0000
0000
0000
,
1000
1000
1000
0000
,
0100
0000
0000
0000
,
0001
0001
0001
0000
,
0010
0000
0001
0000
,
1000
1000
1000
0000
,
0010
0000
1000
0000
,
0001
0001
0001
0000
,
0100
0000
0001
0000
,
1000
1000
1000
0000
,
0100
0000
1000
0000
,
0001
0000
0000
0000
,
0000
0000
0000
0000
;

//---------------dance-single - ----------------
#NOTEDATA:;
#CHARTNAME:;
#STEPSTYPE:dance-single;
#DESCRIPTION:;
#CHARTSTYLE:;
#DIFFICULTY:Easy;
#METER:5;
#RADARVALUES:0.222197,0.289908,0.046017,0.128848,0.000000,169.000000,164.000000,5.000000,14.000000,0.000000,0.000000,0.000000,0.000000,0.000000,0.222197,0.289908,0.046017,0.128848,0.000000,169.000000,164.000000,5.000000,14.000000,0.000000,0.000000,0.000000,0.000000,0.000000;
#CREDIT:;
#DISPLAYBPM:148.000000;
#NOTES:
0000
0000
0000
0000
,
0000
0000
0000
0000
,
0000
0000
0000
0000
,
0000
0000
0000
0000
,
0000
0000
0000
0000
,
0001
0010
0001
0001
,
1000
0010
1000
1000
,
0001
0001
1000
1000
,
2002
0000
0000
3003
,
0010
1000
0010
1000
,
0100
1000
0100
1000
,
0001
0100
0001
0100
,
0001
0010
0001
0010
,
0002
0000
0010
0013
,
2000
0000
0010
3010
,
0001
0100
1000
0100
,
0001
1000
0001
0000
,
0010
1000
0001
0010
,
1000
0010
0100
0000
,
0001
0010
0100
0010
,
0001
1000
0100
0000
,
0010
1000
0100
0001
,
0010
0100
1000
0000
,
0010
0001
0100
1000
,
0010
0100
0001
0000
,
2000
0000
0000
0000
,
0000
0000
0000
0000
,
0002
0000
0000
0000
,
0000
0000
0000
3003
,
0220
0000
0000
0000
,
0000
0000
0000
0000
,
0000
0000
0000
0000
,
0000
0000
0000
0330
,
0001
0000
0001
0000
,
1000
0000
1000
0000
,
0001
0000
0100
0000
,
1000
0000
0100
0000
,
0010
0000
0010
0000
,
0100
0000
0100
0000
,
0001
0000
0010
0000
,
1000
0000
0010
0000
,
2002
0000
0000
0000
,
0000
0000
0000
3003
,
0001
0010
1000
0100
,
0001
0010
1000
0100
,
0001
0010
1000
0100
,
0110
0000
0000
0000
,
0002
0010
1000
0103
,
0010
0001
0100
0000
,
2000
0010
0001
3100
,
0010
1000
0100
0000
,
0002
0100
1000
0013
,
0100
0010
0001
0000
,
2000
0100
0001
3010
,
0100
0010
1000
0000
,
0001
0100
1000
0100
,
0001
0010
1000
0100
,
0001
0100
1000
0100
,
1000
0010
0001
0100
,
1000
0010
1000
0100
,
0001
0010
1000
0100
,
0010
0001
0100
0001
,
1000
0010
0001
0100
,
1001
0000
0000
0000
,
0000
0000
0000
0000
;

//---------------dance-single - ----------------
#NOTEDATA:;
#CHARTNAME:;
#STEPSTYPE:dance-single;
#DESCRIPTION:;
#CHARTSTYLE:;
#DIFFICULTY:Medium;
#METER:8;
#RADARVALUES:0.330009,0.405872,0.211679,0.248493,0.000000,251.000000,228.000000,23.000000,27.000000,0.000000,0.000000,0.000000,0.000000,0.000000,0.330009,0.405872,0.211679,0.248493,0.000000,251.000000,228.000000,23.000000,27.000000,0.000000,0.000000,0.000000,0.000000,0.000000;
#CREDIT:;
#DISPLAYBPM:148.000000;
#NOTES:
0000
0000
0000
0000
,
0000
0000
0000
0000
,
0000
0000
0000
0000
,
0000
0000
0000
0000
,
0000
0000
0000
0000
,
1000
0000
0100
0000
1000
0010
0100
0000
,
0001
0000
0100
0000
0001
0010
0100
0000
,
1000
0010
1000
0000
0001
0010
0001
0000
,
2002
0000
0000
3003
,
0100
0001
0010
0001
,
0100
0000
1000
0000
0010
0000
0001
0100
,
1000
0010
1000
0100
,
1000
0000
0010
0000
0001
0000
0100
1000
,
0020
1000
0100
0031
,
2000
0100
0001
3010
,
0001
0100
0010
0000
1000
0100
0010
0000
,
1001
0000
0010
0010
,
0100
0001
1000
0100
,
0011
0000
1100
0000
0101
0000
0010
0100
,
0001
0100
0010
0100
,
1100
0000
1001
0000
0011
0000
1000
0010
,
0100
0001
0010
1000
,
0110
0000
1001
0000
0110
0000
1000
0001
,
0100
1000
0010
0001
,
0101
0000
0110
0000
1010
0000
0100
1000
,
0002
0100
0000
0100
,
0000
0100
0000
0103
,
2000
0100
0000
0100
,
0000
0100
0000
3100
,
0220
0000
0000
0000
,
0000
0000
0000
0000
,
0000
0000
0000
0000
,
0000
0000
0000
0330
,
2000
0010
0010
3010
,
0002
0100
0100
0103
,
0002
0010
0010
0013
,
2000
0100
0100
3100
,
0020
1000
1000
1030
,
0020
0001
0001
0031
,
0200
1000
1000
1300
,
0200
0001
0001
0301
,
2002
0000
0000
0000
,
0000
0000
0000
3003
,
1000
0100
1000
0000
0100
0001
0100
0000
,
0001
0010
0001
0000
0010
1000
0010
0000
,
1000
0100
1000
0000
0100
0001
0100
0000
,
1001
0000
0000
0000
,
2000
0000
3100
0000
0001
0010
1000
0000
,
0010
0001
0100
0100
,
0002
0000
0103
0000
1000
0010
0001
0000
,
0010
1000
0100
0100
,
2000
0000
3010
0000
0001
0000
0100
0001
,
0010
0101
1001
1100
,
0002
0010
2003
0100
,
3010
0100
0001
1000
0100
0000
0010
0000
,
1000
0010
1000
0000
0001
0000
0010
0000
,
1000
0001
0100
0000
0001
0000
0010
0000
,
1000
0100
0010
0000
0010
0100
1000
0000
,
0002
0203
2300
3020
,
0031
1000
0100
0000
0001
0000
0001
0000
,
0010
0001
0100
0000
1000
0000
1000
0000
,
0100
1001
0010
1001
,
0001
0000
0100
0000
1000
0010
0001
0000
,
1001
0000
0000
0000
,
0000
0000
0000
0000
;

//---------------dance-single - ----------------
#NOTEDATA:;
#CHARTNAME:;
#STEPSTYPE:dance-single;
#DESCRIPTION:;
#CHARTSTYLE:;
#DIFFICULTY:Hard;
#METER:11;
#RADARVALUES:0.383915,0.521835,0.092034,0.239289,0.073628,292.000000,282.000000,10.000000,26.000000,0.000000,0.000000,0.000000,0.000000,0.000000,0.383915,0.521835,0.092034,0.239289,0.073628,292.000000,282.000000,10.000000,26.000000,0.000000,0.000000,0.000000,0.000000,0.000000;
#CREDIT:;
#DISPLAYBPM:148.000000;
#NOTES:
0000
0000
0000
0000
,
0000
0000
0000
0000
,
0000
0000
0000
0000
,
0000
0000
0000
0000
,
0000
0000
0000
0000
,
0001
0000
0010
0000
0100
1000
0010
0000
,
1000
0000
0010
0000
0100
0001
0010
0000
,
0001
0100
0001
0000
1000
0100
1000
0000
,
2002
0000
0000
3003
,
0010
0000
0000
0010
0000
0000
0010
0000
0100
0000
0001
0000
1000
0000
0000
0000
,
0010
0000
0000
0010
0000
0000
0010
0000
0100
0000
1000
0000
0010
0000
0000
0000
,
0001
1000
0100
0000
0010
0100
1000
0000
,
0001
0000
0100
0000
1000
0000
0010
0001
,
0100
0000
0000
0100
0000
0000
0100
0000
0001
0000
0010
0000
0100
0000
0000
0000
,
0001
0000
0000
0001
0000
0000
0001
0000
0100
0000
1000
0000
0010
0000
0000
0000
,
1000
0010
0100
0000
0001
0010
0100
0000
,
1001
0000
0100
0100
,
0010
0100
1000
0001
0100
0010
0100
0001
,
2000
0100
0001
3100
,
0001
1000
0010
1000
0100
0010
0001
0010
,
0200
0001
1000
0301
,
0010
0100
1000
0100
0001
1000
0010
0001
,
0200
1000
0010
0301
,
0010
0100
0001
0010
0100
0010
0001
1000
,
0020
1000
0100
0031
,
2000
0010
0000
0010
,
0000
0010
0000
3010
,
0002
0010
0000
0010
,
0000
0010
0000
0013
,
0220
0000
0000
0000
,
0000
0000
0000
0000
,
0000
0000
0000
0000
,
0000
0000
0000
0330
,
0002
0010
1000
0103
,
0020
1000
0100
0031
,
2000
0100
0001
3010
,
0200
0001
0010
1300
,
0002
0100
0023
0100
,
0032
0100
0023
0100
,
0032
0000
2003
0000
,
3020
0000
0000
1030
0100
0010
0001
0000
,
2002
0000
0000
0000
,
0000
0000
0000
3003
,
0001
0100
1000
0000
0100
1000
0010
0000
,
1000
0010
0001
0000
0010
0001
0100
0000
,
0001
0100
1000
0010
0001
0100
1000
0010
,
1001
0000
0000
0000
,
0011
0000
0000
0001
0010
0000
0000
0010
0001
0000
1000
0000
0010
0000
0100
0000
,
0001
0000
0000
1000
0010
0000
0000
1000
0100
0000
0010
0000
0100
0000
0000
0000
,
1010
0000
0000
1000
0010
0000
0000
0010
1000
0000
0001
0000
0010
0000
0100
0000
,
1000
0000
0000
0001
0010
0000
0000
0001
0100
0000
0010
0000
0100
0000
0000
0000
,
1100
0000
0000
1000
0100
0000
0000
0100
1000
0000
0001
0000
0100
0000
0010
0000
,
1000
0000
0001
0100
1000
0010
0001
0000
,
0110
0000
0000
0100
0010
0000
0000
0010
0100
0000
0010
0000
0001
0000
0100
0000
,
0020
0000
0000
0000
0100
0100
0130
0000
,
0001
0100
0001
0100
0010
1000
0100
1000
,
0001
1000
0010
0100
0001
0010
0100
1000
,
0001
0010
0100
0010
1000
0010
0001
0100
,
1000
0100
0001
1000
0100
0001
0100
1000
,
0001
0000
0010
0000
1000
0010
0100
0001
,
1000
0000
0010
0000
0001
0010
0100
1000
,
0020
1000
0100
0031
,
2000
0100
0001
3010
,
0110
0000
0000
0000
;

//---------------dance-double - ----------------
#NOTEDATA:;
#CHARTNAME:;
#STEPSTYPE:dance-double;
#DESCRIPTION:;
#CHARTSTYLE:;
#DIFFICULTY:Easy;
#METER:5;
#RADARVALUES:0.228771,0.289908,0.055221,0.101238,0.000000,174.000000,168.000000,6.000000,11.000000,0.000000,0.000000,0.000000,0.000000,0.000000,0.228771,0.289908,0.055221,0.101238,0.000000,174.000000,168.000000,6.000000,11.000000,0.000000,0.000000,0.000000,0.000000,0.000000;
#CREDIT:;
#DISPLAYBPM:148.000000;
#NOTES:
00000000
00000000
00000000
00000000
,
00000000
00000000
00000000
00000000
,
00000000
00000000
00000000
00000000
,
00000000
00000000
00000000
00000000
,
00000000
00000000
00000000
00000000
,
10000000
00100000
10000000
10000000
,
00010000
00100000
00010000
00010000
,
00001000
00001000
00010000
00010000
,
00022000
00000000
00000000
00033000
,
00000010
00000001
00000100
00000001
,
00000001
00000100
00001000
00010000
,
01000000
10000000
00010000
10000000
,
00100000
10000000
00010000
00000000
,
00100000
10000000
01000000
10000000
,
10000000
01000000
00010000
00001000
,
00000100
00000001
00001000
00000001
,
00000010
00000001
00001000
00000000
,
00000010
00000100
00000001
00000000
,
00001000
00000100
00010000
00001000
,
00100000
00010000
01000000
00100000
,
10000000
10000000
10000000
00000000
,
00100000
01000000
10000000
00000000
,
00010000
01000000
00001000
00010000
,
00000010
00001000
00000100
00000010
,
00000001
00000001
00000001
00000000
,
00002000
00000000
00000000
00000000
,
00000000
00000000
00000000
00000000
,
00000002
00000000
00000000
00000000
,
00000000
00000000
00000000
00003003
,
00000220
00000000
00000000
00000000
,
00000000
00000000
00000000
00000000
,
00000000
00000000
00000000
00000000
,
00000000
00000000
00000000
00000330
,
00000001
00000000
00000001
00000000
,
00000100
00000000
00000100
00000000
,
00001000
00000000
00001000
00000000
,
00010000
00000000
00010000
00000000
,
00100000
00000000
00100000
00000000
,
01000000
00000000
01000000
00000000
,
10000000
00000000
10000000
00000000
,
00100000
00000000
00100000
00000000
,
20020000
00000000
00000000
00000000
,
00000000
00000000
00000000
30030000
,
00100000
10000000
01000000
00010000
,
00001000
00000010
00000001
00000100
,
00001000
00010000
00100000
10000000
,
01100000
00000000
00000000
00000000
,
00100000
00010000
00001000
00000010
,
00002000
00010000
00100000
00013000
,
00010000
00100000
10000000
01000000
,
00200000
00001000
00010000
00301000
,
00010000
00001000
00000100
00000001
,
00002000
00000100
00000001
00003010
,
00000100
00001000
00010000
00001000
,
00011000
00000000
00010000
00010000
,
00100000
10000000
00100000
00010000
,
00001000
00000010
00000001
00000100
,
00001000
00000100
00000001
00001000
,
00000100
00010000
00001000
00100000
,
00010000
00100000
00010000
01000000
,
10000000
00100000
00010000
00001000
,
00000010
00000001
00001000
00000100
,
00000010
00000100
00001000
00000010
,
00001001
00000000
00000000
00000000
,
00000000
00000000
00000000
00000000
;

//---------------dance-double - ----------------
#NOTEDATA:;
#CHARTNAME:;
#STEPSTYPE:dance-double;
#DESCRIPTION:;
#CHARTSTYLE:;
#DIFFICULTY:Medium;
#METER:8;
#RADARVALUES:0.299769,0.405872,0.064424,0.165662,0.000000,228.000000,221.000000,7.000000,18.000000,0.000000,0.000000,0.000000,0.000000,0.000000,0.299769,0.405872,0.064424,0.165662,0.000000,228.000000,221.000000,7.000000,18.000000,0.000000,0.000000,0.000000,0.000000,0.000000;
#CREDIT:;
#DISPLAYBPM:148.000000;
#NOTES:
00000000
00000000
00000000
00000000
,
00000000
00000000
00000000
00000000
,
00000000
00000000
00000000
00000000
,
00000000
00000000
00000000
00000000
,
00000000
00000000
00000000
00000000
,
00000010
00000010
00000001
00000001
,
00001000
00001000
00010000
00010000
,
10000000
10000000
01000000
01000000
,
20020000
00000000
00000000
30030000
,
00100000
00000000
01000000
00000000
00010000
10000000
01000000
00000000
,
00010000
00001000
00000010
00000001
,
00001000
00000000
00000100
00000000
00000001
00000100
00001000
00000000
,
00000010
00000100
00001000
00010000
,
00100000
00000000
00010000
00000000
00001000
00100000
00010000
00000000
,
00100000
00000000
00001000
00000000
00010000
01000000
00100000
00000000
,
00010000
01000000
00100000
10000000
,
10010000
00000000
01000000
01000000
,
10000000
01000000
00010000
00001000
,
00100000
00001000
01000000
00000000
00100000
00010000
00001000
00000000
,
00000100
00000001
00000010
00000100
,
00000010
00000001
00000100
00000000
00001000
00000100
00000001
00000000
,
00000010
00001000
00010000
00000010
,
00000100
00001000
00000100
00000000
00000010
00010000
00001000
00000000
,
00100000
00010000
01000000
00100000
,
10000000
01000000
00010000
00000000
00010000
01000000
10000000
00000000
,
00020000
00100000
00000000
00100000
,
00000000
00100000
00000000
00130000
,
20000000
00100000
00000000
00100000
,
00000000
00100000
00000000
30100000
,
02200000
00000000
00000000
00000000
,
00000000
00000000
00000000
00000000
,
00000000
00000000
00000000
00000000
,
00000000
00000000
00000000
03300000
,
00100000
10000000
01000000
00010000
,
00002000
00000000
00020000
00033000
,
00001000
00000010
00000001
00000100
,
00002000
00000000
00020000
00033000
,
01000000
10000000
00100000
10000000
,
00020000
00000000
20000000
30030000
,
00100000
00010000
00001000
00000010
,
00000002
00000000
00002000
00003003
,
00000220
00000000
00000000
00000000
,
00000000
00000000
00000000
00000330
,
00000001
00000010
00000001
00000000
00001000
00000100
00001000
00000000
,
00010000
00001000
00010000
00000000
00100000
00010000
00100000
00000000
,
01000000
10000000
01000000
00000000
10000000
00100000
10000000
00000000
,
10010000
00000000
00000000
00000000
,
10000000
00000000
01000000
00000000
00010000
00001000
00010000
00000000
,
00000020
00001000
00000100
00001030
,
00000001
00000000
00000010
00000000
00000100
00010000
00001000
00000000
,
00200000
00010000
01000000
00310000
,
10000000
00000000
00100000
00000000
01000000
00000000
00001000
00100000
,
00010000
00001000
00000100
00000010
,
00000001
00001000
00000010
00000000
00000100
00000001
00001000
00000000
,
00000110
00000000
00000100
00000100
,
00001000
00010000
00001000
00000000
00010000
00000000
01000000
00000000
,
00100000
01000000
10000000
00000000
00100000
01000000
00010000
00000000
,
10000000
00100000
00010000
00001000
,
00000010
00000100
00010000
00000000
00001000
00000100
00000010
00000000
,
00001000
00000001
00000100
00001000
,
00010000
00000010
00001000
00000000
00000100
00010000
00001000
00000000
,
00010000
00100000
10000000
01000000
,
00100000
01000000
00100000
01000000
00100000
00000000
00010000
00000000
,
10100000
00000000
00000000
00000000
,
00000000
00000000
00000000
00000000
;

//---------------dance-double - ----------------
#NOTEDATA:;
#CHARTNAME:;
#STEPSTYPE:dance-double;
#DESCRIPTION:;
#CHARTSTYLE:;
#DIFFICULTY:Hard;
#METER:12;
#RADARVALUES:0.414155,0.521835,0.082831,0.174865,0.308315,315.000000,306.000000,9.000000,19.000000,0.000000,0.000000,0.000000,0.000000,0.000000,0.414155,0.521835,0.082831,0.174865,0.308315,315.000000,306.000000,9.000000,19.000000,0.000000,0.000000,0.000000,0.000000,0.000000;
#CREDIT:;
#DISPLAYBPM:148.000000;
#NOTES:
00000000
00000000
00000000
00000000
,
00000000
00000000
00000000
00000000
,
00000000
00000000
00000000
00000000
,
00000000
00000000
00000000
00000000
,
00000000
00000000
00000000
00000000
,
00001000
00000000
00000100
00000000
00000010
00000000
00000001
00000100
,
00000010
00000000
00010000
00000000
00001000
00000000
00100000
00010000
,
01000000
00000000
00100000
00000000
10000000
01000000
00010000
01000000
,
20000000
00000000
00000000
30000000
,
00100000
00000000
00000000
00100000
10000000
00000000
00000000
10000000
01000000
00000000
00000000
01000000
00010000
00000000
00000000
00010000
,
00001000
00000000
00000000
00001000
00000100
00000000
00000000
00000100
00000001
00000000
00000000
00000001
00000010
00000000
00000000
00000010
,
00000100
00000000
00000000
00000100
00001000
00000000
00000000
00001000
00000010
00000000
00000000
00000010
00000100
00000000
00000000
00000100
,
00001000
00000000
00000000
00001000
00100000
00000000
00000000
00100000
00001000
00000000
00000000
00001000
01000000
00000000
00000000
01000000
,
00010000
00000000
00000000
00010000
00100000
00000000
00000000
00100000
01000000
00000000
00000000
01000000
10000000
00000000
00000000
10000000
,
00100000
00000000
00000000
00100000
00010000
00000000
00000000
00010000
00000010
00000000
00000000
00000010
00001000
00000000
00000000
00001000
,
00000100
00000000
00000000
00000100
00000010
00000000
00000000
00000010
00000100
00000000
00000000
00000100
00000010
00000000
00000000
00000000
,
00001001
00000000
00000010
00000010
,
00000100
00000010
00000001
00000100
00000010
00010000
00001000
00000000
,
00010000
01000000
00100000
00010000
01000000
00100000
10000000
00000000
,
00010000
01000000
00001000
00010000
00100000
00010000
00001000
00000000
,
00000100
00000010
00001000
00010000
00000010
00001000
00000100
00000000
,
00000010
00000001
00000100
00001000
00000001
00000010
00001000
00000000
,
00000100
00010000
00001000
00100000
00001000
00010000
01000000
00000000
,
10000000
00010000
01000000
10000000
01000000
00010000
10000000
00000000
,
01100000
00000000
00100000
00100000
,
20000000
01000000
00000000
01000000
,
00000000
01000000
00000000
31000000
,
00020000
01000000
00000000
01000000
,
00000000
01000000
00000000
01030000
,
00022000
00000000
00000000
00000000
,
00000000
00000000
00000000
00000000
,
00000000
00000000
00000000
00000000
,
00000000
00000000
00000000
00033000
,
00001000
00000200
00000010
00001300
,
00010000
02000000
00100000
03010000
,
00001000
00000020
00000100
00001030
,
00010000
00200000
01000000
00310000
,
00002000
00000010
00023000
00000010
,
00032000
00000010
00023000
00000010
,
00032000
00000000
00013000
00000000
,
01010000
00000000
00000000
00010000
00100000
01000000
10000000
00000000
,
20020000
00000000
00000000
00000000
,
00000000
00000000
00000000
30030000
,
10000000
01000000
00010000
00000000
00001000
00000010
00000001
00000000
,
00000001
00000100
00000010
00001000
00000100
00010000
00001000
00100000
,
00010000
01000000
00100000
10000000
00010000
00100000
00001000
00010000
,
00011000
00000000
00000000
00000000
,
00001100
00000000
00000000
00001000
00000100
00000000
00000000
00000100
00000010
00000000
00000000
00000010
00000001
00000000
00000000
00000001
,
00000100
00000000
00000000
00000100
00001000
00000000
00000000
00001000
00010000
00000000
00000000
00010000
00100000
00000000
00000000
00100000
,
10000000
00000000
00000000
10000000
01000000
00000000
00000000
01000000
10000000
00000000
00000000
10000000
00100000
00000000
00000000
00100000
,
00010000
00000000
00000000
00010000
00000010
00000000
00000000
00000010
00010000
00000000
00000000
00010000
00000100
00000000
00000000
00000100
,
00000010
00000000
00000000
00000010
00000100
00000000
00000000
00000100
00001000
00000000
00000000
00001000
00000001
00000000
00000000
00000001
,
00000100
00000000
00000000
00000100
00000010
00000000
00000000
00000010
00010000
00000000
00000000
00010000
00001000
00000000
00000000
00001000
,
00100000
00000000
00000000
00100000
01000000
00000000
00000000
01000000
10000000
00000000
00000000
10000000
00010000
00000000
00000000
00010000
,
02000000
00000000
00000000
00000000
00100000
00100000
03100000
00000000
,
10010000
00000000
00000000
10000000
01000000
00000000
00000000
01000000
00100000
00000000
00010000
00000000
01000000
00000000
00000000
00000000
,
00001000
00000000
00000000
00001000
00010000
00000000
00000000
00010000
00000010
00000000
00001000
00000000
00000100
00000000
00000000
00000000
,
00000010
00000000
00000000
00000010
00000001
00000000
00000000
00000001
00001000
00000000
00000010
00000000
00000100
00000000
00000000
00000000
,
00001000
00000000
00000000
00001000
00010000
00000000
00000000
00010000
00100000
00000000
01000000
00000000
00010000
00000000
00000000
00000000
,
00100000
00000000
00000000
00100000
01000000
00000000
00000000
01000000
10000000
00000000
00100000
00000000
01000000
00000000
00100000
00000000
,
00010000
00000000
00000000
00010000
00001000
00000000
00000000
00001000
00000100
00000000
00000010
00000000
00001000
00000000
00000100
00000000
,
00000020
00000001
00000100
00001030
,
00020000
00000010
00001000
00030100
,
01001000
00000000
00000000
00000000
,
00000000
00000000
00000000
00000000
;

//---------------dance-single - ----------------
#NOTEDATA:;
#CHARTNAME:;
#STEPSTYPE:dance-single;
#DESCRIPTION:;
#CHARTSTYLE:;
#DIFFICULTY:Challenge;
#METER:17;
#RADARVALUES:0.795440,1.002255,0.018407,1.306889,0.970963,605.000000,603.000000,2.000000,142.000000,0.000000,0.000000,0.000000,0.000000,0.000000,0.795440,1.002255,0.018407,1.306889,0.970963,605.000000,603.000000,2.000000,142.000000,0.000000,0.000000,0.000000,0.000000,0.000000;
#CREDIT:;
#DISPLAYBPM:148.000000;
#NOTES:
// measure 0
0000
0000
0000
0000
,  // measure 1
0000
0000
0000
0000
,  // measure 2
0000
0000
0000
0000
,  // measure 3
0000
0000
0000
0000
,  // measure 4
0000
0000
0000
0000
,  // measure 5
0001
0010
0000
0001
0100
0000
0001
1000
0000
0001
1000
0000
0100
0000
0010
0000
,  // measure 6
0001
0100
0000
0001
0010
0000
0001
1000
0000
0010
0000
1000
0001
0000
0100
0000
,  // measure 7
0010
1000
0000
0010
0100
0000
0010
1000
0000
0001
1000
0000
0010
0000
0100
0000
,  // measure 8
0001
1000
0000
0001
0010
0000
0001
1000
0000
0010
0100
0010
0100
0000
0001
0000
,  // measure 9
1000
0100
0000
1000
0010
0000
0100
0001
0000
0100
0010
0000
1000
0000
0001
0000
,  // measure 10
0010
0001
0000
0001
0100
0000
0010
0000
1000
0100
0000
0100
0010
0000
0001
0000
,  // measure 11
1000
0001
0000
0100
0001
0000
0010
0100
0000
0010
0001
0000
1000
0000
0010
0000
,  // measure 12
0100
0001
0000
0100
0010
0000
1000
0001
0000
0010
0000
0001
0000
0000
0100
0000
,  // measure 13
0010
1000
0000
0001
0010
0000
0100
0010
0000
0100
1000
0000
0001
0000
0100
0000
,  // measure 14
0010
1000
0000
1000
0001
0000
0010
0000
0100
0010
0000
0010
0001
0000
1000
0000
,  // measure 15
0001
1000
0000
0001
0100
0000
0010
1000
0000
0010
0100
0000
0010
0000
1000
0000
,  // measure 16
0100
0010
0000
0100
1000
0000
0010
1000
0000
0001
0100
0001
0100
0000
0010
0000
,  // measure 17
1000
0001
0000
0001
0010
0000
0100
0010
0000
0010
0001
0000
1000
0000
0100
0000
,  // measure 18
1000
0010
0000
0010
0100
0000
0001
0010
0001
1000
0001
0010
0100
0000
1000
0000
,  // measure 19
0010
0100
0000
0010
0100
0000
0001
0010
0000
0001
1000
0000
0001
0000
0100
0000
,  // measure 20
0001
0010
0000
0010
0100
0000
1000
0010
1000
0001
0000
0100
0000
0000
0010
0000
,  // measure 21
1000
0010
0000
0010
1000
0000
0100
0010
0000
0010
0001
1000
0001
0000
0100
0000
,  // measure 22
0010
1000
0000
0100
1000
0000
0010
1000
0001
0010
0000
0001
0100
0000
0010
0000
,  // measure 23
1000
0010
0100
0010
1000
0000
0001
0100
0010
1000
0001
1000
0010
0000
0100
0000
,  // measure 24
0001
0010
0100
0010
0001
0000
1000
0001
0000
1000
0100
0010
0001
0000
1000
0000
,  // measure 25
0010
0100
0000
0010
0100
0000
0010
0100
0000
0000
0001
0000
0000
0000
1000
0000
,  // measure 26
0000
0001
0000
0010
0000
0001
0100
1000
,  // measure 27
0000
0010
1000
0001
0000
1000
0000
0100
,  // measure 28
0000
0000
0010
0000
0000
0000
0001
0000
0000
0100
0000
0010
0000
0000
1000
0000
,  // measure 29
0001
0100
0000
0001
0100
0000
0001
0100
0000
0000
0010
0000
0000
0000
1000
0000
,  // measure 30
0000
0010
0000
0100
0000
0001
0000
0010
,  // measure 31
0100
1000
0000
0100
1000
0000
0100
1000
0000
0100
1000
0000
0001
0000
0100
0000
,  // measure 32
0000
0000
0000
0000
0002
0023
0230
2300
,  // measure 33
3010
0000
0002
0000
2003
3002
0023
0230
,  // measure 34
0000
0001
0000
0010
0000
1300
0002
2003
,  // measure 35
3010
0100
0002
2003
0000
3200
0320
0032
,  // measure 36
0000
0000
0000
1000
0000
0000
0000
0000
0000
0103
0000
0000
0000
0000
0000
0001
1000
0001
2000
0000
0000
3200
0000
0000
,  // measure 37
0320
0001
0000
1030
0020
0032
2003
3020
,  // measure 38
2030
0000
0000
3200
0000
0000
0320
0000
0000
0032
0000
0000
0000
0000
0000
0103
0010
0100
0020
0000
0000
2030
0000
0000
,  // measure 39
3002
0010
0000
2003
3002
2003
3020
0230
,  // measure 40
0000
1000
0000
0302
0203
0320
2030
3200
,  // measure 41
1300
0010
1000
0010
1000
0010
1000
0010
0100
0001
0100
0001
0100
0001
0100
0001
,  // measure 42
0010
0001
0010
0001
0010
0001
0010
0001
1000
0100
1000
0100
1000
0100
1000
0100
,  // measure 43
1000
0001
1000
0001
1000
0001
1000
0001
0100
0010
0100
0010
0100
0010
0100
0010
,  // measure 44
1000
0001
0100
0010
0001
0100
0001
0100
0010
1000
0001
0010
1000
0010
0100
1000
,  // measure 45
0100
1000
0001
0100
0001
0010
0001
0010
0001
1000
0010
1000
0100
0010
0100
1000
,  // measure 46
0010
0000
0010
0000
1000
0001
1000
0000
0200
0000
0320
0000
0032
0000
0203
0000
,  // measure 47
0310
0000
1000
0000
0200
0000
0310
0001
2000
0000
3020
0000
2030
0000
3002
1003
,  // measure 48
0001
0000
0010
0001
0100
0000
0010
1000
0100
0000
2000
3001
0020
0000
0230
0000
,  // measure 49
1300
0000
0010
1000
0002
0000
0203
0000
0310
0000
1000
0100
0020
0000
0032
0000
,  // measure 50
0103
0000
0000
0000
0000
0000
0010
0000
0000
0100
0000
0000
0001
0000
0000
0000
0000
0000
0010
0000
0000
0100
0000
0000
1000
0000
0000
0000
0000
0000
0001
0000
0100
0000
0001
0000
0200
0000
0000
0000
0000
0000
0320
0000
0000
0000
0000
0000
,  // measure 51
2030
0000
3001
0010
0001
0000
0100
0010
2000
0000
3002
0000
2003
0000
3200
0000
,  // measure 52
0320
0000
0000
0000
0000
0000
0031
0000
0000
1000
0000
0000
0002
0000
0000
0000
0000
0000
0203
0000
0000
0000
0000
0000
0310
0000
0000
0000
0000
0000
1000
0000
0001
0000
1000
0000
0002
0000
0000
0000
0000
0000
0023
0000
0000
0000
0000
0000
,  // measure 53
0230
0000
1300
0001
1000
0000
0020
0000
0230
0000
0302
1003
0200
0000
0320
0000
,  // measure 54
0031
0000
0100
0010
1000
0000
0001
1000
0100
0000
0020
0000
0032
0000
2003
0000
,  // measure 55
3002
0000
0100
0000
0010
0000
1003
0001
0200
0000
0320
0000
2030
0000
3200
1300
,  // measure 56
0001
0000
0000
0000
0000
0000
0020
0000
0000
0000
0000
0000
0230
0000
0000
0000
0000
0000
2300
0000
3002
0000
2003
0000
3002
0000
0000
0000
0000
0000
0203
0000
0000
0310
0000
0000
2000
0000
0000
0000
0000
0000
3002
0000
0000
0013
0000
0000
,  // measure 57
0002
0000
1003
0020
0230
0302
0203
0320
2030
3200
0320
0032
2003
3002
0203
0302
,  // measure 58
2003
3200
2300
3020
2030
3002
0023
0230
0000
1300
0002
0000
2003
3002
0023
0230
,  // measure 59
2300
0000
0000
0000
0000
0000
3010
0000
0000
1000
0000
0000
0001
0000
0000
0000
0000
0000
0010
0000
0000
0001
0000
0000
0200
0000
0000
0000
0000
0000
0302
0000
0023
0000
0032
0000
0023
0000
0000
0000
0000
0000
0230
0000
0000
0000
0000
0000
,  // measure 60
2300
0000
3020
1030
0002
0000
0023
0130
2000
0000
3002
1003
0020
0000
0230
0000
,  // measure 61
0301
0000
0010
0001
1000
0000
0100
0010
0002
0000
2003
3010
2000
0000
3002
0000
,  // measure 62
0013
0001
0010
0100
1000
0010
2000
3001
0100
0010
1000
0100
0010
0000
0011
0000
,  // measure 63
2002
3000
0020
0030
,  // measure 64
0103
0001
0100
0001
0100
0001
0100
0001
0100
0001
0100
0001
0100
0001
0100
0002
,  // measure 65
0000
0000
0000
0000
,  // measure 66
0003
0000
0000
0000
;
