#TITLE:Debtty Daddy;
#ARTIST:sampling masters AYA;
#BANNER:Debtty Daddy-bn.png;
#BACKGROUND:Debtty Daddy-bg.png;
#JACKET:Debtty Daddy-jacket.png;
#MUSIC:Debtty Daddy.ogg;
#SAMPLESTART:30.968;
#SAMPLELENGTH:20;
#DISPLAYBPM:155;
#BPMS:0=155;
#BGCHANGES:;

//---------------dance-single - ----------------
#NOTES:
     dance-single:
     :
     Beginner:
     3:
     :
0000
0000
0000
0000
,
0000
0000
0000
0000
,
0000
0000
0000
0000
,
0000
0000
0000
0000
,
2000
0000
0000
0000
,
0000
0000
3000
0000
,
0010
0000
0000
0000
,
0100
0000
0000
0000
,
0002
0000
0003
0000
,
2000
0000
3000
0000
,
0020
0000
0030
0000
,
0200
0000
0300
0000
,
0002
0000
0003
0000
,
0020
0000
0030
0000
,
0200
0000
0300
0000
,
2000
0000
3000
0000
,
0001
0000
0000
0000
,
0000
0000
0000
0000
,
1000
0000
0000
0000
,
0000
0000
0000
0000
,
0010
0000
0010
0000
,
0010
0000
0000
1000
,
1000
0000
0001
0000
,
0100
0000
0010
0000
,
1000
0000
0001
0000
,
0010
0000
0000
0000
,
0001
0001
0001
0000
,
0100
0000
0010
0000
,
1000
0000
1000
0000
,
0001
0000
0001
0000
,
0010
0000
0010
0000
,
0100
0000
0100
0000
,
2000
0000
0000
0000
,
0000
0000
3000
0000
,
0001
0000
0001
0000
,
0100
0000
0100
0000
,
0002
0000
0000
0000
,
0000
0000
0003
0000
,
1000
0000
0010
0000
,
1000
0000
0010
0000
,
0200
0000
0000
0000
,
0000
0000
0000
0300
,
0000
0000
0000
0000
,
0000
0000
0000
0000
,
0001
0000
0000
0000
,
1000
0000
0000
0000
,
0100
0000
0000
0000
,
0010
0000
0000
0000
,
0001
0000
0001
0000
,
0001
0000
0000
0000
,
1000
0000
1000
0000
,
1000
0000
0001
0000
,
0100
0000
0100
0000
,
0010
0000
0010
0000
,
0100
0000
0001
0000
,
0010
0000
0100
0000
,
1000
0000
1000
0000
,
1000
0000
0010
0000
,
1000
0000
0001
0000
,
0100
0000
0010
0000
,
0100
0000
0001
0000
,
1000
0000
0000
0010
,
0010
0000
0100
0000
,
0001
0001
0001
0000
,
1000
0000
1000
0000
,
0010
0000
0010
0000
,
0100
0000
0100
0000
,
0001
0000
0001
0000
,
0010
0000
0001
0000
,
1000
0000
0010
0000
,
0100
0000
0100
0000
,
0001
0000
1000
0000
,
1000
0000
0100
0000
,
1000
0000
0010
0000
,
0100
0100
0100
0100
,
0100
0000
0001
0000
,
0010
0010
0010
0010
,
0010
0000
0001
0000
,
0100
0000
0000
0000
;

//---------------dance-single - ----------------
#NOTES:
     dance-single:
     :
     Easy:
     7:
     :
0000
0000
0000
0000
,
0000
0000
0000
0000
,
0000
0000
0000
0000
,
0000
0000
0000
0000
,
2000
0010
0000
0010
,
0000
0010
0000
3010
,
0000
0100
0000
0100
,
0000
0001
0000
1000
,
1001
0000
0000
1001
0000
0000
0000
0000
,
0011
0000
0000
0011
0000
0000
0000
0000
,
1100
0000
0000
1100
0000
0000
0000
0000
,
0101
0000
0000
0101
0000
0000
0000
0000
,
1010
0000
0000
1010
0000
0000
0000
0000
,
0110
0000
0000
0110
0000
0000
0000
0000
,
1001
0000
0000
1001
0000
0000
0000
0000
,
0110
0000
0000
0110
0000
0000
0000
0000
,
1000
0010
1000
0001
,
0010
0100
0100
0000
,
0010
0001
0100
0001
,
1000
0010
0010
0000
,
0001
0010
0001
0100
,
0010
1000
0100
1001
,
0120
1000
1000
1000
,
1030
0001
0100
0010
,
1000
0100
0010
0001
,
2000
0000
0002
3003
,
0010
0010
0001
1000
,
0010
1000
0100
0000
,
0011
0000
1000
0001
,
1010
0000
0010
0100
,
0101
0000
0010
0100
,
1000
0010
1000
0001
,
0000
0010
0000
0010
,
0000
0001
0000
1000
,
0000
0001
0000
0001
,
0000
0010
0000
0001
,
0000
0100
0000
0010
,
0000
1000
0000
1000
,
0000
0001
0000
1000
,
0010
0010
0100
0100
,
1001
0000
0000
0000
,
0000
0000
0000
0000
,
0000
0000
0000
0000
,
0000
0000
0000
0000
,
0010
0000
0000
0000
0000
2000
0000
0000
,
3001
0000
0000
0000
0000
0020
0000
0000
,
0031
0000
0000
0000
0000
0200
0000
0000
,
0301
0000
0000
0000
0000
2000
0000
0000
,
3010
1000
0100
0001
,
0010
0100
1000
0000
,
0001
0000
1000
0000
,
0010
0010
1000
0001
,
0010
0001
0100
0010
,
1000
0100
1000
0001
,
0010
0001
0100
1000
,
0010
1000
0100
0010
,
1000
0100
0001
1000
,
0001
1000
0010
0001
,
0100
0010
0100
0001
,
0010
0100
1000
0001
,
0110
0000
0001
1000
,
0001
0100
1000
1001
,
0120
1000
1000
1000
,
1030
0100
0001
0000
,
0011
0000
1000
0001
,
1100
0000
0010
1000
,
0101
0000
0010
0100
,
1001
0110
1001
0110
,
0001
0010
0001
0100
,
0010
1000
0100
0010
,
0001
0001
1000
1000
,
0001
0010
0001
0100
,
0010
0010
1000
1000
,
0100
1000
0001
0001
,
0010
0010
0010
0010
,
0001
0100
1000
0010
,
1000
1000
1000
1000
,
0001
1000
0100
0001
,
0200
0000
0000
0000
,
0000
0000
0000
0000
,
0300
0000
0000
0000
;

//---------------dance-single - ----------------
#NOTES:
     dance-single:
     :
     Medium:
     10:
     :
0000
0000
0000
0000
,
0000
0000
0000
0000
,
0000
0000
0000
0000
,
0000
0000
0000
0000
,
2000
0002
0000
0000
0000
0000
0000
0000
,
0000
0000
0000
3003
,
0010
0001
0010
0100
1000
0001
0100
0000
,
1001
0110
1001
0110
,
0001
0000
0000
1000
0000
0000
0100
0000
0000
0000
0000
0000
0000
0000
0000
0000
,
1000
0000
0000
0010
0000
0000
1000
0000
0000
0000
0001
0000
0100
0000
0000
0000
,
0001
0000
0000
0010
0000
0000
0100
0000
0000
0000
0000
0000
0000
0000
0000
0000
,
1000
0000
0000
0100
0000
0000
0010
0000
0000
0000
0010
0000
0001
0000
0000
0000
,
0100
0000
0000
0010
0000
0000
1000
0000
0000
0000
0000
0000
0000
0000
0000
0000
,
1000
0000
0000
0010
0000
0000
0001
0000
0000
0000
0100
0000
0010
0000
0000
0000
,
0100
0000
0000
0001
0000
0000
0010
0000
0000
0000
0000
0000
0000
0000
0000
0000
,
0001
0000
0000
1000
0000
0000
0001
0000
0000
0000
0100
0000
0010
0000
0000
0000
,
1001
0000
0100
0000
0001
0010
1000
0000
,
0100
1000
0001
0000
0010
0001
0100
0000
,
0010
1000
0100
1000
0010
0100
0001
0000
,
0010
0001
0100
0000
0001
0010
1000
0000
,
0110
0001
1000
0001
,
1000
0000
0010
0000
0100
0001
1000
0001
,
1000
1000
0001
0001
,
0010
0000
0000
0000
0001
0000
0000
0000
1000
0000
0000
0001
0100
0000
0000
0000
,
0020
2030
3200
0302
,
0103
0000
0000
1000
0000
0000
0001
0000
1000
0000
0000
0000
0000
0000
0000
0000
,
0020
0000
0230
0000
0301
0010
0001
0010
,
0000
0100
0000
2000
0002
0000
3003
0000
,
0010
0001
0000
1000
0001
0000
0100
0000
,
0010
1000
0000
0100
1000
0000
0001
0000
,
0010
0001
0000
1000
0010
0000
0100
0000
,
0101
1100
0101
1100
,
0001
2000
0010
0000
0000
0000
0010
0000
,
0000
0000
0000
0000
0010
0000
0000
0000
0000
0000
0000
0010
0000
0000
3010
0000
,
0100
0001
0010
0000
0001
0100
1000
0000
,
0010
1000
0100
0000
0010
0001
1000
0000
,
0001
0200
0010
0000
0000
0000
0010
0000
,
0000
0000
0000
0000
0010
0000
0000
0000
0000
0000
0000
0010
0000
0000
0310
0000
,
1000
0001
1000
0000
0010
0100
0001
0000
,
0011
1100
0011
1100
,
0010
0000
0000
0000
,
0000
0000
0000
0000
,
0000
0000
0000
0000
,
0000
0000
0000
0000
,
0002
0000
0000
1000
0000
0200
0303
0000
,
2000
0000
0000
0010
0000
0200
3300
0000
,
0020
0000
0000
0001
0000
2000
3030
0000
,
0200
0000
0000
0001
0000
0020
0330
0000
,
1000
0000
0010
0100
0001
0000
1000
0000
,
0100
0000
0010
0000
0001
1000
0001
0000
,
0100
0001
1000
0000
0010
1000
0100
0000
,
0010
0000
0001
0000
1000
0001
0100
0000
,
0010
1000
0100
0000
0010
0001
0100
0000
,
1000
0001
1000
0000
0100
0010
0001
0000
,
0100
0001
0010
0000
0001
0010
0001
0000
,
1000
0100
0010
0000
0001
1000
0001
0000
,
0011
0000
1100
0000
0001
0100
1000
0000
,
0010
1000
0001
0000
1000
0100
0010
0000
,
0001
1000
0001
0000
0100
0010
1000
0000
,
1100
0101
1100
0101
,
1001
0000
0010
0000
1000
0100
0001
0000
,
0010
0001
0000
1000
0000
0010
0100
0010
,
1000
1000
0001
0001
,
1000
0100
0000
0010
0001
0000
0000
0000
,
0100
0010
0000
1000
0001
0000
0010
0000
,
0001
0010
0000
0100
1000
0000
0010
0000
,
1000
0001
0000
1000
0100
0000
0010
0000
,
1001
0000
0000
0000
0110
0000
0000
0000
1001
0000
0000
0001
0100
0000
0000
0000
,
0010
0000
1000
0000
0100
1000
0001
1000
,
0000
0010
0000
0100
0001
1000
0001
0010
,
0100
0000
1000
0000
0010
0100
0001
0000
,
0000
1000
0010
0000
1000
0100
0001
0000
,
0011
0000
0101
0000
0010
1000
0001
1000
,
0000
0010
0100
0010
1000
0000
0001
0000
,
0011
0101
1010
1100
,
0001
0010
1000
0000
0100
0010
0001
0000
,
1001
0110
1001
0110
,
2000
3200
0320
0032
,
0023
0200
0000
0000
0000
0000
0000
0000
,
0000
0000
0000
0000
,
0330
0000
0000
0000
;

//---------------dance-single - ----------------
#NOTES:
     dance-single:
     :
     Hard:
     12:
     :
0000
0000
0000
0000
,
0000
0000
0000
0000
,
0000
0000
0000
0000
,
0000
0000
0000
0000
,
1000
0100
1000
0010
1000
0100
0001
0000
,
0010
0001
0010
0100
0010
0001
1000
0000
,
0001
0010
0100
0010
0001
1000
0010
0000
,
1100
0101
0011
1010
,
1001
0000
0000
0101
0000
0000
1001
0000
0000
0000
0010
0000
1000
0000
0100
0000
,
0110
0000
0000
0011
0000
0000
0110
0000
0000
0000
1000
0000
0001
0000
0000
0000
,
0011
0000
0000
1100
0000
0000
0011
0000
0000
0000
1000
0000
0001
0000
0100
0000
,
0110
0000
0000
1001
0000
0000
0110
0000
0000
0000
0100
0000
0010
0000
0000
0000
,
1010
0000
0000
1100
0000
0000
1001
0000
0000
0000
0010
0000
0001
0000
0100
0000
,
0101
0000
0000
0011
0000
0000
1100
0000
0000
0000
0010
0000
1000
0000
0000
0000
,
1001
0000
0000
0011
0000
0000
1100
0000
0000
0000
0010
0000
1000
0000
0100
0000
,
0110
0000
0000
0011
0000
0000
0101
0000
0000
0000
1000
0000
0001
0000
0000
0000
,
0010
0001
0010
0100
1000
0001
0100
0000
,
0010
1000
0010
1000
0100
0010
0001
0000
,
1000
0001
0010
0001
0010
0100
1000
0000
,
0010
1000
0100
1000
0001
0100
0010
0000
,
1000
0000
0100
1000
0010
0100
0001
0010
,
0100
0000
1000
0001
1000
0010
0100
0010
,
2000
3002
2003
3002
,
0013
0000
0001
0000
0100
0000
0010
0000
1000
0000
0000
0001
0100
0000
0000
0000
,
0120
2030
3200
0302
,
0103
1000
0010
1000
0001
0100
0010
0000
,
2000
0000
3002
0000
0013
0001
0010
0100
,
1000
0000
0010
0000
1000
0000
0100
0000
0010
0000
0000
0001
1000
0000
0100
0000
,
0010
0000
0010
0000
0000
0000
0001
0000
0100
0000
0000
0010
0000
0000
1000
0000
,
0100
0000
0100
0000
0000
0000
0010
0000
0001
0000
0000
1000
0000
0000
0001
0000
,
1000
0000
1000
0000
0000
0000
0001
0000
0010
0000
0000
0100
0000
0000
0100
0000
,
1000
0000
0010
0000
1000
0000
0001
0000
0010
0000
0100
0000
1000
0000
0001
0100
,
0001
0000
0000
1000
0010
0000
0100
0000
0001
0000
0000
0000
1000
0000
0000
0000
,
0100
0000
0000
0010
0001
0000
0100
0000
0001
0000
0000
1000
0000
0000
1000
0000
,
0010
1000
0100
1000
0001
0100
0001
0000
,
0010
0100
0010
0001
1000
0010
0100
0000
,
1001
0000
0000
0010
1000
0000
0001
0000
0100
0000
0000
0010
0100
0000
0000
0000
,
0001
0000
0000
0010
0001
0000
0100
0000
0010
0000
0000
1000
0000
0000
1000
0000
,
0010
1000
0001
0010
0001
0100
1000
0000
,
1010
0101
1100
0011
,
2000
0000
0000
0000
,
0000
0000
0000
3000
,
0000
0000
0000
0000
,
0000
0000
0000
0000
,
1001
0000
0100
0101
0000
1100
0000
0000
,
1001
0000
0010
1010
0000
0011
0000
0000
,
0110
0000
0001
0101
0000
1010
0000
0000
,
0110
0000
1000
1100
0000
0011
0000
0000
,
1000
0001
0010
0001
0010
0100
1000
0000
,
0010
1000
0100
1000
0001
1000
0100
0000
,
0010
0001
0010
0100
1000
0001
0100
0000
,
0010
0000
1000
0000
0100
0000
0000
0010
0001
0000
1000
0000
0001
0000
0000
0000
,
1000
0000
0010
0000
0100
0000
0000
0001
0000
0000
0010
0000
0001
0000
0000
1000
,
0000
0000
0010
0000
1000
0000
0000
0100
0000
0000
1000
0000
0001
0000
0000
0001
,
0000
0000
0010
0000
0001
0000
0000
0100
0000
0000
0010
0000
0100
0000
0000
0001
,
0000
0000
1000
0000
0100
0000
0000
1000
0000
0000
0010
0000
0100
0000
0001
0000
,
0010
0000
0001
0000
1000
0000
0000
0010
0000
0000
1000
0000
0100
0000
0000
0001
,
0000
0000
0010
0000
0001
0000
0000
1000
0000
0000
0001
0000
0100
0000
0000
0000
,
0010
1000
0200
0000
0310
0001
0100
0000
,
1001
1010
0101
0011
,
1001
0000
0010
1000
0010
0100
0001
0000
,
0010
0000
0000
0001
0000
0000
1000
0000
0001
0000
0100
0000
0010
0000
0100
0000
,
0101
1100
0101
1100
,
0001
0000
0010
0000
0001
0000
0100
0000
1000
0000
0000
0010
0100
0000
0001
0000
,
1000
0000
1000
0000
0000
0000
0001
0000
1000
0000
0000
0010
0000
0000
0100
0000
,
0010
0010
0000
1000
0100
0010
0001
0010
,
0110
0000
0000
0000
1001
0000
0000
0000
1000
0000
0000
0001
0000
0000
0100
0000
,
1001
0000
0000
0000
1010
0000
0000
0000
1100
0000
0000
0001
1000
0000
0010
0000
,
0100
0000
0001
0010
0001
0100
0010
1000
,
0000
0000
0100
0000
0000
0000
1000
0000
0001
0100
0001
0000
0010
0000
0100
0000
,
1000
0000
0000
1000
0000
0000
0010
0000
1000
0000
0001
0000
0100
0000
0010
0000
,
0000
0000
1000
0000
0001
0000
0010
0000
0100
1000
0100
1000
0100
0000
0010
0000
,
0001
0000
0000
0001
0000
0000
1000
0000
0010
0000
1000
0000
0100
0000
0010
0000
,
0000
0000
0001
0000
0010
0000
0100
0000
1000
0001
1000
0000
0010
0000
0100
0000
,
0001
0001
1000
1000
0001
0001
1000
1000
,
0010
1000
0010
0000
0100
0000
0001
0000
0010
0000
0100
1000
0100
0000
0000
0000
,
0010
0010
0001
0001
1000
1000
0100
0100
,
2000
3020
0230
0302
,
0023
0200
0000
0000
0000
0000
0000
0000
,
0000
0000
0000
0000
,
0330
0000
0000
0000
;

//---------------dance-single - ----------------
#NOTES:
     dance-single:
     :
     Challenge:
     16:
     :
0000
0000
0000
0000
,
0000
0000
0000
0000
,
0000
0000
0000
0000
,
0000
0000
0000
0000
,
1000
0000
0001
0000
0100
0000
0010
0000
1000
0100
1000
0100
1000
0100
1000
0000
,
0010
0000
0100
0000
0001
0000
1000
0000
0001
0010
0001
0010
0001
0000
0000
0000
,
0010
0000
0100
0000
1000
0000
0010
0000
0100
0001
0100
0001
0100
0001
0100
0000
,
0010
0000
1000
0000
0010
0000
0100
0000
0001
1000
0001
1000
0001
0000
0000
0000
,
0011
0000
0000
0110
0000
0000
1100
0000
0000
0000
0001
0000
0100
0010
1000
0000
,
1001
0000
0000
1010
0000
0000
1100
0000
0000
0000
0001
1000
0100
0000
0000
0000
,
0011
0000
0000
1001
0000
0000
1010
0000
0000
0000
0100
0001
0010
0000
0100
0000
,
1100
0000
0000
0101
0000
0000
0110
0000
0000
0000
1000
0001
0010
0000
0000
0000
,
0101
0000
0000
0011
0000
0000
1100
0000
0000
0000
0010
0000
1000
0001
0100
0000
,
0110
0000
0000
1010
0000
0000
1100
0000
0000
0000
0010
0000
0001
0000
0100
0000
,
1001
0000
0000
0110
0000
0000
0101
0000
0000
0000
1000
0000
0100
0000
0001
0000
,
1010
0000
0000
1001
0000
0000
1100
0000
0000
0000
0010
0001
0100
0000
0010
1000
,
0100
0000
0010
0001
1000
0000
0010
0000
0100
0001
0100
0010
0100
0001
1000
0000
,
0010
0000
1000
0100
1000
0000
0001
0100
0001
0000
0010
0100
1000
0000
0000
0000
,
0001
0000
0010
0100
0010
0001
1000
0000
0010
1000
0010
0100
0010
1000
0001
0000
,
1000
0000
0100
0010
0001
0010
0100
1000
0010
0100
0010
1000
0001
0000
0000
0000
,
0110
0000
0000
0000
0001
1000
0001
0000
1000
0100
1000
0100
0000
0010
0001
0000
,
0101
0000
0000
0000
1000
0001
1000
0000
0010
0000
0100
0001
1000
0001
1000
0001
,
0200
0000
0000
0000
0310
1000
0001
0000
0010
0100
1000
0010
0000
1000
0001
0000
,
0100
0000
0010
0000
0100
0001
1000
0000
0010
0100
0010
1000
0001
0000
0100
0000
,
1010
0000
0000
0000
0001
0000
0000
0000
0001
0010
0100
1000
0001
0000
0000
0000
,
0100
0001
0010
0001
0100
0000
0010
0000
1000
0100
0010
0000
0001
0000
1000
0000
,
0020
1000
0000
0000
0230
1000
0000
0000
0301
0100
0001
0000
1000
0000
0100
0000
,
0010
0001
1000
0000
0010
0000
0100
0000
0001
1000
0001
1000
0010
0000
0100
0000
,
0001
0000
0010
0100
0000
0100
1000
0000
0010
0000
0000
1000
0000
0000
0001
0000
,
1000
0000
0100
0010
0000
0010
0001
0000
0100
0000
0000
0010
0000
0000
1000
0000
,
0001
0000
0010
0001
0000
0001
1000
0000
0010
0000
0000
0100
0000
0000
0001
1000
,
0001
0000
0010
0000
0001
0000
0100
0000
0010
1000
0010
0100
0001
0010
0100
1000
,
0001
0000
0100
0010
1000
0000
0001
0000
1000
0100
0000
0010
0001
0000
0000
0000
,
0100
0000
0001
0010
0001
0000
0100
0000
0010
1000
0010
1000
0000
0000
0001
0000
,
0010
0000
0100
1000
0100
1000
0001
0000
0100
0010
0100
0001
1000
0001
0010
0000
,
0100
0000
0010
0001
0010
0100
1000
0000
0010
1000
0001
1000
0001
0100
0010
0000
,
1000
0000
0100
0010
0001
0000
1000
0000
0001
0100
0000
0010
1000
0000
0000
0000
,
0001
0000
1000
0100
1000
0000
0010
0000
0100
0001
0100
0001
0000
0000
1000
0000
,
0010
1000
0001
0010
0100
0000
1000
0000
0001
0010
0001
0010
0100
1000
0001
0000
,
1000
0010
0100
0010
1000
0000
0001
0000
1000
0010
1000
0010
0100
0001
0100
0001
,
0020
0000
0000
0000
,
0000
0000
0000
0030
,
0000
0000
0000
0000
,
0000
0000
0000
0000
,
1000
0010
1000
0000
0100
0000
0010
0000
0001
0000
0200
0000
0310
0000
0000
0000
,
1000
0001
1000
0000
0010
0000
0100
0000
0001
0000
0020
0000
0130
0000
0000
0000
,
0010
0001
0010
0000
0100
0000
1000
0000
0010
0000
2000
0000
3001
0000
0000
0000
,
0100
0010
0100
0000
0001
0000
1000
0000
0100
0000
0020
0000
0031
0000
0000
0000
,
0100
0001
0010
0100
1000
0010
1000
0001
,
0100
0000
0010
0000
0100
0000
0001
0000
0010
0000
0100
0000
1000
0001
0100
0001
,
1000
0000
0010
0000
0100
0000
0001
0000
0010
0000
0100
0000
1000
0001
1000
0001
,
0100
0000
0010
0000
1000
0000
0001
0010
0001
0000
0100
0000
1000
0000
0000
0000
,
0010
1000
0100
0000
1000
0001
0000
0010
0000
0001
0100
0000
0010
1000
0000
0001
,
0000
0010
0001
0000
0100
0001
0000
1000
0000
0100
0010
0000
0001
1000
0000
0100
,
0000
1000
0010
0000
0100
0001
0000
0010
0000
0100
0010
0000
0100
1000
0000
0001
,
0000
1000
0001
0000
1000
0010
0000
0100
0000
0001
0010
0000
0001
0100
0000
0010
,
1000
0100
1000
0000
0001
0100
0010
1000
0000
0100
0010
0000
0001
0010
0001
1000
,
0000
0010
1000
0000
0010
0100
0001
1000
0000
1000
0100
0000
0010
0100
0010
0001
,
0000
0001
1000
0000
0010
1000
0001
1000
0000
0100
0010
0000
0001
0100
0010
1000
,
0001
1000
0010
0000
1000
0001
0000
0001
0010
0100
1000
0000
0010
0100
0000
0100
,
0001
0010
1000
0010
1000
0100
0001
0000
,
0010
0001
0010
0100
1000
0000
0001
0000
0100
0000
0010
1000
0010
1000
0010
1000
,
0001
0100
0010
0100
1000
0100
0001
0010
,
1000
0000
0010
0000
0001
0000
0100
0000
0010
1000
0010
0000
0100
0000
0001
0000
,
0010
0000
0001
1000
0000
0010
1000
0000
0100
0000
0000
0010
0000
0000
0001
0000
,
1000
0000
0010
1000
0000
0001
0100
0000
0010
0000
1000
0001
0010
0100
0010
0001
,
1000
0000
0010
0100
0000
0010
1000
0000
0001
0000
0000
0010
0000
0000
0100
0000
,
1000
0010
1000
0000
0001
0010
0001
0000
0100
0010
1000
0001
0010
0100
0010
0001
,
1000
0000
0010
0100
0000
0100
0001
0000
0010
0000
0001
0000
0100
0000
1000
0000
,
0000
0000
1100
0000
0000
0000
0001
0000
0010
0001
1000
0000
0010
0000
0100
0000
,
0001
0000
0010
0100
0000
0100
1000
0000
0010
0000
1000
0000
0001
0000
0100
0000
,
0000
0000
0001
0010
1000
0000
0100
0000
0010
0001
0010
0100
1000
0000
0001
0000
,
1000
0000
0010
1000
0000
0001
0010
0000
0100
0000
0100
0000
1000
0000
0001
0000
,
0000
0000
0010
0000
0010
0000
0010
0000
0001
0100
0010
0000
1000
0000
0001
0000
,
1000
1000
0010
0010
0001
0001
0100
0100
,
0001
0010
0100
0000
1000
0000
0010
0000
1000
0001
0010
0100
1000
0000
0001
0000
,
0011
0011
1100
1100
0101
0101
1010
1010
,
1000
0001
1000
0000
0010
0100
0001
0000
0010
0100
1000
0000
0001
0100
0010
0000
,
2000
0200
0000
0000
0000
0000
0000
0000
,
0000
0000
0000
0000
,
3300
0000
0000
0000
;
