#TITLE:Dancing on My Own;
#SUBTITLE:;
#ARTIST:Robyn;
#TITLETRANSLIT:;
#SUBTITLETRANSLIT:;
#ARTISTTRANSLIT:;
#GENRE:;
#CREDIT:;
#BANNER:Dancing on My Own-bn.png;
#BACKGROUND:Dancing on My Own-bg.png;
#LYRICSPATH:;
#CDTITLE:;
#MUSIC:Dancing on My Own.ogg;
#OFFSET:0.000000;
#SAMPLESTART:57.436001;
#SAMPLELENGTH:20.000000;
#SELECTABLE:YES;
#DISPLAYBPM:117.000000;
#BPMS:0.000000=117.000000
;
#STOPS:
;
#BGCHANGES:;
#KEYSOUNDS:;
#ATTACKS:;

//---------------dance-single - ----------------
#NOTES:
     dance-single:
     :
     Hard:
     10:
     0.378680,0.412753,0.335154,0.106640,0.057128,348.000000,304.000000,44.000000,14.000000,0.000000,0.000000,0.378680,0.412753,0.335154,0.106640,0.057128,348.000000,304.000000,44.000000,14.000000,0.000000,0.000000:
0000
0000
0000
0000
,
0000
0000
0000
0000
,
0000
0000
0000
0000
,
0000
0000
0000
0000
,
1000
1100
1000
1100
,
0001
0101
0001
0101
,
0010
1001
0010
1001
,
0100
1010
0100
0011
,
0100
0000
1001
0000
0100
0001
0100
0010
,
0000
1000
0100
0010
0001
0000
0101
0000
,
0010
1010
0010
1010
,
0001
0101
1000
1100
,
0010
0000
1001
0000
0100
0001
0000
0010
,
0000
0100
1000
0010
1000
0001
0100
0000
,
0010
1001
0010
1001
,
1000
0110
0001
0110
,
1000
0000
0000
0000
0100
0000
0010
0000
0001
0000
0000
1000
0000
0000
0010
0000
,
0100
0000
0001
0010
1000
0000
1001
0000
,
0100
0000
0001
0000
0000
0010
0000
0100
0000
0000
1000
0000
0000
0001
0000
0000
,
0100
0110
0010
0110
,
1000
0000
1010
0001
1000
0001
0010
0100
,
0000
1000
1000
0000
0001
0100
0101
0000
,
0010
0000
1000
0000
0000
0001
0000
1000
0000
0000
0100
0000
0000
0010
0000
0000
,
0001
0011
1000
1100
,
0010
0000
0110
0000
0100
0001
0000
1000
,
0000
0001
0010
0000
0002
0000
2003
0000
,
3010
0000
0110
0100
0001
0100
0010
1000
,
0000
0001
0100
0000
0010
0010
0010
0000
,
1000
0000
1001
0000
0001
0010
0001
0100
,
0010
1000
0100
0000
1000
0001
1000
0010
,
0100
0001
1000
0000
1020
0000
0130
0001
,
0010
0000
0000
0000
0011
0000
0000
0000
1000
0000
0010
0100
0000
0010
0100
0000
,
0001
0000
0010
0001
0100
0010
1000
0001
,
0000
1000
0100
0000
0010
0001
1000
0001
,
0100
0010
1000
0000
0201
0000
0301
1000
,
0100
0000
0000
0000
0110
0000
0000
0000
0001
0000
1000
0010
0000
1000
0010
0000
,
0100
0000
0100
0001
1000
0001
0010
0100
,
0000
1000
0000
0001
1000
0010
0100
0001
,
0020
0000
0031
0100
0020
0000
1030
0001
,
0200
0000
0310
0000
1002
0000
0103
0010
,
1000
0001
1100
0101
,
1000
0100
0001
0000
0010
0000
0001
0100
,
1000
0001
0011
1100
,
0010
1000
0100
0000
0010
0000
0001
1000
,
1001
0000
0100
0000
0020
0000
1030
0001
,
0100
0000
0110
0000
0002
0000
1003
0100
,
0010
0000
0000
0000
0011
0000
0000
0000
0001
0000
0100
0010
0000
0100
0010
0000
,
1000
0000
1100
0000
0010
0100
0010
1000
,
0001
0000
1010
0000
0200
0000
0310
1000
,
0001
0000
0011
0000
2000
0000
3001
0100
,
0010
0000
0000
0000
1000
0000
0000
0000
0100
0000
0010
0001
0000
0010
0001
0000
,
0100
0010
0100
0001
,
1000
0000
0000
0010
0010
0000
0100
0001
,
0000
0000
0000
0010
0010
0000
0100
1000
,
0000
0000
0000
0001
1000
0000
0001
0100
,
0000
0000
0000
0010
1000
0010
0100
0000
,
0001
0000
0000
1000
0100
0010
0000
0001
,
0000
1000
0000
0000
0010
0000
1000
0001
,
0000
0000
0000
0000
0100
0010
0000
0010
,
0000
0000
0000
1000
0100
1000
0001
0000
,
0000
0000
0000
0000
0010
0001
0010
0100
,
0000
0100
0000
0000
1000
0010
1000
0001
,
0000
0001
0000
0000
0100
0000
0002
2000
,
0000
0000
0000
3003
;

//---------------dance-single - ----------------
#NOTES:
     dance-single:
     :
     Medium:
     8:
     0.267688,0.339915,0.137108,0.076171,0.000000,246.000000,228.000000,18.000000,10.000000,0.000000,0.000000,0.267688,0.339915,0.137108,0.076171,0.000000,246.000000,228.000000,18.000000,10.000000,0.000000,0.000000:
0000
0000
0000
0000
,
0000
0000
0000
0000
,
0000
0000
0000
0000
,
0000
0000
0000
0000
,
1000
0010
1000
0010
,
0100
0001
0100
0001
,
0010
0001
0010
0001
,
1000
0100
1000
0100
,
1000
0010
1000
0001
,
1000
0100
0010
0001
,
0100
0010
0100
0010
,
1000
0001
1000
0001
,
0010
0001
0010
0100
,
1000
0000
0001
0000
1000
0010
1000
0000
,
0100
0001
0010
0001
,
0010
0100
1000
0010
,
1000
0001
1000
0100
,
0010
0100
1000
0001
,
1000
0010
0100
0001
,
1000
0100
0010
0001
,
0100
0010
0100
0001
,
1000
0000
0001
0000
0010
0100
0010
0000
,
0001
1000
0001
0100
,
0010
0100
0001
1000
,
0100
0010
0001
1000
,
0001
0010
0110
1001
,
0100
0010
1000
0001
,
0010
0000
0001
0000
1000
0100
1000
0000
,
0010
0000
0110
0000
0100
0001
0100
0000
,
0010
0000
1010
0000
1000
0001
1000
0000
,
0100
0000
0110
0000
0002
0000
1003
0100
,
0000
0011
0000
1100
,
0001
0000
1000
0000
0001
0100
0001
0000
,
0010
0000
1001
0000
0100
0010
0100
0000
,
0010
0000
1010
0000
2000
0000
3001
0100
,
0000
1010
0000
0101
,
1000
0000
1100
0000
0010
0001
0010
0000
,
0001
0000
0101
0000
0001
1000
0001
0000
,
0020
0000
0031
0100
0020
0000
1030
0001
,
0200
0000
0300
0000
1001
0000
0100
0010
,
0000
0000
1010
0101
,
1000
0000
0001
0000
1000
0000
0010
0100
,
0000
0000
0101
1100
,
0010
0000
0001
0000
0100
0000
0010
1000
,
0001
0000
0000
0000
2000
0000
3100
0010
,
0000
0000
0000
0000
0002
0000
1003
0001
,
0000
0100
0001
0010
,
0001
1000
0010
0100
,
0010
0000
0000
0000
2000
0000
3001
1000
,
0000
0000
0000
0000
0200
0000
0310
0001
,
0000
0100
0010
0100
,
0001
1000
0001
0010
,
0100
0000
0000
0000
1000
0000
0001
0100
,
0000
0000
0000
0000
0010
0000
1000
0100
,
0000
0000
0000
0000
0010
0000
0001
0100
,
0000
0000
0000
0000
0001
1000
0001
0000
,
0000
0000
0000
0000
0010
0000
0000
0001
,
0000
0100
0000
0000
0010
0000
0000
1000
,
0000
0000
0000
0000
0100
0010
0000
0001
,
0000
0000
0000
0000
1000
0001
1000
0000
,
0000
0000
0000
0000
0010
0000
0000
0100
,
0000
0001
0000
0000
1000
0000
0000
0100
,
0000
0010
0000
0000
0001
0000
0001
2000
,
0000
0000
0000
3000
;

//---------------dance-single - ----------------
#NOTES:
     dance-single:
     :
     Easy:
     5:
     0.164312,0.218516,0.045703,0.015234,0.000000,151.000000,145.000000,6.000000,2.000000,0.000000,0.000000,0.164312,0.218516,0.045703,0.015234,0.000000,151.000000,145.000000,6.000000,2.000000,0.000000,0.000000:
0000
0000
0000
0000
,
0000
0000
0000
0000
,
0000
0000
0000
0000
,
0000
0000
0000
0000
,
1000
0000
1000
0000
,
0001
0000
0001
0000
,
0100
0000
0100
0000
,
0010
0000
0010
0000
,
1000
0000
0001
1000
,
0001
0000
0100
0010
,
1000
0000
1000
0000
,
0001
0000
0001
0000
,
1000
0000
0001
0010
,
0001
0000
0100
0010
,
1000
0000
0001
0000
,
1000
0000
0100
0000
,
0010
0000
0001
0100
,
0001
0000
1000
0010
,
0100
0000
0100
0000
,
0010
0000
0010
0000
,
0100
0000
0001
0010
,
0001
0000
1000
1000
,
0001
0000
0010
0000
,
0001
0000
0100
0000
,
0010
0000
1000
0100
,
1000
0000
0010
0100
,
0010
0000
1000
0001
,
1000
0000
0100
0010
,
0001
0000
0100
0010
,
0100
0000
0010
1000
,
0001
0000
0011
1100
,
0000
0000
0000
0000
,
0010
0000
1000
0001
,
1000
0000
0100
0010
,
0001
0000
0101
1010
,
0000
0000
0000
0000
,
0010
0000
1000
0100
,
1000
0000
0001
0100
,
0010
0000
0010
0000
,
0100
0000
1001
0110
,
0000
0000
1000
1000
,
0001
0001
1000
0100
,
0010
0000
0100
0100
,
0010
0010
0001
1000
,
0010
0000
1000
0001
,
1000
0000
0010
0100
,
0010
0000
1000
0000
,
1000
0000
0001
0000
,
0100
0000
0001
0010
,
0001
0000
1000
0001
,
0100
0000
0100
0000
,
0010
0000
0010
0000
,
1000
0000
0001
0000
,
0010
0000
0100
0000
,
1000
0000
0001
0000
,
1000
0000
0100
0000
,
0010
0000
0001
0000
,
0100
0000
0001
0000
,
1000
0000
0001
0000
,
0010
0000
0001
1000
,
0000
0000
0010
0000
,
0010
0000
1000
0000
,
1000
0000
0002
2000
,
0000
0000
0000
3003
;

//---------------dance-single - ----------------
#NOTES:
     dance-single:
     :
     Beginner:
     1:
     0.073995,0.119494,0.000000,0.000000,0.000000,68.000000,68.000000,0.000000,0.000000,0.000000,0.000000,0.073995,0.119494,0.000000,0.000000,0.000000,68.000000,68.000000,0.000000,0.000000,0.000000,0.000000:
// measure 0
0000
0000
0000
0000
,  // measure 1
0000
0000
0000
0000
,  // measure 2
0000
0000
0000
0000
,  // measure 3
0000
0000
0000
0000
,  // measure 4
1000
0000
0000
0000
,  // measure 5
0010
0000
0000
0000
,  // measure 6
0100
0000
0000
0000
,  // measure 7
0001
0000
0000
0000
,  // measure 8
0000
0000
0010
0000
,  // measure 9
0001
0000
0100
0000
,  // measure 10
0010
0000
0000
0000
,  // measure 11
0000
0000
0000
0000
,  // measure 12
0000
0000
1000
0000
,  // measure 13
0001
0000
1000
0000
,  // measure 14
0100
0000
0000
0000
,  // measure 15
0000
0000
0000
0000
,  // measure 16
0000
0000
0010
0000
,  // measure 17
0001
0000
1000
0000
,  // measure 18
0001
0000
0000
0000
,  // measure 19
0000
0000
0000
0000
,  // measure 20
0000
0000
0100
0000
,  // measure 21
0010
0000
1000
0000
,  // measure 22
0100
0000
0000
0000
,  // measure 23
0000
0000
0000
0000
,  // measure 24
0000
0000
1000
0000
,  // measure 25
1000
0000
0001
0000
,  // measure 26
0000
0000
0010
0000
,  // measure 27
0010
0000
0100
0000
,  // measure 28
0000
0000
1000
0000
,  // measure 29
0010
0000
1000
0000
,  // measure 30
0001
0000
0100
0100
,  // measure 31
0000
0000
0000
0000
,  // measure 32
0000
0000
0001
0000
,  // measure 33
0010
0000
0001
0000
,  // measure 34
1000
0000
0010
0010
,  // measure 35
0000
0000
0000
0000
,  // measure 36
0000
0000
0100
0000
,  // measure 37
0010
0000
1000
0000
,  // measure 38
0010
0000
0010
0000
,  // measure 39
0100
0000
0001
0000
,  // measure 40
1000
0000
0001
0000
,  // measure 41
0010
0000
0010
0000
,  // measure 42
0010
0000
0001
0000
,  // measure 43
0100
0000
0100
0000
,  // measure 44
0100
0000
0000
0000
,  // measure 45
0010
0000
0000
0000
,  // measure 46
1000
0000
0000
0000
,  // measure 47
0001
0000
0000
0000
,  // measure 48
0010
0000
0000
0000
,  // measure 49
0001
0000
0000
0000
,  // measure 50
0100
0000
0000
0000
,  // measure 51
0010
0000
0000
0000
,  // measure 52
1000
0000
0000
0000
,  // measure 53
0000
0000
0000
0000
,  // measure 54
0000
0000
0000
0000
,  // measure 55
0000
0000
0000
0000
,  // measure 56
0001
0000
0000
0000
,  // measure 57
0000
0000
0000
0000
,  // measure 58
0000
0000
0000
0000
,  // measure 59
0000
0000
0000
0000
,  // measure 60
0100
0000
0000
0000
,  // measure 61
0100
0000
0000
0000
,  // measure 62
0010
0000
1000
1000
;
