#TITLE:Dance, Dance;
#ARTIST:Fall Out Boy;
#BANNER:Dance, Dance.png;
#BACKGROUND:Dance, Dance-bg.png;
#JACKET:Dance, Dance-jacket.png;
#MUSIC:Dance, Dance.ogg;
#SAMPLESTART:40.864;
#SAMPLELENGTH:20;
#DISPLAYBPM:225:237;
#BPMS:0=229.299,4=228.987,60=230.769,61=228.955,116=230.769,117=229.008,147=227.848,149=228.426,154=230.769,156=229.202,171=230.769,172=228.963,185=228.814,188=229.299,200=228.876,231=230.769,232=229.008,242=230.769,243=228.814,249=230.769,251=225,252=228.975,288=230.769,289=228.814,302.5=236.842,303=229.042,320=229.299;
#BGCHANGES:0=Dance, Dance.avi=1=0=0=0,
;

//---------------dance-single - ----------------
#NOTES:
     dance-single:
     :
     Beginner:
     3:
     :
0000
0000
0000
0000
,
0000
0000
0000
0000
,
0000
0000
0000
0000
,
1000
0000
0000
0000
,
0000
0000
0000
0000
,
0001
0000
0000
0000
,
0000
0000
0000
0000
,
1000
0000
0000
0000
,
0000
0000
0000
0000
,
0010
0000
0010
0000
,
0000
0000
0000
0000
,
0100
0000
0100
0000
,
0000
0000
0000
0000
,
0001
0000
0001
0000
,
0001
0000
0000
0000
,
1000
0000
1000
0000
,
1000
0000
0000
0000
,
0100
0000
0100
0000
,
0100
0000
0000
0000
,
0020
0000
0000
0030
,
0010
0000
0000
0000
,
0001
0000
0001
0000
,
0001
0000
0000
0000
,
1000
0000
1000
0000
,
1000
0000
0000
0000
,
0100
0000
0000
0000
,
0100
0000
0000
0000
,
0010
0000
0000
0000
,
0010
0000
0010
0000
,
0010
0000
0000
0000
,
0001
0000
0000
0000
,
1000
0000
0000
0000
,
0001
0000
0000
0000
,
0100
0000
0000
0000
,
0001
0000
0000
0000
,
1000
0000
0000
0000
,
0010
0000
0000
0000
,
0100
0000
0100
0000
,
0100
0000
0100
0000
,
0000
0000
0010
0000
,
0010
0000
0000
0000
,
1000
0000
1000
0000
,
2000
0000
0000
3000
,
0000
0000
0001
0000
,
0001
0000
0000
0000
,
0100
0000
0100
0000
,
0200
0000
0000
0300
,
0000
0000
0010
0000
,
0010
0000
0000
0000
,
0000
0000
0001
0000
,
0001
0000
0000
0000
,
0000
0000
0010
0000
,
0010
0000
0000
0000
,
0000
0000
0100
0000
,
0100
0000
0000
0000
,
0000
0000
0010
0000
,
0010
0000
0000
0000
,
0000
0000
1000
0000
,
1000
0000
0000
0000
,
0001
0000
0000
0000
,
1000
0000
0000
0000
,
0001
0000
0000
0000
,
1000
0000
1000
0000
,
1000
0000
0000
0000
,
0010
0000
0000
0000
,
0010
0000
0000
0000
,
0010
0000
0000
0000
,
0100
0000
0000
0000
,
0100
0000
0000
0000
,
0100
0000
0000
0000
,
0200
0000
0000
0300
,
0000
0000
0010
0000
,
0010
0000
0000
0000
,
0000
0000
0100
0000
,
0100
0000
0000
0000
,
0000
0000
0001
0000
,
0001
0000
0000
0000
,
0000
0000
1000
0000
,
1000
0000
0000
0000
;

//---------------dance-single - ----------------
#NOTES:
     dance-single:
     :
     Easy:
     7:
     :
0000
0000
0000
0000
,
0000
0000
0000
0000
,
0000
0000
0000
0000
,
0000
0001
0000
1000
,
0000
0010
0010
0010
,
0000
0100
0000
0001
,
0000
1000
1000
1000
,
0000
0010
0000
0100
,
0000
0001
0001
0001
,
0000
1000
0000
0100
,
0000
0010
0010
0010
,
0000
0100
0000
1000
,
0000
0001
0001
0001
,
0000
1000
0000
0001
,
0000
1000
0000
0100
,
0010
0100
0000
1000
,
0000
0001
0000
0100
,
0010
0100
0000
0001
,
0000
0100
0000
1000
,
0000
0010
0000
0001
,
0100
0100
0100
0000
,
0000
0001
0000
1000
,
0000
0010
1000
0010
,
0000
1000
0000
0001
,
0000
0010
0001
0010
,
0000
0100
0000
1000
,
0000
0100
0000
0010
,
0000
1000
0000
0001
,
0100
0001
0010
0000
,
0100
0100
0100
0000
,
0110
0000
0000
0000
,
0010
0010
0010
0000
,
0110
0000
0000
0000
,
0001
0001
0001
0000
,
0001
1000
0000
0010
,
0010
0000
1000
0000
,
0200
0000
0000
0300
,
0100
1000
0100
0000
,
1000
0000
0010
0000
,
0100
0001
1000
0000
,
0100
1000
0001
0000
,
0010
0000
0010
0000
,
0100
1000
0100
0000
,
1000
0010
0100
0000
,
0100
0010
1000
0000
,
0001
0010
0100
1000
,
0000
1000
0001
0000
,
1000
0000
0001
0000
,
1000
0010
0100
0002
,
0000
1000
0000
1003
,
0000
0010
0010
0010
,
0000
0000
1000
0000
,
0100
0010
0001
0020
,
0000
0001
0000
0031
,
0000
0100
0100
0100
,
0000
0000
0001
0000
,
1000
0100
0010
0002
,
0000
1000
0000
1003
,
0000
0001
0001
0001
,
0000
1001
0000
0000
,
0001
0100
0010
1000
,
0000
0020
0000
0000
,
0000
0000
0000
0030
,
0000
1000
0000
0001
,
0000
0010
0001
0100
,
0010
0100
0000
0001
,
0000
1000
0100
1000
,
0010
0100
0000
0010
,
0000
1000
0001
0010
,
0100
1000
0000
0001
,
0000
0100
0010
1000
,
0001
0000
0010
0000
,
0001
1000
0001
1000
,
0010
0000
0100
0000
,
0010
0100
0010
0100
,
0001
0000
1000
0000
,
0100
1000
0100
1000
,
0001
0000
0010
0000
,
0001
0100
0010
0000
;

//---------------dance-single - ----------------
#NOTES:
     dance-single:
     :
     Medium:
     9:
     :
0000
0000
0000
0000
,
0000
0000
0000
0000
,
0000
0000
0000
0000
,
1000
0000
0001
1000
0000
0000
0020
0000
,
0000
0100
0130
0000
,
0001
0000
0010
0100
0000
0000
0020
0000
,
0000
0001
0100
0031
,
0100
0000
0010
1000
0000
0000
0200
0000
,
0000
0010
0310
0000
,
0001
0000
0100
1000
0000
0000
0200
0000
,
0000
0010
1000
0310
,
1000
0000
0001
0010
0000
0000
0002
0000
,
0000
1000
1003
0000
,
1001
1000
0100
0001
,
0200
0000
0301
0000
,
0101
0001
0010
1000
,
0020
0000
0130
0000
,
0001
0000
1000
0010
1000
0000
0001
0010
,
0001
1000
0100
0002
,
0000
1003
1000
0000
,
2001
0000
0000
0000
0100
0100
3100
0000
,
1100
0100
0010
0001
,
2000
0000
3010
0000
,
0101
0001
0010
0100
,
2000
0000
3001
0000
,
0001
0010
0001
1000
,
0001
1001
1001
1001
,
0000
0010
1000
0100
,
0010
0001
1000
0000
0100
0000
0010
0000
,
2000
0001
0001
0001
,
3001
1001
0000
0010
,
0200
0010
0010
0010
,
0310
0110
0000
0001
,
2000
0100
0100
0100
,
3100
1100
0000
1000
,
0010
0100
0001
1000
,
0001
0000
0000
0000
,
0001
0010
0100
1000
,
0001
0000
0010
0000
0100
1000
0100
0000
,
0001
0010
0001
1000
,
0010
1000
0100
0010
,
0001
0010
0100
1000
,
0010
1000
0100
0000
0101
0000
0000
0000
,
1001
0000
1000
0001
,
0100
0010
1000
0100
,
1000
0000
0100
0000
0010
0001
0100
0000
,
2000
0000
3001
0000
,
1001
1000
0010
0100
,
0001
0000
1000
0000
0010
1000
0010
0000
,
0100
0010
0100
1000
,
0010
0100
0001
0100
,
0101
0000
0101
0000
,
0001
0000
0100
0000
0010
1000
0100
0000
,
0001
1000
0100
0010
,
0100
1000
0100
1000
,
1100
0000
1100
0000
,
1000
0000
0100
0000
0010
0001
1000
0000
,
0010
0100
0010
0001
,
0100
0010
1000
0001
,
0000
1001
0000
0000
,
1000
1000
0001
0020
,
0000
0100
0100
0100
,
0100
0100
0130
0000
,
1000
0000
0001
0100
0000
0000
0020
0000
,
0000
1000
0100
1030
,
0001
0000
1000
0010
0000
0000
0200
0000
,
0000
0010
0310
0000
,
1000
0000
0010
0100
0000
0000
0002
0000
,
0000
0010
0100
0013
,
0100
0000
1000
0010
0000
0000
0200
0000
,
0000
0010
0310
0000
,
1000
1000
0001
0001
,
1000
0100
1000
0000
0001
0000
0001
0000
,
1000
1000
0001
0001
,
1000
0010
1000
0000
0001
0000
0001
0000
,
0010
0010
0100
0100
,
0010
0001
0010
0000
0100
0000
0100
0000
,
1000
1000
0001
0001
,
0100
0001
0100
0000
0101
0000
0000
0000
;

//---------------dance-single - ----------------
#NOTES:
     dance-single:
     :
     Hard:
     12:
     :
0000
0000
0000
0000
,
0000
0000
0000
0000
,
0000
0000
0000
0000
,
0010
0000
1000
0100
0000
0001
0200
0000
,
0000
0000
0310
0000
1000
0100
0010
0000
,
0001
0000
0100
0010
0000
0100
0002
0000
,
0000
0000
1003
0000
0010
0100
0001
0000
,
0010
0000
0100
1000
0000
0100
0020
0000
,
0000
0000
0031
0000
1000
0100
1000
0000
,
0010
0000
0100
0001
0000
1000
0100
0000
,
0010
0000
0010
0000
0001
0100
0010
0000
,
1000
0000
0010
0100
0000
0001
1000
0000
,
0100
0000
0100
0000
0010
0001
0010
0000
,
0100
1000
0010
0100
,
1000
0000
0100
0000
0001
0010
0100
0000
,
1000
0001
0100
1000
,
0010
0000
0001
0000
0010
0100
1000
0000
,
0001
0000
0010
0001
0010
0001
0100
0010
,
1000
0000
0100
0010
0001
0000
0010
0000
,
0000
0100
0010
0001
0000
0100
0020
0000
,
0100
0000
0130
0000
0001
1000
0001
0000
,
0001
0000
1000
0100
0010
0001
0010
0000
,
0100
0000
0100
0000
1000
0010
1000
0000
,
0001
0000
0100
0010
1000
0010
1000
0000
,
0100
0000
0100
0000
0010
0001
0010
0000
,
0100
0000
1000
0001
1000
0001
1000
0000
,
1001
1001
2000
3200
,
0000
0000
1300
0010
0100
0000
0001
0000
,
1000
0100
1000
0100
1000
0100
1000
0000
,
1001
1001
1001
1001
,
1001
0000
1001
0000
0100
0010
0001
0000
,
0011
0011
0011
0011
,
0011
0000
0011
0000
0010
0100
1000
0000
,
1100
1100
1100
1100
,
1100
0000
1100
0000
0000
1000
0100
0010
,
0000
0001
0000
0100
0000
0001
1000
0000
,
1001
0000
0010
0000
0100
0000
0001
0100
,
0010
1000
0100
0010
,
0001
1000
1001
1001
,
0001
1000
1001
0010
,
1001
0010
0100
1000
,
0001
0100
1000
0000
1000
0100
0001
0000
,
1001
0100
1001
0100
,
2002
3003
1001
0010
,
1001
0100
0010
0100
,
1000
0100
0001
0000
0001
0100
1000
0000
,
0010
0000
0100
0000
0001
0100
0010
1000
,
0001
0100
1000
0010
,
0001
0100
1000
0010
,
0001
0100
0001
1000
,
1001
0100
1001
0100
,
1001
1000
0100
0001
,
0010
1000
0100
0001
,
0010
1000
0001
1000
,
1001
0010
1001
0010
,
1001
0000
1000
0100
0000
0001
0100
0000
,
0001
0100
0010
1000
,
0001
0000
1000
0010
0000
0001
0010
0000
,
1001
0100
1001
0100
,
0001
0000
0100
0010
0000
0100
0001
0000
,
1000
0100
0010
0001
,
0100
0000
0110
0000
0010
1000
0100
0000
,
0010
0000
0001
1000
0001
1000
0001
1000
,
0001
0000
0100
0010
0000
0010
2000
0000
,
0000
0000
3001
0000
0100
0010
0100
0000
,
0001
0000
0010
0100
0000
0010
0002
0000
,
0000
0000
0103
0000
0010
1000
0010
0000
,
1000
0000
0001
1000
0000
1000
0200
0000
,
0000
0000
0310
0000
0001
1000
0001
0000
,
0100
0000
0010
1000
0000
0010
0200
0000
,
0000
0000
0310
0000
1000
0100
0010
0000
,
0001
0000
0100
0010
1000
0010
0100
0000
,
0001
0000
1000
0000
0100
0010
0100
0000
,
1000
0000
0100
0010
0001
0010
0100
0000
,
1000
0000
0001
0000
0100
0010
0100
0000
,
0001
0000
0010
0100
0010
0001
0100
0000
,
0001
0000
1000
0000
0010
0100
0010
0000
,
1000
0000
0100
0010
0100
1000
0001
0000
,
1000
0100
0001
0100
1000
0100
0000
0000
;

//---------------dance-single - ----------------
#NOTES:
     dance-single:
     :
     Challenge:
     14:
     :
0000
0000
0000
0000
,
0000
0000
0000
0000
,
0000
0000
0000
0000
,
0011
0000
0100
0001
0000
0010
1000
0000
,
0000
0000
1001
0000
0010
1000
0100
0000
,
1100
0000
0001
0010
0000
1000
0200
0000
,
0000
0000
0000
0000
0310
0000
0000
0000
0001
0000
0100
0000
1000
0000
0000
0010
,
1000
0000
0100
1000
0000
0010
0002
0000
,
0000
0000
1003
0000
0010
0100
0001
0000
,
1000
0100
1000
0010
1000
0100
2000
0000
,
3001
0010
0100
0000
1000
0010
0100
0000
,
0001
1000
0001
0100
0001
1000
0002
0000
,
0013
0001
1000
0000
0010
0100
0001
0000
,
0010
0011
0110
1100
,
0010
1000
0010
0001
0010
1000
0100
0000
,
1000
1010
0110
0101
,
1000
0001
0010
0001
0010
0100
1000
0000
,
0010
0000
0100
1000
0100
0010
0100
0001
,
0100
0000
0001
0010
1000
0000
1100
0000
,
0010
1000
0010
0100
0010
1000
0001
0000
,
0020
0000
0230
0000
1300
0010
1000
0001
,
0100
0002
0203
0320
,
1030
0000
0100
0000
0001
0000
0000
0000
1000
0000
0010
0000
0001
0000
0000
0100
,
0010
0000
1000
0100
0001
0100
1000
0000
,
0010
0100
0001
0010
0001
0100
1000
0000
,
0010
0000
1000
1000
0000
0001
0000
0100
,
0100
0010
1000
0000
0100
1000
0001
0000
,
0010
0000
0001
0100
0001
1000
0100
0010
,
0001
0100
0001
0010
1000
0010
0100
0010
,
0001
0100
1000
0100
0001
0100
1000
0100
,
0001
0010
0100
0010
0001
0100
0010
1000
,
0000
1000
0100
0001
0100
0010
0100
0001
,
0100
1000
0010
0000
0100
0010
1000
0001
,
0000
0001
0010
1000
0010
0100
0010
0001
,
1000
0100
0001
0000
0010
0001
0100
0010
,
0000
1010
0000
0101
0000
0010
1000
0100
,
0010
0001
1000
0001
0010
0001
0100
0010
,
0110
1001
0110
1001
,
1100
0101
1100
0101
,
1001
0010
0100
0000
0001
0010
0100
1000
,
0010
0100
0001
0000
1000
0100
1000
0000
,
0020
2030
3200
0320
,
0031
0100
0010
1000
0200
0010
0310
0000
,
0011
0001
1000
0000
0010
1000
0010
0001
,
0010
1000
0100
0000
1000
0001
0100
0000
,
0002
0023
0230
2300
,
3010
0000
1010
0000
0101
0001
0010
0100
,
1000
0010
0100
0000
0101
0000
1000
0000
,
1100
1001
1010
0101
,
0010
0000
0001
0100
1000
0100
0001
0000
,
0011
1100
0011
1100
,
0001
0100
1000
0000
1010
0000
0001
0000
,
0100
0010
1000
0010
0100
0001
2000
0000
,
3001
0000
0020
0001
0031
1000
0200
0000
,
0310
0110
1001
0110
,
1001
0010
1000
0100
1000
0010
0001
0000
,
0100
0001
0010
0001
0010
0100
1000
0000
,
0001
0020
0230
2300
,
3001
0101
1010
0101
,
1100
0001
1000
0000
0010
0100
0001
1000
,
0100
0010
1000
0010
0001
0100
0010
0000
,
1000
0100
0010
1000
0010
0001
0100
0010
,
0001
0010
1000
0010
0100
1000
0100
0001
,
0011
0000
1000
0100
0000
0001
0020
0000
,
0000
0000
0031
0000
0010
1000
0100
0000
,
1010
0000
0100
1000
0000
0010
0002
0000
,
0000
0000
1003
0000
0001
0010
0100
0000
,
0110
0000
0010
0001
0000
0100
2000
0000
,
0000
0000
0000
0000
3100
0000
0000
0000
1000
0000
0010
0000
0001
0000
0000
0100
,
0001
0000
0010
0100
0000
0001
2000
0000
,
0000
0000
3010
0000
1000
0100
0001
0000
,
0010
0001
0100
1000
0001
0100
0010
1000
,
0010
0100
0100
0001
1000
1000
0001
0010
,
0001
0010
0001
1000
0010
0100
0100
1000
,
0100
0010
0001
0010
1000
0100
1000
0001
,
0010
1000
0100
0100
1000
0010
0001
0001
,
0001
0100
0001
0010
1000
0010
1000
0100
,
0100
0100
1000
0001
0001
1000
0010
0010
,
0001
0100
0010
1000
1001
1001
0000
0000
;

//---------------dance-double - ----------------
#NOTES:
     dance-double:
     :
     Easy:
     7:
     :
00000000
00000000
00000000
00000000
,
00000000
00000000
00000000
00000000
,
00000000
00000000
00000000
00000000
,
00000000
00000001
00000000
00000010
,
00000000
00000100
00000100
00000100
,
00000000
00001000
00000000
00000010
,
00000000
00010000
00010000
00010000
,
00000000
00001000
00000000
00100000
,
00000000
01000000
01000000
01000000
,
00000000
10000000
00000000
00100000
,
00000000
10000000
10000000
10000000
,
00000000
00010000
00000000
00100000
,
00000000
00001000
00010000
00001000
,
00000000
00010000
00000000
00000100
,
00000000
00001000
00000000
00000001
,
00000000
00000010
00000000
00000001
,
00000000
00000100
00000000
00001000
,
00000000
00010000
00000000
01000000
,
00000000
10000000
00000000
00010000
,
00000000
10000000
00000000
00100000
,
00100000
00100000
00100000
00000000
,
00000000
01000000
00000000
00001000
,
00000000
00010000
00000000
00001000
,
00000000
00000100
00000000
00000010
,
00000000
00001000
00000000
00000001
,
00000000
00000010
00000000
00000100
,
00000000
00001000
00001000
00001000
,
00000000
00000100
00000000
00010000
,
00001000
00001000
00100000
00000000
,
00010000
00010000
00010000
00000000
,
00010000
00100000
00000000
00000000
,
00001000
00001000
00001000
00000000
,
00011000
00000000
00000000
00000000
,
00010000
00010000
00010000
00000000
,
00010000
00000100
00000000
00001000
,
00001000
00000000
00001000
00000000
,
00001010
00000000
00000000
00000000
,
00001000
00000100
00000010
00000000
,
00000100
00000000
00010000
00000000
,
00001000
00010000
01000000
00000000
,
01100000
00000000
01100000
00000000
,
00010000
01000000
00100000
00000000
,
10000000
01000000
00100000
00000000
,
00001000
00010000
00001000
00000000
,
00011000
00000000
00011000
00000000
,
00010000
00001000
00000100
00000010
,
00000000
00001000
00000010
00000000
,
00000100
00000000
00000001
00000000
,
00001000
00000100
00010000
00002000
,
00000000
00010000
00000000
00013000
,
00001000
00000000
00011000
00000000
,
00011000
00000000
01000000
00000000
,
10000000
00100000
01000000
00020000
,
00000000
10000000
00000000
10030000
,
00010000
00000000
10010000
00000000
,
10010000
00000000
00100000
00000000
,
00001000
00010000
00000100
00000020
,
00000000
00000001
00000000
00000031
,
00000000
00000100
00000100
00000100
,
00000000
00000110
00000000
00000000
,
00000010
00010000
00001000
01000000
,
00000000
20020000
00000000
00000000
,
00000000
00000000
30030000
00000000
,
00000000
00010000
00000000
00100000
,
00000000
01000000
10000000
00010000
,
00100000
00001000
00000000
00010000
,
00000000
00001000
00000100
00000010
,
00001000
00000001
00000000
00000100
,
00000000
00000001
00000010
00000100
,
00010000
00001000
00000000
00010000
,
00000000
00001000
00100000
00010000
,
02000000
00000000
03100000
00000000
,
10000000
01000000
10000000
00010000
,
00200000
00000000
00301000
00000000
,
00010000
00001000
00010000
00000100
,
00002000
00000000
00003010
00000000
,
00001000
00000001
00000100
00000010
,
00002000
00000000
00003010
00000000
,
00010000
00001000
00000100
00000000
;

//---------------dance-double - ----------------
#NOTES:
     dance-double:
     :
     Medium:
     9:
     :
00000000
00000000
00000000
00000000
,
00000000
00000000
00000000
00000000
,
00000000
00000000
00000000
00000000
,
00000010
00000000
00000100
00000001
00000000
00000000
00000101
00000000
,
00000000
00001000
00000100
00000000
,
00000010
00000000
00000100
00010000
00000000
00000000
00001000
00000000
,
00000000
00010000
01000000
00100000
,
00010000
00000000
01000000
00100000
00000000
00000000
01100000
00000000
,
00000000
10000000
01000000
00000000
,
00100000
00000000
00001000
00010000
00000000
00000000
00001000
00000000
,
00000000
00010000
00000010
00001000
,
00000001
00000000
00000100
00001000
00000000
00000000
00000110
00000000
,
00000000
00000010
00001000
00000000
,
00001010
00000001
00000100
00010000
,
02000000
00000000
03100000
00000000
,
10100000
00010000
00100000
00001000
,
00010000
00000100
00001000
00000000
,
00000010
00001000
00000100
00000010
,
00000001
00000100
00001000
00000100
,
00000000
00000110
00000000
00011000
,
00011000
00000000
00000000
00000000
00001000
00010000
00001000
00000000
,
00110000
01000000
10000000
00100000
,
02000000
00000000
03010000
00000000
,
00100000
00010000
01000000
00100000
,
01000000
00001000
00010000
00000000
,
00000100
00000010
00000001
00000001
,
00000200
00001000
00000010
00000301
,
00000000
00000001
00000100
00001000
,
00010000
01000000
10000000
01000000
,
00200000
00001000
00001000
00001000
,
00301000
00101000
00000000
00011000
,
00002000
00010000
00010000
00010000
,
00013000
00011000
00000000
00001100
,
00000200
00000010
00000010
00000010
,
00000310
00000110
00000000
00000001
,
00000100
00000000
00000001
00000000
00001000
00000100
00000010
00000000
,
00000100
00010000
00001000
00000000
,
00100000
00010000
01000000
10000000
,
01000000
00010000
00100000
00001000
,
00010000
00001000
00011000
00000000
,
00001100
00000000
00000100
00000010
,
00000100
00000000
00001000
00000000
00000010
00000000
00000100
00000001
,
00000100
00000010
00000110
00000000
,
00011000
00000000
00110000
00000000
,
01100000
00000000
01000000
10000000
,
00100000
01000000
00010000
00100000
,
00001000
00000000
00010000
00000000
00000100
00001000
00000010
00000000
,
00001010
00001000
00000010
00000100
,
00000001
00000010
00000001
00000100
,
00001000
00010000
00100000
20000000
,
30010000
00200000
01300000
20000000
,
30100000
00000000
10010000
00000000
,
10000000
01000000
00010000
00001000
,
00000010
00000001
00001000
00000020
,
00000130
00000002
00000013
00000200
,
00000310
00000000
00000110
00000000
,
00000001
00001000
00000100
00010000
,
00001000
00100000
00010000
10000000
,
01000000
00010000
01000000
00100000
,
00000000
00011000
00000000
00000000
,
00010000
00001000
00000100
00000020
,
00000000
00000100
00000100
00000100
,
00000100
00000100
00000130
00000000
,
00000001
00000000
00001000
00000010
00000000
00000000
00001000
00000000
,
00000000
00000100
00010000
00001000
,
00100000
00000000
00010000
01000000
00000000
00000000
01010000
00000000
,
00000000
00100000
10000000
00000000
,
01000000
00000000
00100000
00001000
00000000
00000000
00010000
00000000
,
00000000
00000100
00001000
00000010
,
00000100
00000000
00000001
00000010
00000000
00000000
00000011
00000000
,
00000000
00000001
00001000
00000000
,
00000001
00000100
00000001
00000100
,
00000010
00001000
00000010
00000000
00001010
00000000
00001010
00000000
,
00000100
00010000
00000100
00010000
,
00001000
00100000
00001000
00000000
00101000
00000000
00101000
00000000
,
00010000
10000000
00010000
10000000
,
01000000
00100000
01000000
00000000
01100000
00000000
01100000
00000000
,
00010000
01000000
00001000
00010000
,
00000100
00010000
00001000
00000000
00011000
00000000
00000000
00000000
;

//---------------dance-double - ----------------
#NOTES:
     dance-double:
     :
     Hard:
     12:
     :
00000000
00000000
00000000
00000000
,
00000000
00000000
00000000
00000000
,
00000000
00000000
00000000
00000000
,
00001000
00000000
00010000
00001000
00000000
00001000
00100000
00000000
,
00000000
00000000
00010000
00000000
00100000
01000000
10000000
00000000
,
00100000
00000000
01000000
00010000
00000000
00010000
00100000
00000000
,
00000000
00000000
00001000
00000000
00010000
00001000
00000100
00000000
,
00001000
00000000
00010000
00100000
00000000
00100000
01000000
00000000
,
00000000
00000000
00001000
00000000
00010000
00001000
00000100
00000000
,
00000001
00000000
00001000
00000010
00000000
00000010
00000100
00000000
,
00000001
00000000
00001000
00000000
00000100
00010000
00001000
00000000
,
00100000
00000000
01000000
10000000
00000000
10000000
00010000
00000000
,
00000000
00000000
00100000
00000000
00001000
00010000
01000000
00000000
,
00100000
00000000
00010000
00000000
01000000
00001000
00010000
00000000
,
00001000
00010000
00000100
00000000
00010000
00001000
00000100
00000000
,
00000010
00001000
00000001
00000010
,
00000001
00000100
00000010
00000000
00000100
00000010
00001000
00000000
,
00000100
00000000
00010000
00000000
00001000
01000000
00100000
00000000
,
01000000
00000000
00100000
10000000
01000000
00000000
20000000
00000000
,
00000000
30010000
00100000
00020000
00000000
00130000
00001000
00000000
,
00101000
00000000
00101000
00000000
00001000
00010000
00001000
00000000
,
00011000
00000000
00010000
00001000
00000100
00000010
00000100
00000000
,
00000001
00000000
00001000
00000000
00000100
00000010
00000100
00000000
,
00000110
00000000
00000100
00010000
00001000
01000000
00100000
00000000
,
10000000
00000000
00010000
00000000
10000000
01000000
10000000
00000000
,
00100000
00000000
01000000
00010000
00100000
00001000
00010000
00000100
,
00001000
00000100
00001000
00001100
,
00000000
00000010
00000100
00000001
,
00000001
00000100
00001000
00000100
00000001
00000100
00000010
00000000
,
00000110
00000110
00000110
00000110
,
00000110
00000000
00000110
00000000
00000010
00010000
00001000
00000000
,
00011000
00011000
00011000
00011000
,
00011000
00000000
00011000
00000000
00001000
01000000
00100000
00000000
,
01100000
01100000
01100000
01100000
,
01100000
00000000
01100000
00000000
00000000
00100000
10000000
01000000
,
00000000
00100000
00000000
00010000
00000000
00100000
00001000
00000000
,
00010000
00000000
00001000
00000000
00000100
00000010
00000100
00000001
,
00000101
00000100
00000001
00000100
,
00001000
00010000
00100000
10000000
,
01000000
00000000
00100000
00000000
01000000
00100000
00010000
00000000
,
00100000
00001000
00010000
00000000
00000100
00000000
00001000
00000000
,
00000002
00000000
00000020
00000003
00000200
00000030
00002000
00000300
,
00000020
00003000
00000130
00000000
00000001
00000100
00001000
00000000
,
00000110
00000000
00000010
00000000
00000010
00010000
00001000
00000000
,
00010000
00001000
01000000
00000000
00010000
00000000
00100000
00000000
,
02000000
00000000
20000000
03000000
00020000
30000000
02000000
00030000
,
00002000
03000000
00013000
00000000
00000100
00001000
00000100
00000000
,
00001100
00001000
00000100
00000001
,
00000100
00001000
00000010
00000100
,
00010000
01000000
10000000
01000000
,
00020000
10030000
02000000
03100000
,
10010000
00010000
01000000
10000000
,
01000000
00010000
00100000
01000000
,
00001000
00000100
00000001
00000100
,
00002000
00003001
00000200
00000310
,
00000110
00000000
00000010
00000100
00000000
00000100
00000001
00000000
,
00001000
00000100
00010000
00001000
,
00010000
00000000
01000000
00100000
00000000
00100000
00010000
00000000
,
02000000
03100000
20000000
30010000
,
10010000
20020000
30030000
00100000
,
00010000
00100000
00001000
00010000
,
00000100
00000000
00001100
00000000
00000100
00000010
00000001
00000000
,
00000011
00000000
00000100
00001000
00000100
00001000
00000100
00001000
,
00000100
00000000
00001000
00000010
00000000
00000010
00000100
00000000
,
00000000
00000000
00001000
00000000
00010000
00001000
00010000
00000000
,
01000000
00000000
00100000
00010000
00000000
00100000
01000000
00000000
,
00000000
00000000
10000000
00000000
00010000
00100000
01000000
00000000
,
00100000
00000000
00001000
00010000
00000000
00001000
00000100
00000000
,
00000000
00000000
00000001
00000000
00001000
00000100
00000010
00000000
,
00000100
00000000
00010000
00001000
00000000
00010000
01000000
00000000
,
00000000
00000000
10000000
00000000
00100000
01000000
00010000
00000000
,
01010000
00000000
01010000
00000000
00010000
00100000
00001000
00000000
,
00010000
00000000
00001000
00010000
00000100
00001000
00000001
00000000
,
00001001
00000000
00001001
00000000
00001000
00000100
00000010
00000000
,
00000100
00000000
00010000
00001000
00100000
01000000
10000000
00000000
,
11000000
00000000
11000000
00000000
01000000
00100000
00010000
00000000
,
00100000
00000000
00001000
00010000
00001000
00000100
00000010
00000000
,
00000110
00000000
00000110
00000000
00000010
00000100
00000001
00000000
,
00000010
00000100
00001000
00000100
00010000
00001000
00000000
00000000
;
