#TITLE:Dance to the Music;
#SUBTITLE:;
#ARTIST:Sly & the Family Stone;
#MUSIC:Dance to the Music.ogg;
#BANNER:Dance to the Music-bn.png;
#BACKGROUND:Dance to the Music-bg.png;
#LYRICSPATH:;
#CDTITLE:;
#SAMPLESTART:7.500000;
#SAMPLELENGTH:20.000000;
#BPMS:0.000000=126.999992,
16.000000=129.000000,
24.000000=127.500000,
32.000000=126.750000,
64.000000=128.000000,
72.000000=129.139999,
76.000000=130.000000,
128.000000=128.500000,
136.000000=127.675011,
152.000000=126.889999,
160.000000=128.399994,
165.000000=129.210007,
184.000000=128.011993,
200.000000=127.412994,
205.000000=128.600006,
206.000000=129.509995,
212.000000=128.419006,
216.000000=127.211998,
228.000000=125.999992,
240.000000=128.195007,
244.000000=129.375000,
248.000000=131.000000,
255.000000=127.699997
;
#STOPS:;
#TIMESIGNATURES:;
#BGCHANGES:;
#FGCHANGES:;
#ATTACKS:;
#SPEEDS:;
#SCROLLS:;
#DISPLAYBPM:126.000000:131.000000;
#KEYSOUNDS:;

//---------------dance-single - ---------------
#NOTES:
     dance-single:
     :
     Beginner:
     2:
     0,0,0,0,0:
// measure 0
0000
0000
0000
0000
,  // measure 1
0000
0000
0000
0000
,  // measure 2
0000
0000
0000
0000
,  // measure 3
0000
0000
0000
0000
,  // measure 4
1000
0000
1000
0000
,  // measure 5
1000
0000
0000
0000
,  // measure 6
0001
0000
0001
0000
,  // measure 7
0001
0000
0000
0000
,  // measure 8
0100
0000
0100
0000
,  // measure 9
0100
0000
0000
0000
,  // measure 10
0010
0000
0010
0000
,  // measure 11
0010
0000
0000
0000
,  // measure 12
1000
0000
0100
0000
,  // measure 13
1000
0000
0000
0000
,  // measure 14
0001
0000
0100
0000
,  // measure 15
0001
0000
0000
0000
,  // measure 16
1001
0000
0000
0000
,  // measure 17
0110
0000
0000
0000
,  // measure 18
1001
0000
0000
0000
,  // measure 19
0110
0000
0000
0000
,  // measure 20
0010
0000
0100
0000
,  // measure 21
0010
0000
0000
0000
,  // measure 22
1000
0000
0001
0000
,  // measure 23
1000
0000
0000
0000
,  // measure 24
0010
0000
0000
0000
,  // measure 25
0100
0000
0100
0000
,  // measure 26
0001
0000
0000
0000
,  // measure 27
1000
0000
0010
0000
,  // measure 28
0100
0000
0100
0000
,  // measure 29
0100
0000
0000
0000
,  // measure 30
0001
0000
1000
0000
,  // measure 31
0001
0000
0000
0000
,  // measure 32
0010
0000
0010
0000
,  // measure 33
0001
0000
0001
0000
,  // measure 34
0100
0000
0100
0000
,  // measure 35
1000
0000
1000
0000
,  // measure 36
0001
0000
0010
0000
,  // measure 37
0001
0000
0000
0000
,  // measure 38
1000
0000
0010
0000
,  // measure 39
1000
0000
0000
0000
,  // measure 40
0100
0000
0000
0000
,  // measure 41
0100
0000
0010
0000
,  // measure 42
0001
0000
0000
0000
,  // measure 43
1000
0000
0000
0000
,  // measure 44
0001
0000
0100
0000
,  // measure 45
0010
0010
0000
0000
,  // measure 46
1000
1000
1000
0000
,  // measure 47
0100
0000
1000
0000
,  // measure 48
0001
0000
0000
0000
,  // measure 49
0010
0000
0000
0000
,  // measure 50
0100
0000
0000
0000
,  // measure 51
1000
0000
0001
0000
,  // measure 52
0100
0000
0010
0000
,  // measure 53
0100
0100
0100
0000
,  // measure 54
1001
0000
0110
0000
,  // measure 55
1000
0000
0000
0000
,  // measure 56
0001
0000
0010
0000
,  // measure 57
0100
0000
0000
0000
,  // measure 58
1000
0000
0010
0000
,  // measure 59
0100
0000
0000
0000
,  // measure 60
0010
0000
1000
0000
,  // measure 61
0001
0000
0000
0000
,  // measure 62
0100
0000
0001
0000
,  // measure 63
1000
1000
1000
0000
,  // measure 64
0010
0000
0000
0000
;

//---------------dance-single - ---------------
#NOTES:
     dance-single:
     :
     Easy:
     7:
     0,0,0,0,0:
// measure 0
0000
0000
0000
0000
,  // measure 1
0000
0000
0000
0000
,  // measure 2
0000
0000
0000
0000
,  // measure 3
0000
0000
0000
0000
,  // measure 4
2000
0000
0000
0000
3001
0000
0010
0100
,  // measure 5
0000
1000
0000
0000
1100
0000
0101
0000
,  // measure 6
0002
0000
0000
0000
0103
0000
0010
1000
,  // measure 7
0000
0001
0000
0000
0110
0000
1001
0000
,  // measure 8
0200
0000
0000
0000
0310
0000
0100
0001
,  // measure 9
0000
1000
0000
0000
1100
0000
0101
0000
,  // measure 10
0020
0000
0000
0000
1030
0000
0100
0010
,  // measure 11
0000
0001
0000
0000
0011
0000
1010
0000
,  // measure 12
1000
0010
1000
0100
,  // measure 13
1000
0000
0001
0000
0000
0000
0000
0010
,  // measure 14
0100
1000
0010
0100
,  // measure 15
0001
2000
0000
3010
,  // measure 16
1001
0100
0100
0100
,  // measure 17
0110
0100
0100
0100
,  // measure 18
1001
0010
0010
0010
,  // measure 19
0110
0010
0010
0010
,  // measure 20
1000
0100
1000
0001
,  // measure 21
0010
0000
0100
0000
0000
1000
0001
0000
,  // measure 22
0200
0310
0100
0001
,  // measure 23
1000
0002
0000
0013
,  // measure 24
0001
0200
0000
0000
0000
0000
0300
0000
,  // measure 25
0001
0010
1000
0100
,  // measure 26
1000
0000
0002
0000
0000
0000
0003
0010
,  // measure 27
0001
0100
0010
1000
,  // measure 28
0100
0100
1000
0001
,  // measure 29
0200
0000
0300
0010
,  // measure 30
0110
0000
0001
0100
,  // measure 31
1000
0000
0000
0010
,  // measure 32
1000
1000
1000
0100
,  // measure 33
0001
0001
0001
0010
,  // measure 34
0100
0100
0100
0010
,  // measure 35
0001
0001
0001
1000
,  // measure 36
0001
0100
0010
1000
,  // measure 37
0100
0010
0100
1000
,  // measure 38
2002
3003
0220
0330
,  // measure 39
1000
0000
0001
0000
0000
0010
0100
0000
,  // measure 40
2200
0000
0000
3300
,  // measure 41
0001
0001
1000
1000
,  // measure 42
0020
0000
0130
0000
0000
0001
0100
0000
,  // measure 43
0020
0000
0000
0030
,  // measure 44
1000
0001
0010
0100
,  // measure 45
1001
0000
0110
0000
0000
1000
0001
0000
,  // measure 46
0010
0001
0100
1000
,  // measure 47
0010
2000
3200
0320
,  // measure 48
0032
0100
0000
0100
,  // measure 49
0000
1000
0000
1003
,  // measure 50
0020
0100
0000
0130
,  // measure 51
0000
0001
0101
1100
,  // measure 52
0001
0010
0001
1000
,  // measure 53
0010
0100
0001
0000
,  // measure 54
0011
0000
0000
1010
0000
0000
0202
0000
,  // measure 55
0000
0000
0000
0303
,  // measure 56
1000
1000
0001
0001
,  // measure 57
0020
0000
0100
0031
,  // measure 58
0100
0100
0010
0010
,  // measure 59
2000
0000
0001
3100
,  // measure 60
1000
0010
0100
0001
,  // measure 61
0200
0000
1000
0301
,  // measure 62
0100
0010
1000
0001
,  // measure 63
0010
0010
0001
1000
,  // measure 64
0020
0000
0000
0000
,  // measure 65
0000
0000
0000
0000
,  // measure 66
0030
0000
0000
0000
;

//---------------dance-single - ---------------
#NOTES:
     dance-single:
     :
     Medium:
     9:
     0.367989,0.466493,0.267016,0.251310,0.003927,328.000000,294.000000,34.000000,32.000000,0.000000,0.000000,0.367989,0.466493,0.267016,0.251310,0.003927,328.000000,294.000000,34.000000,32.000000,0.000000,0.000000:
// measure 0
0000
0000
0000
0000
,  // measure 1
0000
0000
0000
0000
,  // measure 2
0000
0000
0000
0000
,  // measure 3
0000
0000
0000
0000
1000
0001
1000
0001
,  // measure 4
2000
0000
0010
0000
3001
0000
1000
0010
,  // measure 5
0000
0100
0000
0001
0010
0001
1000
0010
,  // measure 6
0200
0000
0001
0000
0310
0000
1000
0001
,  // measure 7
0000
0010
0000
0100
0010
0001
1000
0100
,  // measure 8
0020
0000
1000
0000
0031
0000
1000
0001
,  // measure 9
0000
0100
0000
0001
0010
0001
0100
0010
,  // measure 10
2000
0000
0100
0000
3010
0000
0100
0001
,  // measure 11
0000
1000
0000
0010
1000
0001
1000
0100
,  // measure 12
0010
0002
0000
2003
0000
3001
0100
0020
,  // measure 13
0000
1030
0100
0000
0000
1000
0001
0000
,  // measure 14
0010
0001
0000
0100
0000
0010
1000
0001
,  // measure 15
0000
0000
0100
0020
0000
1030
0001
0000
,  // measure 16
1001
0110
1001
0110
,  // measure 17
1010
0101
1010
0101
,  // measure 18
0011
1100
0011
1100
,  // measure 19
0101
1100
0011
1010
,  // measure 20
0001
0100
0000
0010
0000
1000
0100
1000
,  // measure 21
0000
0001
0000
0000
0000
0100
0010
1000
,  // measure 22
0002
0000
0013
0001
0100
0000
0010
1000
,  // measure 23
0000
0000
0200
0000
0000
0000
1300
0001
,  // measure 24
0100
0020
0000
0000
0000
0000
0030
0000
,  // measure 25
1000
0010
1000
0000
0001
0010
0001
0000
,  // measure 26
0100
0001
2000
0000
0000
0000
3000
0001
,  // measure 27
1000
0010
0100
0000
0001
0010
1000
0000
,  // measure 28
0100
0000
0100
0000
1000
0001
0000
0100
,  // measure 29
0000
0010
0000
0000
0000
1000
0100
0010
,  // measure 30
0001
0000
0010
0000
0001
0100
0000
1000
,  // measure 31
0000
0000
0000
0000
0000
1000
0010
1000
,  // measure 32
0001
0000
0001
0000
0001
0010
0001
0010
,  // measure 33
0100
0000
0100
0000
0100
1000
0001
1000
,  // measure 34
0010
0000
0010
0000
0010
0100
0001
0100
,  // measure 35
0001
0000
0001
0000
0001
1000
0001
0000
,  // measure 36
1000
0010
0100
0002
0000
0000
0013
0200
,  // measure 37
0000
1300
0000
0000
0000
0001
1000
0000
,  // measure 38
2002
0000
3000
0000
0023
0200
0000
0330
,  // measure 39
0110
0000
1001
0000
0000
1000
0010
1000
,  // measure 40
0002
0100
0100
0103
,  // measure 41
1000
0000
0001
0000
0000
0010
0000
0000
0002
0000
0000
0000
2003
0000
0000
0000
,  // measure 42
3020
0000
0130
0000
0001
1000
0001
0000
,  // measure 43
0020
0001
1000
0031
,  // measure 44
1000
0001
0000
0200
0000
0300
0000
0010
,  // measure 45
0100
0000
0101
0000
0000
0001
1000
0000
,  // measure 46
1000
0100
1000
0000
0010
0000
0100
0001
,  // measure 47
0000
0020
0032
2003
,  // measure 48
3002
0100
0010
1000
,  // measure 49
0100
0000
1003
0000
0001
0100
0010
1000
,  // measure 50
0200
0001
1000
0001
,  // measure 51
0310
0100
1000
0000
0001
0100
0001
0100
,  // measure 52
0001
1000
0000
1010
0000
0010
0100
0000
,  // measure 53
0001
0010
0001
1000
0000
0100
0000
0000
,  // measure 54
1100
0000
0001
0101
0000
0000
0010
2000
,  // measure 55
0001
0001
0100
3100
,  // measure 56
1000
1010
0001
0011
,  // measure 57
1001
0000
0000
0010
0001
0100
0010
1000
,  // measure 58
0100
1100
0001
0101
,  // measure 59
0110
0000
0000
0010
1000
0100
1000
0001
,  // measure 60
0010
0011
1000
1100
,  // measure 61
1001
0000
0000
0001
0010
0100
1000
0010
,  // measure 62
0100
0101
0010
1010
,  // measure 63
0001
1000
0001
1000
0020
0000
0130
0000
,  // measure 64
0020
0000
0000
0000
,  // measure 65
0000
0000
0000
0000
,  // measure 66
0030
0000
0000
0000
;

//---------------dance-single - ---------------
#NOTES:
     dance-single:
     :
     Hard:
     13:
     0.523936,0.544242,0.204189,0.219896,0.235603,467.000000,441.000000,26.000000,28.000000,0.000000,0.000000,0.523936,0.544242,0.204189,0.219896,0.235603,467.000000,441.000000,26.000000,28.000000,0.000000,0.000000:
// measure 0
0000
0000
0000
0000
,  // measure 1
0000
0000
0000
0000
,  // measure 2
0000
0000
0000
0000
,  // measure 3
0000
0000
0000
0000
0000
0000
0000
0000
1000
0001
1000
0001
1000
0001
1000
0001
,  // measure 4
2000
0000
0010
0000
3001
0100
0010
0100
,  // measure 5
1000
0000
0100
0000
0001
0000
0010
0001
0100
0000
0010
0000
1000
0001
0100
0000
,  // measure 6
0002
0000
0010
0000
1003
0010
0100
0010
,  // measure 7
0001
0000
0010
0000
1000
0000
0100
0010
0001
0000
0100
0000
0010
1000
0001
0000
,  // measure 8
0200
0000
1000
0000
0301
0100
0010
1000
,  // measure 9
0100
0000
0001
0000
0100
0000
1000
0010
0100
0000
0001
0000
0010
0001
0100
0000
,  // measure 10
0020
0000
1000
0000
0031
0010
1000
0100
,  // measure 11
0010
0000
0001
0000
0100
0000
0010
1000
0100
0000
0010
0000
0001
1000
0010
0000
,  // measure 12
0100
0001
0100
0020
0000
1030
0100
0001
,  // measure 13
0010
0100
1000
0000
0001
0101
0000
0100
,  // measure 14
0010
1000
0010
0100
0001
0010
0001
1000
,  // measure 15
0100
0000
1100
0002
0000
0100
0103
1000
,  // measure 16
1001
0000
0110
0000
1000
0100
0001
0000
,  // measure 17
0011
0000
1100
0000
0001
0010
1000
0000
,  // measure 18
1001
0000
1010
0000
0100
0001
0010
0000
,  // measure 19
0011
0000
1010
0000
0100
0001
0010
0000
,  // measure 20
0001
0100
0010
1000
0100
0001
0100
1000
,  // measure 21
0010
0100
0001
0000
1000
0100
1000
0010
,  // measure 22
0120
0000
1030
0100
0001
0010
0001
1000
,  // measure 23
0010
0000
0000
0000
0102
0000
0000
0000
1000
0000
0000
0000
0103
0001
0100
0000
,  // measure 24
0010
0020
1000
0000
0001
0000
0100
0000
,  // measure 25
1030
0000
0001
0000
0010
0100
1000
0000
0010
0000
0100
0000
0001
1000
0010
0000
,  // measure 26
0100
0000
0001
2000
0001
0000
0000
0000
0010
0000
0000
0000
3100
0000
1000
0001
,  // measure 27
1000
0000
0010
0000
0100
0000
0001
0000
0010
0000
0100
1000
0000
1000
0001
0000
,  // measure 28
0100
0000
0100
0001
0010
0001
1000
0010
,  // measure 29
1000
0100
0001
0000
0010
0100
0010
0001
,  // measure 30
1000
0000
0001
1000
0010
0100
0010
1000
,  // measure 31
0001
0000
0100
0000
0001
1000
1000
0100
,  // measure 32
1000
0000
1010
0000
0001
0100
0010
1000
,  // measure 33
0100
0000
1100
0000
0010
0001
1000
0001
,  // measure 34
0011
0000
0101
0000
0100
0010
1000
0001
,  // measure 35
1001
0000
0110
0000
1000
0010
0001
0100
,  // measure 36
0010
1000
0100
0020
0000
0031
1000
0001
,  // measure 37
0100
0010
1000
0000
0001
0100
0010
0000
,  // measure 38
1002
0000
0013
0000
0011
0001
1000
0010
,  // measure 39
0100
0000
0000
0000
0001
0000
0000
0000
1000
0010
1000
0000
0001
0010
0001
0000
,  // measure 40
0200
0000
0000
0000
0010
0000
0000
0000
1000
0000
0000
0000
0310
0000
0000
0001
,  // measure 41
0000
0001
0200
0000
0000
0320
0000
0000
1030
0000
0100
0000
1000
0000
0001
0000
,  // measure 42
0020
0000
1030
0000
0001
1000
0110
0000
,  // measure 43
0002
0100
0100
0000
1000
1000
0103
0001
,  // measure 44
0010
0100
1000
2100
0000
0001
3001
1000
,  // measure 45
1010
0000
0000
0000
1001
0000
0000
0000
0010
0100
0010
0000
1000
0000
0000
0000
,  // measure 46
0001
0100
0001
0000
0010
0100
1000
0001
,  // measure 47
0100
0000
0000
0000
0001
0010
0000
0000
0010
0100
0000
0000
0100
1000
0000
1000
,  // measure 48
0002
0000
0010
0000
0100
1000
1000
0000
,  // measure 49
0023
0000
0000
0000
1000
0000
0000
0000
0001
0000
0100
0000
0130
0000
1000
0001
,  // measure 50
0200
0000
0010
0000
1000
0010
0010
0000
,  // measure 51
0301
0000
0010
0000
0001
0000
1000
0000
0010
0100
0010
0100
0010
0100
0010
0100
,  // measure 52
0010
1000
0001
0020
0000
0031
1000
0010
,  // measure 53
0100
0001
0100
0010
0100
0001
1000
0000
,  // measure 54
0101
0000
1000
0000
0001
0000
2010
0000
0000
0000
0000
0000
3100
1000
0002
0000
,  // measure 55
0100
0010
0100
0013
,  // measure 56
1000
0001
0000
0001
1000
0000
0100
0000
0010
0001
0000
0001
1000
0000
0010
0000
,  // measure 57
0100
0002
0000
0000
0013
0000
1000
0100
1000
0000
0001
0000
0100
0010
1000
0000
,  // measure 58
0001
0010
0000
0010
0001
0000
1000
0000
0010
0100
0000
0100
0010
0000
1000
0000
,  // measure 59
0001
2000
0000
0000
3010
0000
1000
0100
1000
0000
0001
0000
0010
0100
1000
0000
,  // measure 60
0001
0100
0000
0100
0001
0000
1000
0000
0100
0010
0000
0010
0001
0000
0100
0000
,  // measure 61
0010
2000
0000
0000
3100
0000
0010
0001
1000
0000
0001
0000
0100
0010
1000
0000
,  // measure 62
0001
1000
0000
1000
0001
0000
0100
0000
0010
1000
0000
1000
0100
0000
0010
0000
,  // measure 63
0001
0001
1000
1000
0001
0100
1000
0000
,  // measure 64
0020
0000
0000
0000
,  // measure 65
0000
0000
0000
0000
,  // measure 66
0030
0000
0000
0000
;

//---------------dance-single - ---------------
#NOTES:
     dance-single:
     :
     Challenge:
     15:
     0,0,0,0,0:
// measure 0
0000
0000
0000
0000
,  // measure 1
0000
0000
0000
0000
,  // measure 2
0000
0000
0000
0000
,  // measure 3
0000
0000
0000
0000
0000
0000
0000
0000
1000
0001
1000
0001
1000
0001
1000
0001
,  // measure 4
2000
0000
0010
0000
3001
0100
0010
0100
,  // measure 5
1000
0000
0100
0000
0001
0000
0010
0001
0100
0010
1000
0001
0010
0100
1000
0000
,  // measure 6
0002
0000
0010
0000
1003
0100
0010
0100
,  // measure 7
0001
0000
0100
0000
1000
0000
0010
0100
0001
1000
0010
1000
0100
0010
0001
0000
,  // measure 8
0200
0000
1000
0000
0301
0100
0010
1000
,  // measure 9
0100
0000
0001
0000
0100
0000
1000
0010
1000
0001
0010
0100
1000
0001
0100
0000
,  // measure 10
0020
0000
0001
0000
1030
0010
0100
0001
,  // measure 11
0010
0000
1000
0000
0010
0000
0001
0100
0010
0100
0001
1000
0100
0010
0001
0000
,  // measure 12
1000
0000
0010
0000
0100
0000
0001
0000
0010
0100
1000
0001
0100
0000
0010
0000
,  // measure 13
1000
0000
0100
0000
0110
0000
0010
0001
0100
0010
1000
0001
0100
0000
0010
0000
,  // measure 14
1000
0000
0100
0000
1000
0000
0001
0000
0010
0001
0100
0010
1000
0000
0100
0000
,  // measure 15
1000
0000
0001
0000
0100
0010
1000
0001
0100
0000
0001
0010
0100
1000
0010
0000
,  // measure 16
1001
0000
0110
0000
1010
0001
0011
0000
,  // measure 17
0110
0000
1100
0000
1001
0010
0101
0000
,  // measure 18
1010
0000
0011
0000
0110
1000
1001
0000
,  // measure 19
0011
0000
1100
0000
0110
0010
1001
0000
,  // measure 20
0001
0100
0001
0010
1000
0100
1000
0010
,  // measure 21
0100
0001
1000
0000
0001
0010
0001
0100
,  // measure 22
2000
0000
3010
0100
0010
1000
0100
0001
,  // measure 23
0010
0000
0000
0000
0011
0000
0000
0000
1000
0000
1000
0000
0103
0001
0010
0000
,  // measure 24
1000
0002
0010
0000
0100
1000
1000
0000
,  // measure 25
0013
0000
0000
0000
0000
0000
0001
0000
0000
0000
0000
0000
1000
0000
0010
0000
1000
0000
0010
0000
0000
0000
0000
0000
0100
0000
0000
0000
0000
0000
0001
0000
0000
0000
0000
0000
1000
0000
0000
0010
0000
0000
0100
0000
0000
0001
0000
0000
,  // measure 26
0010
0000
0100
2000
0001
0000
0000
0000
0010
0000
0010
0000
3010
0000
1000
0001
,  // measure 27
1000
0100
0010
0100
1000
0001
0100
0000
0010
0100
0001
0100
0010
1000
0001
0000
,  // measure 28
0100
0010
0100
0001
1000
0000
0010
0000
0100
0000
0001
0000
0010
0000
0100
0000
,  // measure 29
1000
0010
0001
0000
0100
0001
0100
0010
,  // measure 30
1000
0100
1000
0000
0001
0000
0100
0000
0001
0000
0010
0000
1000
0000
0001
0000
,  // measure 31
0100
0000
0010
0000
0100
0001
0001
1000
,  // measure 32
1010
0000
0101
0000
1100
0001
0010
1000
,  // measure 33
1001
0000
0011
0000
0110
1000
0100
0001
,  // measure 34
0011
0000
1010
0000
0101
0010
1000
0100
,  // measure 35
1100
0000
1001
0000
0011
1000
0001
0010
,  // measure 36
0001
0100
0010
1000
0100
0001
0100
1000
,  // measure 37
0010
0100
0001
1000
0100
0010
0001
1000
,  // measure 38
0201
0000
0310
0000
0110
0001
1000
0100
,  // measure 39
1100
0000
0000
0000
0101
0000
0010
0000
1000
0100
0010
0001
0100
0010
1000
0001
,  // measure 40
0020
0100
0000
0000
1000
0000
0000
0000
0001
0000
0001
0000
0031
0000
0000
0100
,  // measure 41
0010
1000
0001
0000
0010
0100
0000
0100
1000
0001
1000
0000
0010
0100
0001
1000
,  // measure 42
0200
0000
0001
0000
0001
0000
0000
0000
1300
0100
0010
0100
1000
0000
0001
0000
,  // measure 43
0200
0010
0010
1000
0301
0100
0100
0001
,  // measure 44
1000
0000
0100
0000
1000
0000
0001
0000
0010
0100
1000
0001
0100
0000
0010
0000
,  // measure 45
1010
0000
0001
0000
1100
0000
0010
0001
0100
0001
0010
0100
1000
0000
0000
0000
,  // measure 46
0001
0000
0100
0000
0001
0000
0010
0100
1000
0000
0001
0000
0100
0000
0010
0000
,  // measure 47
1000
0000
0000
0000
0001
0100
0000
0100
0010
1000
0000
1000
0100
0010
0000
0010
,  // measure 48
0002
0000
0000
0000
0100
0000
1000
0000
1003
0001
0010
0100
1000
0000
0010
0000
,  // measure 49
0100
0000
0001
0000
0010
0000
0100
0000
1000
0000
0001
0100
0010
0000
1000
0100
,  // measure 50
0020
0000
0001
0000
0001
0000
0100
0000
0031
1000
0100
1000
0001
0000
0010
0000
,  // measure 51
0100
0000
0000
0000
1000
0000
0000
0000
0001
0000
0000
0000
0100
0000
0000
0010
0000
0000
0000
0000
0000
0000
0000
0000
1000
0000
0000
0001
0000
0000
1000
0000
0000
0001
0000
0000
1000
0000
0000
0001
0000
0000
1000
0000
0000
0001
0000
0000
,  // measure 52
1000
0010
0100
0000
0001
0000
1000
0000
0100
0010
0001
0000
0100
0000
0010
0000
,  // measure 53
1000
0000
0001
0000
0010
0000
0001
0000
0100
0001
1000
0000
0010
0000
0000
0000
,  // measure 54
0101
0000
0001
0010
1000
0000
1100
0000
1000
0000
0010
0000
0100
0001
0010
0100
,  // measure 55
2000
0001
0001
0000
0010
0001
3001
0000
,  // measure 56
0100
0010
0000
1000
0001
0000
0010
0000
0001
0100
0000
0010
1000
0000
0001
0000
,  // measure 57
1000
0200
0000
0000
0310
0000
0001
1000
0010
1000
0100
0010
0001
0100
0010
0000
,  // measure 58
1000
0001
0000
0010
0100
0000
1000
0000
0010
1000
0000
0001
0100
0000
0010
0000
,  // measure 59
1000
0002
0000
0000
0013
0000
0001
0100
0010
1000
0100
0010
0100
1000
0001
0100
,  // measure 60
0010
0100
0000
0001
1000
0000
0100
0000
1000
0001
0000
0100
0010
0000
1000
0000
,  // measure 61
0001
0020
0000
0000
0130
0000
1000
0010
1000
0001
0100
0010
1000
0100
0010
0001
,  // measure 62
0100
0001
0000
1000
0010
0000
1000
0000
0001
0010
0000
0100
1000
0000
0001
0000
,  // measure 63
0011
0000
0110
0000
1100
0000
0101
0000
1000
0010
0100
0001
1000
0100
1000
0000
,  // measure 64
0020
0000
0000
0000
,  // measure 65
0000
0000
0000
0000
,  // measure 66
0030
0000
0000
0000
;
