#TITLE:Da Ya Think I'm Sexy?;
#SUBTITLE:;
#ARTIST:Rod Stewart;
#TITLETRANSLIT:;
#SUBTITLETRANSLIT:;
#ARTISTTRANSLIT:;
#GENRE:;
#CREDIT:;
#BANNER:Da Ya Think I'm Sexy-bn.png;
#BACKGROUND:Da Ya Think I'm Sexy-bg.png;
#LYRICSPATH:;
#CDTITLE:;
#MUSIC:Da Ya Think I'm Sexy.ogg;
#OFFSET:0.000000;
#SAMPLESTART:33.799000;
#SAMPLELENGTH:20.000000;
#SELECTABLE:YES;
#DISPLAYBPM:110.000000:114.000000;
#BPMS:0.000000=112.320000
,12.000000=113.000000
,28.000000=114.000000
,36.000000=112.000000
,40.000000=112.500000
,48.000000=113.112999
,56.000000=111.667000
,64.000000=113.300003
,72.000000=112.250000
,80.000000=111.000000
,84.000000=112.675003
,88.000000=113.353996
,92.000000=112.012001
,96.000000=112.572998
,100.000000=113.750000
,112.000000=113.288002
,116.000000=111.910004
,120.000000=112.400002
,124.000000=113.599998
,128.000000=112.801003
,132.000000=111.815002
,144.000000=110.000000
,152.000000=113.449997
,160.000000=111.572998
,164.000000=111.420998
,172.000000=112.514999
,176.000000=110.164001
,180.000000=111.345001
,184.000000=113.164001
,188.000000=110.875000
,192.000000=112.158997
;
#STOPS:
;
#BGCHANGES:;
#KEYSOUNDS:;
#ATTACKS:;

//---------------dance-single - ----------------
#NOTES:
     dance-single:
     :
     Hard:
     11:
     0.418218,0.474259,0.000000,0.368031,0.175651,350.000000,350.000000,0.000000,44.000000,0.000000,0.000000,0.418218,0.474259,0.000000,0.368031,0.175651,350.000000,350.000000,0.000000,44.000000,0.000000,0.000000:
0000
0000
0000
0000
,
0000
0000
0000
0000
,
0000
0000
0000
0000
,
0000
0000
0000
0000
0000
0000
0000
0000
0000
0000
0000
0000
0000
0000
1000
0001
,
1000
0010
0002
0000
0023
0000
2030
0000
,
3200
0000
0310
0001
2000
0000
3001
0100
,
0000
0000
0001
1000
0001
1000
0001
1000
0020
0000
0000
0000
0130
0000
0001
0000
,
0000
0000
1000
0010
1000
0010
1000
0010
0200
0000
0001
0000
0301
1000
0001
0000
,
0010
0000
0000
0001
0000
0000
0100
0000
2000
0000
0001
0000
3001
0000
0000
0000
,
1000
0010
0100
0010
1000
0100
0001
0000
,
0010
0000
0001
0000
0000
1000
0000
0000
0001
0000
0100
0000
0010
0000
0000
0000
,
1000
0001
0010
0001
0100
0010
1000
0000
,
0001
0000
0000
0010
0000
0000
0001
0000
0100
0000
0010
0000
1000
0000
0000
0000
,
0100
1000
0010
1000
0001
1000
0100
0000
,
0010
0001
0000
0010
0001
0000
1000
0000
0010
0000
0100
0000
0001
0000
0000
0000
,
1000
0000
0001
0000
0010
0000
0100
0000
1000
0000
0010
0000
0100
0001
0200
0000
,
0000
0010
0310
1000
0100
0001
0100
2000
,
0000
0001
3001
0100
0010
1000
0001
0200
,
0000
0001
0301
0100
0010
1000
0100
0001
,
0010
0000
0001
0100
0001
1000
0001
0200
,
0000
0010
0310
1000
0100
1000
0001
0020
,
0000
0100
0130
0010
0001
0100
0010
2000
,
0000
0100
3100
1000
0010
0100
0001
1000
,
0100
0000
0000
0000
1000
0000
0001
0100
0000
0001
0100
0000
0000
0000
0001
1000
,
0001
2000
3020
0230
,
0302
0000
1003
0001
0020
0000
0130
1000
,
0000
0000
0001
0100
0001
0100
0001
0100
0020
0000
0000
0000
1030
0000
0001
0000
,
0000
0000
1000
0010
1000
0010
1000
0010
0200
0000
0000
0000
0301
0000
1000
0001
,
1000
0100
0002
0000
0203
0000
2300
0000
,
3020
0000
1030
0001
0200
0000
0310
1000
,
0000
0000
0010
0100
0010
0100
0010
0100
0002
0000
0000
0000
1003
0000
0100
0000
,
0000
0000
1000
0010
1000
0010
1000
0010
0200
0000
0001
0000
0301
1000
0001
0000
,
0100
0000
0000
0010
0000
0000
1000
0000
0002
0000
0100
0000
0103
0000
0000
0000
,
0001
0010
1000
0001
1000
0100
0001
0000
,
0000
0000
0100
0010
0200
0000
0000
0000
0301
1000
0000
0000
0000
0000
1000
0000
,
0010
0000
0100
0000
0010
0000
1000
0000
0100
0000
0000
0010
0000
0000
0001
0000
,
2000
0000
0000
0002
0000
3000
0000
0013
0001
0000
0100
0000
1000
0000
0000
0000
,
0001
0010
0100
0010
0100
1000
0001
0000
,
1000
0000
0000
0010
0000
1000
0100
0000
0010
0000
0001
0000
0100
0000
0000
0000
,
0010
1000
0100
0010
0001
0100
1000
0000
,
0000
0010
0010
0100
0001
0100
0010
1000
,
0100
0000
0000
0000
1000
0000
0010
0000
1000
0000
0000
0100
0000
0000
0001
0000
,
2000
0000
3001
0010
0001
0100
1000
0000
,
0010
0000
1000
0000
0100
0000
1000
0000
0010
0000
0100
0000
0001
1000
0002
0000
,
0000
0100
0103
0010
1000
0100
0001
0020
,
0000
0001
0031
0100
0010
1000
0001
0200
,
0000
0010
0310
0100
0001
1000
0100
0010
,
0001
0000
1000
0010
1000
0001
1000
0200
,
0000
1000
1300
0010
0100
0010
1000
0002
,
0000
0100
0103
0001
1000
0100
1000
0020
,
0000
1000
1030
0001
1000
0100
0010
0001
,
0100
0000
0000
0000
0001
0000
0010
0000
0001
0000
1000
0000
0001
0100
0001
0000
,
1000
0020
2030
3002
,
2003
0000
3200
0000
,
0300
0000
0000
0000
;

//---------------dance-single - ----------------
#NOTES:
     dance-single:
     :
     Medium:
     9:
     0.316650,0.316172,0.066915,0.334574,0.000000,265.000000,257.000000,8.000000,40.000000,0.000000,0.000000,0.316650,0.316172,0.066915,0.334574,0.000000,265.000000,257.000000,8.000000,40.000000,0.000000,0.000000:
0000
0000
0000
0000
,
0000
0000
0000
0000
,
0000
0000
0000
0000
,
0000
0000
0000
0000
0000
0000
0000
1000
,
0001
2000
3020
0230
,
0302
0000
0013
0000
2000
0000
3100
0010
,
0000
0001
0100
0001
2000
0000
3000
0000
,
0000
0010
1000
0010
0200
0000
0301
1000
,
0001
0010
0001
0100
,
1000
0010
1000
0010
1000
0000
0001
0000
,
1000
0000
0100
0000
1000
0001
0100
0000
,
0010
1000
0100
0000
1010
0000
0101
0000
,
0010
1000
0001
1000
,
0100
0010
0100
0010
0100
0000
1000
0000
,
0010
0000
1000
0100
1000
0000
0000
0000
,
0001
0100
0001
0100
0001
0000
1000
0020
,
0000
0130
0001
0100
0010
0000
1000
0002
,
0000
0013
0001
0010
0100
0000
1000
0002
,
0000
1003
0010
1000
0100
0000
0010
0001
,
0100
0000
0010
0000
0100
0000
0010
2000
,
0000
3100
1000
0100
0010
0000
0001
2000
,
0000
3010
0100
0010
1000
0000
0001
0200
,
0000
0301
0010
0100
0010
0000
0001
1000
,
0100
0000
1000
0000
0010
0000
1000
0001
,
0010
0200
0320
0032
,
2003
0000
3010
0000
0002
0000
0103
0010
,
0000
1000
0010
1000
0002
0000
0003
0000
,
0000
0010
0001
0100
0020
0000
0030
1000
,
0001
2000
3200
0320
,
0032
0000
1003
0000
0020
0000
1030
0100
,
0000
1000
0001
1000
0002
0000
0003
0000
,
0000
0010
0001
0100
0002
0000
1003
0100
,
1000
0001
1000
0010
,
0100
0001
0010
0001
0100
0000
0110
0000
,
0000
0010
1000
0000
0001
1000
0000
0000
,
0010
1000
0100
0000
1100
0000
0011
0000
,
2000
0000
3002
0000
0103
0001
0010
0000
,
0010
0001
0100
0001
1000
0000
1001
0000
,
0010
0000
0100
0001
1000
0000
0000
0000
,
0001
0010
0100
0010
0100
0000
1000
0000
,
0000
0001
0100
0000
0110
0000
1001
0000
,
0010
0000
1000
0100
1000
0000
0001
0000
,
0010
0000
0001
0000
1000
0001
0100
0000
,
0001
0010
0100
0010
0100
0000
1000
0002
,
0000
1003
0001
1000
0010
0000
0100
0002
,
0000
0013
0100
0010
0001
0000
1000
0200
,
0000
0310
0100
1000
0010
0000
1000
0001
,
0100
0000
0010
0000
0100
0000
0010
2000
,
0000
3001
1000
0100
1000
0000
0100
0020
,
0000
0031
0100
0010
1000
0000
0100
2000
,
0000
3010
1000
0001
1000
0000
0010
0100
,
0001
0000
1000
0000
0001
0000
0010
0100
,
1000
0020
0230
0302
,
2003
0000
3200
0000
,
0300
0000
0000
0000
;

//---------------dance-single - ----------------
#NOTES:
     dance-single:
     :
     Easy:
     6:
     0.186406,0.203254,0.016729,0.117101,0.000000,156.000000,154.000000,2.000000,14.000000,0.000000,0.000000,0.186406,0.203254,0.016729,0.117101,0.000000,156.000000,154.000000,2.000000,14.000000,0.000000,0.000000:
0000
0000
0000
0000
,
0000
0000
0000
0000
,
0000
0000
0000
0000
,
0000
0000
0000
0000
,
0000
1000
0010
0100
,
0002
0003
2000
3000
,
0000
0001
0200
0300
,
0000
0001
0020
0030
,
0001
1000
0100
0000
,
1000
0010
1000
1000
,
0100
0010
0001
0000
,
0010
0001
0100
0000
,
0001
0001
1000
0000
,
0010
1000
0100
0100
,
1000
0001
1000
0000
,
0001
0010
0001
0100
,
0010
1000
0100
1000
,
0001
0010
0001
0100
,
0010
1000
0100
0010
,
0001
0000
0000
0000
,
1000
0010
1000
0001
,
0010
0001
0010
0100
,
1000
0010
0100
0001
,
1000
0100
0100
0000
,
0000
1000
0010
0100
,
0002
0003
2000
3000
,
0000
0100
0020
0030
,
0000
0001
0200
0300
,
0000
0001
0010
0100
,
2000
3000
0002
0003
,
0000
1000
0020
0030
,
0000
1000
0200
0300
,
1000
0001
0100
0000
,
0001
1000
0001
0001
,
0010
0100
1000
0000
,
0010
1000
0001
0001
,
0100
0010
0110
0000
,
1000
0100
1000
0001
,
0010
0001
0100
0000
,
0001
1000
0001
0100
,
0000
0010
0010
1000
,
1001
0100
0001
0000
,
0010
0010
0100
0000
,
1000
0010
1000
0001
,
0010
0100
0010
0001
,
0100
0010
1000
0001
,
1000
0100
0010
0001
,
0100
0000
0000
0000
,
0001
1000
0100
1000
,
0010
0100
0001
0010
,
0100
0010
0001
1000
,
0001
0000
0000
0000
,
0000
1000
0001
0010
,
0002
0003
0200
0000
,
0300
0000
0000
0000
;

//---------------dance-single - ----------------
#NOTES:
     dance-single:
     :
     Beginner:
     2:
     0.113516,0.134248,0.050186,0.000000,0.000000,95.000000,89.000000,6.000000,0.000000,0.000000,0.000000,0.113516,0.134248,0.050186,0.000000,0.000000,95.000000,89.000000,6.000000,0.000000,0.000000,0.000000:
// measure 0
0000
0000
0000
0000
,  // measure 1
0000
0000
0000
0000
,  // measure 2
0000
0000
0000
0000
,  // measure 3
0000
0000
0000
0000
,  // measure 4
1000
0000
0001
0000
,  // measure 5
1000
0000
0100
0000
,  // measure 6
0000
0000
0110
0000
,  // measure 7
0000
0000
1001
0000
,  // measure 8
0010
0000
0010
0000
,  // measure 9
1000
0000
0001
0000
,  // measure 10
1000
0000
0100
0000
,  // measure 11
0010
0000
0010
0000
,  // measure 12
0001
0000
0100
0000
,  // measure 13
0001
0000
1000
0000
,  // measure 14
0010
0000
0010
0000
,  // measure 15
0100
0000
0100
0000
,  // measure 16
0001
0000
1000
0000
,  // measure 17
0001
0000
0010
0000
,  // measure 18
0100
0000
1000
0000
,  // measure 19
1000
0000
0000
0000
,  // measure 20
0001
0000
0010
0000
,  // measure 21
0001
0000
1000
0000
,  // measure 22
0010
0000
0100
0000
,  // measure 23
0100
0000
0000
0000
,  // measure 24
0001
0000
0010
0000
,  // measure 25
0001
0000
0100
0000
,  // measure 26
0000
0000
0110
0000
,  // measure 27
0000
0000
1001
0000
,  // measure 28
1000
0000
0010
0000
,  // measure 29
0100
0000
0001
0000
,  // measure 30
0000
0000
0110
0000
,  // measure 31
0000
0000
1001
0000
,  // measure 32
0001
0000
1000
0000
,  // measure 33
0100
0000
0010
0000
,  // measure 34
0001
0000
1000
0000
,  // measure 35
0001
0000
0100
0000
,  // measure 36
0010
0000
0010
0000
,  // measure 37
1000
0000
0100
0000
,  // measure 38
1000
0000
0001
0000
,  // measure 39
0010
0000
0100
0000
,  // measure 40
0000
0000
1000
0000
,  // measure 41
1000
0000
0001
0000
,  // measure 42
0010
0000
0001
0000
,  // measure 43
0100
0000
0010
0000
,  // measure 44
1000
0000
1000
0000
,  // measure 45
0001
0000
0010
0000
,  // measure 46
0001
0000
0100
0000
,  // measure 47
0100
0000
0000
0000
,  // measure 48
0010
0000
0100
0000
,  // measure 49
0010
0000
1000
0000
,  // measure 50
0001
0000
0100
0000
,  // measure 51
0100
0000
0000
0000
,  // measure 52
0001
0000
1000
0000
,  // measure 53
0010
0000
0100
0000
;
