#TITLE:DYNAMITE RAVE (B4 ZA BEAT MIX);
#SUBTITLE:;
#ARTIST:NAOKI;
#TITLETRANSLIT:;
#SUBTITLETRANSLIT:;
#ARTISTTRANSLIT:;
#GENRE:;
#CREDIT:;
#BANNER:DYNAMITE RAVE (B4 ZA BEAT MIX)-bn.png;
#BACKGROUND:DYNAMITE RAVE (B4 ZA BEAT MIX)-bg.png;
#LYRICSPATH:;
#CDTITLE:;
#MUSIC:DYNAMITE RAVE (B4 ZA BEAT MIX).ogg;
#OFFSET:0.000000;
#SAMPLESTART:50.817001;
#SAMPLELENGTH:20.000000;
#SELECTABLE:YES;
#DISPLAYBPM:170.000000;
#BPMS:0.000000=170.022003
;
#STOPS:
;
#BGCHANGES:21.000=DYNAMITE RAVE (B4 ZA BEAT MIX).mp4=1.000=1=0=0=StretchNoLoop==CrossFade==,
99999=-nosongbg-=1.000=0=0=0 // don't automatically add -songbackground-
;
#KEYSOUNDS:;
#ATTACKS:;

//---------------dance-single - ----------------
#NOTES:
     dance-single:
     :
     Medium:
     10:
     0.526929,0.662356,0.393590,0.056227,0.056227,328.000000,293.000000,35.000000,5.000000,0.000000,0.000000,0.526929,0.662356,0.393590,0.056227,0.056227,328.000000,293.000000,35.000000,5.000000,0.000000,0.000000:
0000
0000
0000
0000
,
0000
0000
0000
0000
,
0000
0000
0000
0000
,
0020
0000
0000
0030
,
2000
0000
0000
3000
,
0200
0000
0000
0300
,
0002
0000
0000
0003
,
0010
0000
1000
0000
0001
0000
0100
0010
0000
0010
0100
0000
0001
0000
1000
0000
,
0001
0000
0100
0000
0010
0000
1000
0001
0000
0001
1000
0000
0010
0000
0100
0000
,
0001
0000
0100
0000
0001
0000
0010
0100
0000
0100
0010
0000
0001
0000
0100
0000
,
0010
0000
1000
0000
0001
0000
1000
0100
0000
0100
1000
0000
0001
0000
0000
0000
,
0000
0010
0000
0010
0000
1000
0000
0001
,
0000
0100
0000
0100
0000
0001
0000
0010
,
0000
0001
0000
0001
0000
0100
0000
0010
,
0000
1000
0000
1000
0000
0100
0000
0010
,
0000
1001
0000
0010
0000
0100
0000
0001
,
0000
1010
0000
0100
0000
0010
0000
1000
,
0000
0110
0000
0001
0000
0010
0000
1000
,
0000
0101
0000
0010
0000
1000
0000
0001
,
0200
0000
0000
0300
,
0010
1000
0010
0000
0100
0001
0100
0000
,
0010
0100
0001
0000
0010
0100
1000
0000
,
0001
1000
0100
0000
1000
0001
0100
0000
,
0001
1000
0010
0000
1000
0001
0010
0000
,
0001
0100
0010
0000
1000
0100
0010
0000
,
0001
0010
0100
0000
1000
0010
0100
0000
,
0010
1000
0100
0000
0010
0001
0100
0000
,
0001
0010
0001
0000
1000
0100
1000
0000
,
0110
0000
1001
0000
1000
0100
0001
0000
,
0100
1000
0010
0000
1000
0001
0100
0000
,
0010
0001
0100
0000
0010
0001
0100
0000
,
0001
0100
1000
0000
0100
0001
0010
0000
,
0010
1000
0001
0000
0010
0001
1000
0000
,
0010
1000
0010
0000
0010
0001
0010
0000
,
0001
0100
0010
0000
1000
0100
0010
0000
,
0001
1000
0100
0000
1000
0001
0100
0000
,
1010
0001
0011
1000
,
0010
0000
1000
0001
0000
1000
0000
0010
,
0000
0100
0001
0000
1000
0100
0000
0010
,
0000
0001
1000
0000
0110
0000
1001
0000
,
0000
0110
1001
0000
,
0001
1000
0100
0010
0000
0000
0010
0000
,
0001
1000
0010
0100
0001
0100
0010
1000
,
0001
0100
0010
0000
,
1001
1001
1001
1001
,
0110
0000
1001
0000
1000
0001
1000
0000
,
0010
1000
0100
0000
0010
0001
0100
0000
,
0001
1000
0010
0000
1000
0001
0010
0000
,
0100
0010
0001
0000
0100
0010
1000
0000
,
0001
1000
0100
0000
1000
0001
0100
0000
,
0010
0100
0010
0000
0100
0010
0100
0000
,
0010
1000
0100
0000
0010
0001
0100
0000
,
0001
1000
0001
0000
1000
0001
1000
0000
,
0110
1000
0110
0001
,
0010
0001
1000
0100
,
1000
0100
1001
0010
,
0100
0001
0110
1000
,
0001
0110
0110
1000
,
0010
1000
0001
0100
,
0011
1100
0101
1010
,
1001
0110
1001
0110
,
0001
0000
1000
0000
0000
0110
0000
0000
1001
0000
0000
0110
0000
0000
1000
0000
,
0001
0000
0000
0000
;

//---------------dance-double - ----------------
#NOTES:
     dance-double:
     :
     Medium:
     10:
     0.494799,0.592634,0.314872,0.089963,0.022491,308.000000,280.000000,28.000000,8.000000,0.000000,0.000000,0.494799,0.592634,0.314872,0.089963,0.022491,308.000000,280.000000,28.000000,8.000000,0.000000,0.000000:
00000000
00000000
00000000
00000000
,
00000000
00000000
00000000
00000000
,
00000000
00000000
00000000
00000000
,
00000020
00000000
00000000
00000030
,
00002000
00000000
00000000
00003000
,
00020000
00000000
00000000
00030000
,
00200000
00000000
00000000
00300000
,
02000000
00000000
00010000
03010000
,
00200000
00000000
00001000
00301000
,
00010000
00000100
00010000
00001000
,
00000100
00000000
00001000
00000000
00010000
00000000
00001000
00010000
00000000
00010000
00001000
00000000
00010000
00000000
00000000
00000000
,
00000000
00100000
00000000
10000000
00000000
01000000
00000000
00010000
,
00000000
00001000
00000000
00000100
00000000
00000001
00000000
00000010
,
00000000
00000010
00000000
00000001
00000000
00000100
00000000
00001000
,
00000000
00010000
00000000
01000000
00000000
10000000
00000000
00100000
,
00000000
00100000
00000000
10000000
00000000
00100000
00000000
01000000
,
00000000
00010000
00000000
10000000
00000000
01000000
00000000
00010000
,
00000000
00001000
00000000
00000100
00000000
00000001
00000000
00001000
,
00000000
00000100
00000000
00000010
00000000
00000001
00000000
00000010
,
00000200
00000000
00000000
00000300
,
00001000
00000001
00000100
00000000
00000001
00001000
00000100
00000000
,
00000010
00000001
00000100
00000000
00000001
00000100
00001000
00000000
,
00010000
01000000
10000000
00000000
00100000
10000000
01000000
00000000
,
10000000
00010000
01000000
00000000
00010000
10000000
01000000
00000000
,
00010000
00001000
00000100
00000000
00001000
00010000
01000000
00000000
,
00010000
00001000
00000010
00000000
00001000
00010000
00100000
00000000
,
10000000
00100000
00010000
00000000
00001000
00000010
00000001
00000000
,
00000001
00000100
00001000
00000000
00010000
01000000
10000000
00000000
,
01010000
00000000
01010000
00000000
10000000
01000000
00010000
00000000
,
00001000
00000100
00000001
00000000
00000010
00000001
00000100
00000000
,
00000010
00001000
00000100
00000000
00001000
00000001
00000100
00000000
,
00000010
00000100
00001000
00000000
00010000
00100000
01000000
00000000
,
00010000
10000000
01000000
00000000
10000000
00010000
01000000
00000000
,
00100000
10000000
01000000
00000000
00010000
00001000
00000100
00000000
,
00001000
00010000
01000000
00000000
00100000
00010000
01000000
00000000
,
00100000
00010000
00001000
00000000
00001010
00000000
00001001
00000000
,
00001000
00001100
00010000
01010000
,
00100000
00000000
10000000
01000000
00000000
00010000
00000000
00001000
,
00000000
00000100
00000001
00000000
00000010
00000001
00000000
00001000
,
00000000
00000001
00000100
00000000
00001000
00000000
00010000
00000000
,
00000000
00010010
00101000
00000000
,
00010000
10000000
01000000
00010000
00000000
00000000
00001000
00000000
,
00010000
00000100
00010000
00001000
00100000
00001000
00010000
00001000
,
00000100
00000001
00001001
00000000
,
00000120
00000100
00000100
00000130
,
00000001
00001000
00000100
00000000
00000010
00000001
00000100
00000000
,
00001000
00010000
00100000
00000000
10000000
00010000
01000000
00000000
,
00100000
10000000
01000000
00000000
00010000
00001000
00010000
00000000
,
00001000
00000100
00000010
00000000
00001000
00000001
00000010
00000000
,
00000100
00001000
00000100
00000000
00010000
00001000
00010000
00000000
,
00001000
00100000
00001000
00000000
01000000
00010000
01000000
00000000
,
00100000
10000000
01000000
00000000
00100000
00010000
01000000
00000000
,
00010000
10000000
01000000
00000000
00010000
00001000
00000100
00000000
,
00000001
00001100
00000010
00001100
,
00000001
00001010
00000010
00001001
,
00000010
00001100
00000110
00001001
,
00001010
00011000
00110000
10010000
,
01000000
00110000
01001000
00110000
,
00010100
00101000
00010100
00001010
,
00000010
00001000
00000100
00010000
00001000
00100000
00010000
10000000
,
01000000
00010000
00001000
00000100
,
00000001
00000000
00001000
00000000
00000000
00000001
00000000
00000000
00000100
00000000
00000000
00001000
00000000
00000000
00010000
00000000
,
01000000
00000000
00000000
00000000
;

//---------------dance-single - ----------------
#NOTES:
     dance-single:
     :
     Beginner:
     3:
     0.186353,0.244026,0.044982,0.000000,0.000000,116.000000,112.000000,4.000000,0.000000,0.000000,0.000000,0.186353,0.244026,0.044982,0.000000,0.000000,116.000000,112.000000,4.000000,0.000000,0.000000,0.000000:
0000
0000
0000
0000
,
0000
0000
0000
0000
,
0000
0000
0000
0000
,
0010
0000
0000
0000
,
0100
0000
0000
0000
,
0001
0000
0000
0000
,
1000
0000
0000
0000
,
0010
0000
0000
0000
,
0100
0000
0000
0000
,
0001
0000
0000
0000
,
1000
0000
0000
0000
,
0010
0000
0010
0000
,
0010
0000
0000
0000
,
1000
0000
1000
0000
,
1000
0000
0000
0000
,
0001
0000
0001
0000
,
0001
0000
0000
0000
,
0100
0000
0100
0000
,
0100
0000
0000
0000
,
0110
0000
0000
0000
,
0001
0000
1000
0000
,
0001
0000
0100
0000
,
0010
0000
1000
0000
,
0010
0000
0100
0000
,
0001
0000
1000
0000
,
0001
0000
0010
0000
,
0100
0000
0010
0000
,
0100
0000
1000
0000
,
0001
0000
1000
0000
,
0001
0000
0010
0000
,
0001
0000
0100
0000
,
0010
0000
1000
0000
,
0100
0000
1000
0000
,
0010
0000
0100
0000
,
0010
0000
1000
0000
,
0001
0001
0001
0001
,
0001
0000
1000
0000
,
0010
0010
0000
0000
,
0100
0000
0001
0000
,
1000
0000
0001
0001
,
0000
0010
0010
0000
,
0001
0000
0100
0000
,
0010
0000
1000
0000
,
0100
0100
0100
0000
,
1001
0000
0000
0000
,
0100
0000
0010
0000
,
0001
0000
0100
0000
,
0001
0000
0010
0000
,
0001
0000
1000
0000
,
0010
0000
0100
0000
,
0010
0000
1000
0000
,
0100
0000
0010
0000
,
0001
0001
0001
0001
,
0001
0000
0100
0000
,
0010
0010
0000
0000
,
1000
0000
0001
0000
,
1000
0000
0100
0100
,
0000
0010
0010
0000
,
0001
0000
0100
0000
,
0001
0000
1000
0000
,
0010
0010
0010
0000
,
1001
0000
0000
0000
,
0110
0000
0000
0000
;

//---------------dance-single - ----------------
#NOTES:
     dance-single:
     :
     Easy:
     6:
     0.348608,0.453191,0.247399,0.134945,0.000000,217.000000,195.000000,22.000000,12.000000,0.000000,0.000000,0.348608,0.453191,0.247399,0.134945,0.000000,217.000000,195.000000,22.000000,12.000000,0.000000,0.000000:
0000
0000
0000
0000
,
0000
0000
0000
0000
,
0000
0000
0000
0000
,
0020
0000
0000
0030
,
0200
0000
0000
0300
,
0002
0000
0000
0003
,
2000
0000
0000
3000
,
0001
0000
0001
0000
,
0010
0000
0010
0000
,
0001
0000
0001
0000
,
1000
0000
1000
0000
,
0010
1000
0010
0000
,
0100
0001
0100
0000
,
0001
0010
0001
0000
,
0010
0100
1000
0000
,
0010
1000
0001
0000
,
1000
0100
0010
0000
,
0001
1000
0001
0000
,
0100
0010
0100
0000
,
0110
0000
1001
0000
,
0010
1000
0100
0100
,
1000
0001
0100
0010
,
0100
0001
0010
0100
,
0010
0001
0100
0010
,
1000
0001
1000
0001
,
1000
0100
0010
0010
,
0001
0100
0010
1000
,
0001
1000
0001
0010
,
0100
0100
1000
1000
,
0010
0010
1000
0001
,
1000
0001
0010
0100
,
0100
0010
0100
1000
,
0010
1000
0001
1000
,
0001
0010
0001
0100
,
1000
0001
1000
0001
,
1001
0110
1001
0110
,
1000
0001
0100
0001
,
0010
0010
0010
0000
,
0100
1000
0001
0000
,
1000
0010
0110
1001
,
0000
0002
2000
3003
,
0010
1000
0100
0000
,
1000
1000
0001
0001
,
0110
1001
0110
0000
,
2000
3200
0320
0032
,
0103
0100
0001
1000
,
0001
0010
0001
0100
,
0010
0100
0001
0010
,
0100
1000
0010
0010
,
1000
0001
1000
0100
,
0010
0001
1000
0010
,
1000
0100
1000
0001
,
1001
0110
1001
0110
,
0100
0001
0010
0001
,
1000
1000
0010
0000
,
1000
0100
0001
0000
,
0010
0100
1001
0110
,
0000
0200
0020
0330
,
0100
0001
1000
0000
,
0001
0001
1000
1000
,
1001
0110
1001
0000
,
0110
1000
0100
0001
,
1001
0000
0000
0000
;

//---------------dance-single - ----------------
#NOTES:
     dance-single:
     :
     Hard:
     13:
     0.758263,0.732078,0.449817,0.067473,0.359854,472.000000,432.000000,40.000000,6.000000,0.000000,0.000000,0.758263,0.732078,0.449817,0.067473,0.359854,472.000000,432.000000,40.000000,6.000000,0.000000,0.000000:
0000
0000
0000
0000
,
0000
0000
0000
0000
,
0000
0000
0000
0000
,
0010
1000
0010
1000
0010
0100
0001
0000
,
0010
0001
0010
0001
0010
0100
1000
0000
,
0001
0100
0001
0100
0001
1000
0010
0000
,
1000
0100
1000
0100
1000
0001
0010
0000
,
0001
0000
0100
0000
0010
0000
0000
1000
0000
0000
0100
0000
1000
0000
0001
0000
,
0100
0000
0010
0000
1000
0000
0000
0100
0000
0000
0010
0000
0001
0000
0100
0000
,
0001
0000
0010
0000
0100
0000
0000
0010
0000
0000
0001
0000
1000
0000
0010
0000
,
1000
0000
0100
0000
1000
0000
0000
0010
0000
0000
0100
0000
0001
0000
1000
0000
,
0001
0000
0100
0000
0010
0000
1000
0010
0000
1000
0010
0000
0100
0000
0001
0000
,
0010
0000
0100
0000
1000
0000
0010
0100
0000
0010
0100
0000
0001
0000
1000
0000
,
0100
0000
0010
0000
0100
0000
1000
0001
0000
1000
0001
0000
0010
0000
0100
0000
,
1000
0000
0010
0000
1000
0000
0100
0010
0000
0100
0010
0000
0001
0000
0000
0000
,
1000
0000
0001
0000
0100
0000
0001
0010
0000
0001
0010
0000
0100
0000
1000
0000
,
0010
0000
0100
0000
0001
0000
1000
0100
0000
1000
0100
0000
0010
0000
0001
0000
,
1000
0000
0001
0000
0100
0000
0010
1000
0000
0010
1000
0000
0001
0000
0010
0000
,
0100
0000
0010
0000
0001
0000
1000
0001
0000
1000
0001
0000
0100
0000
0000
0000
,
0010
1000
0010
1000
0010
0000
0000
0000
0100
0001
0100
0001
0100
0000
0000
0000
,
0001
0000
0010
0000
1001
0000
0000
0000
1000
0100
1000
0100
1000
0000
0000
0000
,
0010
0100
1010
0000
0001
1000
0101
0000
,
0001
0000
0000
0010
0000
0000
1100
0000
0000
0000
0000
0000
1000
0000
0001
0000
1000
0000
0100
0000
0000
0000
0000
0000
,
0010
0001
0110
0000
1000
0100
0011
0000
,
0100
0000
0010
0000
1001
0000
0000
1000
0000
0001
1000
0000
1100
0000
0000
0000
,
0010
0000
0001
0000
0100
0000
0001
1000
0001
0000
0100
0000
0101
0000
0000
0000
,
0010
1000
0110
0000
1000
1000
1000
0001
,
0100
0000
0010
0000
1010
0000
0000
0001
1000
0000
0100
0000
0011
0000
0000
0100
,
0010
0000
1000
0000
0101
0000
0000
1000
0001
0000
0100
0000
1001
0000
0000
0000
,
0001
0010
0001
0100
1000
1000
1000
0000
,
0010
0000
1000
0100
1000
0000
0000
0000
0001
0000
0010
0100
0010
0000
0000
0000
,
0001
0100
0001
0000
1000
0000
0000
0000
0010
0100
0010
0100
0010
0000
0000
0000
,
1001
0000
0100
0000
0001
0000
0000
0000
0010
0000
0001
0000
1100
0000
0000
0001
,
1000
0000
0010
0100
0010
0000
0000
0000
1000
0000
0100
0000
0011
0000
0000
0000
,
0100
1000
1010
0000
0001
1000
0101
0000
,
0010
0000
1000
0001
0000
1000
0001
0000
0110
0000
0110
0000
0110
0000
0000
0000
,
2010
0000
3001
0000
2100
0000
3001
1000
,
0100
0001
0100
0010
0100
0000
1000
0001
,
0010
1000
0010
0100
0010
0001
0100
0010
,
0001
0010
1000
0010
0100
1000
0100
0001
,
0010
0000
1100
0000
0011
1000
0100
0000
,
0010
0001
0100
0001
1000
0100
0001
0000
,
1000
1000
1000
0010
0100
0001
0001
0000
,
0101
0000
0000
0000
1100
0000
0000
0000
0101
0000
0000
0000
1000
0001
1000
0001
,
2000
3200
0320
0032
,
0103
0000
0000
0000
0100
0000
0000
0000
0001
1000
0001
0000
0100
0000
0000
0000
,
0010
1000
0010
1000
0010
0000
0000
0100
0000
0000
0001
0000
1010
0000
0000
0000
,
1000
0000
0001
0100
0001
0000
0000
0000
0010
0000
0100
0000
0110
0000
0000
0000
,
1000
0001
1000
0001
1000
0000
0000
0010
0000
0100
0000
0010
1000
0000
0001
0000
,
0100
0000
0001
0000
0011
0000
0000
0000
0100
1000
0000
0100
1000
0000
0000
0000
,
0001
0000
0100
0000
0010
0000
1000
0100
0000
1000
0100
0000
0010
0000
0000
0000
,
0001
0000
0100
0000
1000
0000
0000
0000
0001
0000
1000
0010
1000
0000
0000
0000
,
0001
0100
0010
1000
0100
0100
0100
0010
,
0001
0000
1001
0000
1010
0000
0100
0001
,
0100
1000
0100
0010
0100
0000
0001
1000
,
0100
0010
0100
0001
0100
0010
0100
0001
,
0100
1000
0010
0001
0010
1000
0010
0100
,
0001
0000
0011
0000
0101
1000
0100
0000
,
0010
0001
0100
0001
1000
0100
0001
0000
,
0010
0010
0010
0001
0100
1000
1000
0000
,
1010
0000
0000
0000
0101
0000
0000
0000
1010
0000
0000
0000
0001
1000
0001
1000
,
0001
0000
0000
0010
0000
0000
0001
0000
0000
0100
0000
0000
0010
0000
1000
0000
,
0101
0000
0000
0000
;

//---------------dance-single - ----------------
#NOTES:
     dance-single:
     :
     Challenge:
     16:
     1.068316,1.150408,0.742198,0.044982,0.860276,665.000000,599.000000,66.000000,4.000000,0.000000,0.000000,1.068316,1.150408,0.742198,0.044982,0.860276,665.000000,599.000000,66.000000,4.000000,0.000000,0.000000:
0000
0000
0000
0000
,
0000
0000
0000
0000
,
0000
0000
0000
0000
,
0010
0000
1000
0000
0001
0000
1000
0100
0000
0100
0010
0000
0001
0000
1000
0000
,
0001
0000
0100
0000
0010
0000
1000
0001
0000
0001
0100
0000
0010
0000
1000
0000
,
0100
0000
1000
0000
0010
0000
0100
0001
0000
0001
1000
0000
0001
0000
0010
0000
,
0100
0000
0010
0000
0001
0000
0100
0010
0000
0010
1000
0000
0001
0100
0010
1000
,
0001
0000
0010
0000
0001
0000
0100
0010
0000
0010
1000
0000
0100
1000
0001
1000
,
0010
0000
0100
0000
0001
0000
1000
0010
0000
0010
0100
0010
1000
0001
1000
0100
,
0010
0001
0010
0001
0010
0001
0010
0001
1000
0100
1000
0100
1000
0100
1000
0100
,
1000
0010
1000
0010
0100
0001
0100
0001
0010
0100
0010
0100
1000
0001
1000
0001
,
0100
1010
1000
1001
0010
0011
0001
1100
,
0100
0101
0001
1010
1000
0101
0010
1010
,
1000
0011
0100
1100
0001
0110
0010
1100
,
0001
1001
0100
1100
0010
0011
1000
0110
,
0001
0011
1000
0101
0100
1010
0010
1001
,
0100
0011
0010
1001
0001
0110
1000
1010
,
0001
0101
0100
0011
0010
1100
1000
0011
,
0001
1100
0100
1010
1000
0101
0010
1100
,
0001
1000
0001
1000
0001
1000
0001
1000
0100
0000
0010
0001
1000
0001
1000
0001
,
0100
0000
0010
0000
1001
0000
0000
0010
1000
0100
0010
0001
0100
0000
0010
0000
,
1000
0100
0011
0000
0101
1000
0010
0100
,
0001
0000
0000
0010
0000
0000
0001
0000
0000
0000
0000
0000
1100
0000
0000
0000
0000
0000
0000
0000
0000
0000
0000
0000
0010
0000
0000
0000
1000
0000
0000
0000
0001
0000
0000
0000
0100
0000
0000
0000
0000
0000
0000
0000
0000
0000
0000
0000
,
1010
0001
1100
0000
0011
0100
0110
2000
,
3002
0000
0013
0000
1001
0000
0000
0010
1000
0100
1000
0000
1010
0000
0002
0000
,
2003
0000
3100
0000
0010
0000
0001
1000
0010
0000
0100
0000
0001
0000
0010
0001
,
0100
0000
0010
0000
0101
0000
1000
0010
1000
0000
0100
0000
0011
0000
0100
0000
,
1000
0000
0010
0000
0100
0000
0001
0010
0001
0100
0001
0010
0001
0100
0010
1000
,
0100
0000
0010
0000
1001
0000
1000
0010
0100
0010
1000
0001
0000
0010
0100
0000
,
1000
0000
0010
0000
0110
0000
0100
0001
0010
0001
0010
0100
1000
0000
0001
0000
,
0100
0001
0010
0001
0100
0000
0010
0000
1000
0001
1000
0100
0000
0100
0010
0000
,
0001
0000
0100
0000
0010
0000
1000
0001
0010
0100
0010
0001
0100
0010
1000
0001
,
0100
0000
0010
0000
1001
0000
0000
0000
1000
0010
0100
0001
0000
1000
0001
0010
,
0100
0000
1000
0010
1000
0000
0001
0100
0010
0100
0001
1000
0100
0010
0001
0000
,
1000
0100
0010
0000
0011
0000
0000
0000
1000
0001
1000
0010
0100
0001
1000
0000
,
0010
1000
0100
0010
0001
0100
0010
0000
1010
0000
0101
0000
1100
0000
0011
0000
,
1001
0010
1000
0100
0110
0001
0100
0010
,
1000
0001
1000
0000
0100
0000
0010
0000
0001
0000
0100
0000
0010
0000
1000
0000
,
0100
0000
0001
0000
0100
0000
1000
0000
0010
0000
0100
0001
0100
0000
0010
0000
,
0001
0000
0010
0000
1000
0000
0010
0000
0100
0001
1000
0001
0100
0000
0010
0000
,
1000
0000
1100
0001
0101
1000
0100
0010
,
0001
0100
0010
0001
0010
1000
0100
0001
,
0010
0010
0010
0001
0100
1000
1000
0001
,
0100
0010
0100
0001
1000
0000
0010
1000
0100
0000
0010
0001
1000
0001
0100
0010
,
1000
0000
0001
0100
0001
0000
1000
0100
1000
0000
0001
0100
0001
0010
0100
1000
,
0100
0000
0010
0000
0100
0000
1000
0010
1000
0001
0010
0100
1000
0000
0001
0000
,
0100
0010
1000
0001
0010
0000
0100
1000
0010
1000
0001
0010
0100
0000
1000
0000
,
0001
1000
0010
1000
0100
0000
0000
0000
0010
0001
0010
0100
0010
0001
1000
0000
,
0010
0100
0010
0000
1000
0000
0001
0010
0001
0100
0010
1000
0100
0010
0001
1000
,
0001
0000
0100
0000
1001
0000
0000
0000
1000
0010
1000
0001
0010
0001
0100
0000
,
0010
0000
1000
0000
0100
0000
0010
0001
0100
0001
0010
0001
1000
0000
0100
0000
,
1000
0000
0001
0000
1010
0000
0000
0000
0100
0001
0010
0001
0100
0010
1000
0000
,
0001
0010
0001
1000
0001
0100
0010
0000
1010
0000
0101
0000
1100
0000
0011
0000
,
1001
0100
0001
0010
0110
1000
0001
0100
,
1000
0100
0001
0010
0100
0010
0001
1000
,
0010
0000
0100
0000
1000
0000
0100
0000
0001
0000
1000
0010
1000
0000
0001
0000
,
0100
0010
0100
0000
0001
0000
1000
0000
0010
0100
0001
0100
0010
0000
1000
0000
,
0100
0000
0011
1000
1010
0001
0100
0000
,
0001
0010
0001
0100
1000
0010
0001
0100
,
0010
0010
0010
1000
0100
0001
0001
0000
,
1000
0100
0010
0001
0100
0000
0010
1000
0001
0000
1000
0100
0010
0001
0100
0010
,
1000
0100
0000
0100
0001
0000
1000
0010
0000
0010
0001
0000
0010
0100
1000
0001
,
0100
0000
0000
0000
;

//---------------dance-double - ----------------
#NOTES:
     dance-double:
     :
     Easy:
     6:
     0.345395,0.453191,0.202418,0.134945,0.000000,215.000000,197.000000,18.000000,12.000000,0.000000,0.000000,0.345395,0.453191,0.202418,0.134945,0.000000,215.000000,197.000000,18.000000,12.000000,0.000000,0.000000:
00000000
00000000
00000000
00000000
,
00000000
00000000
00000000
00000000
,
00000000
00000000
00000000
00000000
,
20000000
00000000
00000000
30000000
,
00020000
00000000
00000000
00030000
,
00002000
00000000
00000000
00003000
,
00000002
00000000
00000000
00000003
,
00000010
00000000
00000001
00000000
,
00000100
00000000
00000010
00000000
,
00010000
00000000
00001000
00000000
,
01000000
01000000
00100000
00100000
,
10000000
00000000
00010000
00100000
,
00010000
00000000
01000000
00001000
,
00010000
00000000
00000010
00001000
,
00000010
00000000
00001000
00000100
,
00000010
00000000
00000001
00000100
,
00000010
00000000
00010000
00000100
,
00001000
00000000
00010000
01000000
,
00100000
10000000
00010000
10000000
,
10010000
00000000
01100000
00000000
,
01000000
01000000
00010000
10000000
,
01000000
01000000
00100000
00010000
,
00100000
00001000
00010000
00000010
,
00000100
00000100
00000001
00000010
,
00000001
00000100
00000001
00000010
,
00000001
00001000
00000100
00010000
,
00001000
00100000
00001000
00010000
,
00000100
00000100
00000100
00000100
,
00010000
00001000
00100000
00010000
,
10000000
00100000
10000000
01000000
,
00100000
01000000
10000000
00100000
,
01000000
00001000
00010000
00000010
,
00000100
00000001
00000100
00000010
,
00001000
00001000
00000001
00000001
,
00000010
00000001
00000100
00000010
,
00001001
00000110
00001001
00000110
,
00001000
00000100
00010000
00000000
,
00001000
00010000
00000010
00000000
,
00010000
00001000
01000000
01000000
,
00100000
10000000
10010000
01100000
,
00000000
02000000
00200000
03300000
,
01000000
00010000
10000000
00000000
,
00010000
00100000
00010000
00001000
,
00000100
00000001
00000001
00000000
,
00002000
00003200
00000320
00000032
,
00000103
00000100
00000001
00000010
,
00000001
00000100
00000010
00001000
,
00000100
00010000
00001000
01000000
,
00100000
01000000
00010000
00010000
,
10000000
00010000
10000000
00100000
,
10000000
01000000
00100000
00001000
,
00010000
00000010
00001000
00000100
,
00001001
00000110
00001001
00000110
,
00010000
00001000
01000000
00000000
,
00100000
10000000
00100000
00000000
,
10000000
01000000
10000000
00000000
,
00010000
01000000
10010000
01100000
,
00000000
00002000
00020000
00033000
,
00001000
00000100
00000001
00000000
,
00000010
00000010
00000001
00001000
,
00001001
00000110
00001001
00000000
,
00010000
00010000
00001000
00001000
,
00011000
00000000
00000000
00000000
;

//---------------dance-double - ----------------
#NOTES:
     dance-double:
     :
     Hard:
     13:
     0.769509,0.766938,0.382345,0.112454,0.455440,479.000000,445.000000,34.000000,10.000000,0.000000,0.000000,0.769509,0.766938,0.382345,0.112454,0.455440,479.000000,445.000000,34.000000,10.000000,0.000000,0.000000:
00000000
00000000
00000000
00000000
,
00000000
00000000
00000000
00000000
,
00000000
00000000
00000000
00000000
,
00000100
00001000
00000010
00000000
00001000
00000100
00000001
00000000
,
00000010
00000001
00000100
00000000
00000001
00000010
00001000
00000000
,
00000100
00010000
00001000
00000000
00100000
00010000
01000000
00000000
,
00100000
10000000
01000000
00000000
10000000
00010000
01000000
00000000
,
00100000
00000000
10000000
00000000
00100000
00000000
00000000
01000000
00000000
00000000
00010000
00000000
10000000
00000000
01000000
00000000
,
00100000
00000000
00001000
00000000
00010000
00000000
00000000
00000010
00000000
00000000
00010000
00000000
00001000
00000000
00000100
00000000
,
00000001
00000000
00000010
00000000
00000001
00000000
00000000
00001000
00000000
00000000
00000010
00000000
00001000
00000000
00000100
00000000
,
00010000
00000000
00001000
00000000
00100000
00000000
00000000
00010000
00000000
00000000
01000000
00000000
00100000
00000000
10000000
00000000
,
01000000
00000000
00100000
00000000
00010000
00000000
10000000
00010000
00000000
10000000
00010000
00000000
01000000
00000000
00001000
00000000
,
00010000
00000000
00000010
00000000
00001000
00000000
00000100
00000010
00000000
00000100
00000010
00000000
00000001
00000000
00001000
00000000
,
00000010
00000000
00001000
00000000
00000100
00000000
00000010
00000001
00000000
00000010
00000001
00000000
00001000
00000000
00000010
00000000
,
00010000
00000000
00001000
00000000
00100000
00000000
01000000
00100000
00000000
01000000
00100000
00000000
00001000
00000000
00000000
00000000
,
00010000
00000000
00001000
00000000
01000000
00000000
00100000
10000000
00000000
00100000
10000000
00000000
01000000
00000000
00100000
00000000
,
00001000
00000000
00010000
00000000
00000100
00000000
00000010
00000001
00000000
00000010
00000001
00000000
00001000
00000000
00000010
00000000
,
00000100
00000000
00000010
00000000
00010000
00000000
00001000
01000000
00000000
00001000
01000000
00000000
00010000
00000000
00100000
00000000
,
00001000
00000000
00010000
00000000
00000100
00000000
00000010
00000001
00000000
00000010
00000001
00000000
00001000
00000000
00000100
00000000
,
00010000
00001000
00010000
00001000
00010000
00000000
00000000
00000000
01000000
00100000
01000000
00100000
01000000
00000000
00000000
00000000
,
10000000
00000000
00010000
00000000
01100000
00000000
00000000
00000000
10000000
00100000
10000000
00100000
10000000
00000000
00000000
00000000
,
00010000
01000000
10100000
00000000
01000000
00100000
00101000
00000000
,
00000010
00000000
00000000
00000100
00000000
00000000
00000000
00000000
00000000
00000000
00000000
00000000
00010010
00000000
00000000
00000000
00000000
00000000
00000000
00000000
00000000
00000000
00000000
00000000
00001000
00000000
00000000
00000000
00000100
00000000
00000000
00000000
00001000
00000000
00000000
00000000
00000001
00000000
00000000
00000000
00000000
00000000
00000000
00000000
00000000
00000000
00000000
00000000
,
00000010
00000001
00001100
00000000
00000010
00010000
00000101
00000000
,
00010000
00000000
00010000
00000000
00010000
00000000
00000000
00001000
00000000
01000000
00100000
00000000
01000000
00000000
00000000
00000000
,
00010000
00000000
00100000
00000000
01000000
00000000
10000000
00100000
10000000
00000000
00010000
00000000
00110000
00000000
00000000
00000000
,
01000000
01000000
10010000
00000000
00100000
00100000
00100000
10000000
,
01000000
00000000
00100000
00000000
00001000
00000000
00000000
00010000
00000010
00000000
00000100
00000000
00000001
00000000
00000000
00000010
,
00000001
00000000
00000100
00000000
00001010
00000000
00000000
00000010
00010000
00000000
00001000
00010000
00000000
00001000
00010000
00000000
,
01000000
00000000
10000000
00000000
00100000
00000000
01000000
00010000
00000000
01000000
00010000
00000000
10000000
00000000
01000000
00000000
,
00001000
00000000
01000000
00000000
10000000
00000000
00000000
00000000
00100000
00000000
01000000
00010000
00000000
01000000
00010000
00000000
,
00100000
00000000
00001000
00000000
00010000
00000000
00000010
00000100
00000000
00000100
00000000
00000100
00000001
00000000
00001000
00000000
,
00000100
00000000
00000010
00000000
00000110
00000000
00000000
00000000
00000001
00000000
00001000
00000010
00000000
00001000
00000010
00000000
,
00000100
00000000
00000001
00001000
00000001
00000000
00000000
00000100
00000000
00000010
00000000
00000000
00010000
00000000
00001000
00000000
,
01000000
00010000
01000000
00000000
00100000
00000000
00000000
00000000
10000000
00000000
01000000
00100000
00000000
01000000
10000000
00000000
,
00010000
00000000
01000000
00100000
00000000
01000000
00100000
00000000
01100000
00000000
01100000
00000000
01100000
00000000
00000000
00000000
,
01002000
00013000
00020100
00030010
,
00001000
00000100
00010000
00000010
00000100
00000000
00000001
00001000
,
00000100
00000001
00000100
00001000
00000010
00000001
00000010
00010000
,
00001000
01000000
00100000
01000000
10000000
01000000
00010000
00100000
,
01000000
00000000
00000000
00000000
11000000
00000000
00000000
00000000
00101000
00000000
00000000
00001000
00010000
00000000
00000100
00000000
,
00001000
00000010
00000001
00000010
00001000
00000100
00010000
00000000
,
00001000
00001000
00001000
00010000
00000010
00000100
00000100
00000000
,
00000101
00000000
00000000
00000000
00001100
00000000
00000000
00000000
00000101
00000000
00000000
00000000
00001000
00000001
00001000
00000001
,
00002000
00003200
00000320
00000032
,
00000103
00000000
00000000
00000000
00000100
00000000
00000000
00000000
00000010
00000000
00010000
00001000
00000000
00010000
00001000
00000000
,
01000000
00100000
01000000
00100000
01000000
00000000
00000000
00010000
00000000
10000000
00000000
00000000
00100000
00000000
01000000
00000000
,
00001000
00000000
00010000
00000010
00010000
00000000
00000000
00000000
00000100
00000000
00001000
00000001
00000000
00001000
00000001
00000000
,
00000010
00000001
00000010
00000000
00000100
00000000
00010000
00001000
00000000
00001000
00000000
00001000
00100000
00000000
01000000
00000000
,
10000000
00000000
00100000
00000000
01010000
00000000
00000000
00000000
10000000
00100000
00000000
10000000
00100000
00000000
01000000
00000000
,
00010000
00000000
00100000
00000000
00010000
00000000
10000000
00100000
00000000
10000000
00100000
00000000
01000000
00000000
00010000
00000000
,
00100000
00000000
00001000
00000000
00010100
00000000
00000000
00000000
00000010
00000000
00000100
00000001
00000000
00000100
00000001
00000000
,
00001000
00000100
00001000
00000001
00000110
00000110
00000110
00000000
,
00010010
00000000
00001001
00000000
00000101
00000000
00000010
00001000
,
00000100
00010000
00001000
00100000
01000000
00000000
10000000
00010000
,
01000000
00100000
01000000
10000000
01000000
00010000
00100000
00001000
,
00010000
00000010
00000001
00000010
00010000
00001000
00010000
00000100
,
00000010
00000000
00000000
00000000
00001001
00000000
00000000
00000000
00011000
00000000
00000000
00010000
00001000
00000000
01000000
00000000
,
00100000
01000000
10000000
01000000
00010000
00100000
01000000
00000000
,
10000000
10000000
10000000
00100000
01000000
00010000
00010000
00000000
,
01010000
00000000
00000000
00000000
11000000
00000000
00000000
00000000
01010000
00000000
00000000
00000000
10000000
00010000
10000000
00010000
,
20000000
00000000
00000000
30200000
00000000
00000000
02300000
00000000
00000000
03020000
00000000
00000000
00130000
00000000
00001000
00000000
,
00011000
00000000
00000000
00000000
;

//---------------dance-double - ----------------
#NOTES:
     dance-double:
     :
     Challenge:
     16:
     1.063496,1.150408,0.652235,0.067473,0.882766,662.000000,604.000000,58.000000,6.000000,0.000000,0.000000,1.063496,1.150408,0.652235,0.067473,0.882766,662.000000,604.000000,58.000000,6.000000,0.000000,0.000000:
// measure 0
00000000
00000000
00000000
00000000
,  // measure 1
00000000
00000000
00000000
00000000
,  // measure 2
00000000
00000000
00000000
00000000
,  // measure 3
00100000
00000000
00001000
00000000
01000000
00000000
00100000
10000000
00000000
10000000
01000000
00000000
00100000
00000000
00010000
00000000
,  // measure 4
01000000
00000000
00100000
00000000
01000000
00000000
00001000
00010000
00000000
00001000
00010000
00000000
00000010
00000000
00000100
00000000
,  // measure 5
00000001
00000000
00000010
00000000
00000100
00000000
00010000
00001000
00000000
00010000
00001000
00000000
00100000
00000000
00010000
00000000
,  // measure 6
01000000
00000000
00100000
00000000
10000000
00000000
01000000
00100000
00000000
00100000
00010000
00000000
01000000
00100000
10000000
00010000
,  // measure 7
01000000
00000000
00100000
00000000
10000000
00000000
00010000
00100000
00000000
00100000
00001000
00000000
00010000
00000010
00001000
00000001
,  // measure 8
00000100
00000000
00000010
00000000
00001000
00000000
00000100
00000010
00000000
00000010
00000001
00000100
00000001
00001000
00000010
00000100
,  // measure 9
00000001
00000010
00000001
00000010
00000001
00000010
00000001
00000010
00000100
00001000
00000100
00001000
00000100
00001000
00000100
00001000
,  // measure 10
00000010
00010000
00000010
00010000
00001000
00100000
00001000
00100000
00010000
00000100
00010000
00000100
00010000
00001000
00010000
00001000
,  // measure 11
01000000
10100000
00010000
00110000
01000000
01100000
01000000
10010000
,  // measure 12
00100000
11000000
00100000
10010000
01000000
01001000
00010000
00000110
,  // measure 13
00001000
00000101
00000010
00010010
00001000
00000110
00001000
00001001
,  // measure 14
00000001
00000011
00001000
00001100
00000010
00010100
00001000
00101000
,  // measure 15
00010000
10010000
01000000
10100000
01000000
01100000
10000000
01001000
,  // measure 16
00010000
00110000
00100000
00010010
00001000
00001001
00000010
00001010
,  // measure 17
00000001
00001100
00000010
00000101
00000010
00001001
00000100
00001010
,  // measure 18
00010000
00010100
00001000
01001000
00010000
00110000
01000000
10100000
,  // measure 19
01000000
00010000
10000000
00010000
00100000
00000000
01000000
10000000
00100000
01000000
00100000
01000000
00100000
01000000
00010000
10000000
,  // measure 20
01000000
00000000
00100000
00000000
10010000
00000000
00000000
01000000
00100000
10000000
00010000
00100000
00001000
00000000
00010000
00000000
,  // measure 21
00000010
00000100
00001001
00000000
00000010
00010000
00001000
00010000
,  // measure 22
00001000
00000000
00000000
01000000
00000000
00000000
00100000
00000000
00000000
00000000
00000000
00000000
01100000
00000000
00000000
00000000
00000000
00000000
00000000
00000000
00000000
00000000
00000000
00000000
00100000
00000000
00000000
00000000
10000000
00000000
00000000
00000000
00010000
00000000
00000000
00000000
01000000
00000000
00000000
00000000
00000000
00000000
00100000
00000000
00000000
00000000
00000000
00000000
,  // measure 23
10000000
00000000
01000000
00000000
10100000
00000000
00000000
00000000
01000000
00000000
00010000
00100000
00010000
00000000
20000000
00000000
,  // measure 24
32000000
00000000
03100000
00000000
00001000
00000000
00010000
00000010
00001000
00000001
00001000
00000000
00000100
00000000
00000020
00000000
,  // measure 25
00000032
00000000
00000103
00000000
00000010
00000000
00001000
00000001
00000100
00000000
00000010
00000000
00010000
00000000
00002000
00000000
,  // measure 26
00203000
00000000
01300000
00000000
10000000
00000000
00010000
00000000
10000000
00100000
01000000
00000000
00001000
00000000
00010000
00000010
,  // measure 27
00000100
00000000
00000001
00000010
00000001
00000000
00001000
00000010
00001000
00000000
00000001
00000100
00000010
00000100
00000001
00001000
,  // measure 28
00000100
00000000
00010000
00000000
00011000
00000000
00000000
00001000
00100000
00010000
00100000
00001000
01000000
00100000
10000000
00000000
,  // measure 29
01000000
00000000
00100000
00000000
00010000
00000000
01000000
00100000
10000000
00100000
01000000
00010000
00100000
01000000
10000000
00000000
,  // measure 30
00010000
00100000
01000000
00100000
00001000
00000000
00000000
00000000
00010000
00000010
00000100
00000010
00001000
00000001
00000100
00000000
,  // measure 31
00000010
00001000
00000100
00000000
00000010
00000000
00000001
00001000
00000010
00000100
00000010
00010000
00001000
00100000
00010000
10000000
,  // measure 32
01000000
00000000
00100000
00000000
00101000
00000000
00000000
00000000
00010000
00000010
00000100
00000010
00001000
00000001
00000100
00000010
,  // measure 33
00001000
00000000
00000100
00000010
00000001
00000000
00000100
00000010
00001000
00000010
00010000
00001000
00100000
00000000
01000000
00000000
,  // measure 34
10000000
00010000
10000000
00000000
01010000
00000000
00000000
00000000
00100000
10000000
00100000
01000000
00100000
10000000
00010000
00000000
,  // measure 35
00100000
00001000
00010000
00000010
00001000
00000001
00000100
00000000
00001010
00000000
00000101
00000000
00001100
00000000
00000011
00000000
,  // measure 36
00001001
00000010
00001000
00000100
00011000
00100000
00010000
10000000
,  // measure 37
01000000
00010000
01000000
00100000
01000000
10000000
00100000
10000000
,  // measure 38
01000000
00000000
00100000
00000000
10000000
00000000
00100000
00000000
00001000
00000000
00010000
00000010
00010000
00000000
00000100
00000000
,  // measure 39
00000010
00000001
00000010
00000000
00000100
00000000
00010000
00000000
00001000
01000000
00010000
01000000
00001000
00000000
00100000
00000000
,  // measure 40
01000000
00000000
11000000
00010000
01010000
10000000
01000000
00100000
,  // measure 41
00001000
00010000
00000010
00000100
00010000
00000100
00000001
00000000
,  // measure 42
00001000
00001000
00001000
00000010
00010000
01000000
01000000
10000000
,  // measure 43
00100000
01000000
00010000
10000000
01000000
00000000
10000000
00100000
01000000
00000000
00010000
00100000
00001000
00010000
00000010
00001000
,  // measure 44
00000100
00000000
00001000
00000001
00001000
00000000
00000010
00000100
00000010
00000000
00001000
00000001
00001000
00000000
00000100
00000010
,  // measure 45
00000100
00000000
00000000
00000000
00000100
00000000
00000000
00000000
00010000
00000010
00010000
00001000
00100000
00010000
01000000
00000000
,  // measure 46
00100000
10000000
01000000
10000000
00010000
00000000
00100000
00010000
01000000
00100000
10000000
01000000
10000000
00010000
00100000
00000000
,  // measure 47
01000000
10000000
00100000
10000000
00010000
00000000
00000000
00000000
00100000
00010000
10000000
00010000
01000000
00001000
00010000
00000000
,  // measure 48
00000010
00010000
00000100
00000000
00001000
00000000
00000010
00000100
00000010
00001000
00000001
00000010
00000100
00000010
00000001
00001000
,  // measure 49
00000100
00000000
00000010
00000000
00001001
00000000
00000000
00000000
00001000
00000010
00000100
00000010
00001000
00000001
00000100
00000000
,  // measure 50
00000010
00010000
00001000
00000000
00100000
00000000
01000000
00100000
01000000
10000000
00010000
01000000
00010000
00100000
00001000
00000000
,  // measure 51
00010000
00000010
00001000
00000000
00001100
00000000
00000000
00000000
00000010
00000001
00001000
00000010
00010000
00001000
01000000
00000000
,  // measure 52
00100000
10000000
00010000
00100000
01000000
10000000
00010000
00000000
10100000
00000000
01010000
00000000
00110000
00000000
11000000
00000000
,  // measure 53
10010000
00100000
10000000
01000000
00011000
00001000
00010000
00000010
,  // measure 54
00000100
00010000
00000100
00000010
00001000
00000100
00010000
00001000
,  // measure 55
01000000
00000000
00100000
00000000
01000000
00000000
10000000
00000000
01000000
00000000
00001000
00010000
00001000
00000000
00000010
00000000
,  // measure 56
00001000
00000001
00001000
00000000
00000010
00000000
00000100
00000000
00000010
00010000
00001000
00010000
00000010
00000000
00000100
00000000
,  // measure 57
00000001
00000000
00000011
00001000
00001010
00000001
00000100
00000010
,  // measure 58
00001000
00000100
00010000
00001000
01000000
10000000
01000000
00000000
,  // measure 59
00010000
00010000
00010000
00100000
01000000
10000000
10000000
00010000
,  // measure 60
01000000
00100000
01000000
00010000
10000000
00000000
01000000
00100000
00001000
00000000
00010000
00000010
00001000
00000001
00001000
00000100
,  // measure 61
00010000
00000010
00000000
00000010
00000100
00000000
00000100
00000001
00000000
00000001
00000010
00000000
00000100
00001000
00000001
00000000
,  // measure 62
00001010
00000000
00000000
00000000
;
