#TITLE:DROP;
#ARTIST:dj TAKA feat. Kanako Hoshino;
#BANNER:DROP.png;
#BACKGROUND:DROP-bg.png;
#JACKET:DROP-jacket.png;
#MUSIC:DROP.ogg;
#SAMPLESTART:52.1;
#SAMPLELENGTH:20;
#DISPLAYBPM:152;
#BPMS:0=152.2,4=152;
#BGCHANGES:0=DROP.avi=1=1=0=0=StretchNoLoop==CrossFade==,
;

//---------------dance-single - ----------------
#NOTES:
     dance-single:
     :
     Beginner:
     1:
     :
0000
0000
0000
0000
,
0000
0000
0000
0000
,
0000
0000
0000
0000
,
0000
0000
0000
0000
,
0000
0000
0000
0000
,
0000
0000
0000
0000
,
0000
0000
0000
0000
,
0000
0000
0000
0000
,
0000
0000
0000
0000
,
0001
0000
0000
0000
,
0001
0000
0000
0000
,
1000
0000
0000
0000
,
1000
0000
0000
0000
,
0001
0000
0000
0000
,
0001
0000
0000
0000
,
1000
0000
0000
0000
,
1000
0000
0000
0000
,
0010
0000
0010
0000
,
0010
0000
0000
0000
,
0100
0000
0100
0000
,
0100
0000
0000
0000
,
0001
0000
0000
0000
,
1000
0000
0000
0000
,
0001
0000
0000
0000
,
0100
0000
0000
0000
,
0001
0000
0001
0000
,
0001
0000
0000
0000
,
1000
0000
1000
0000
,
1000
0000
0000
0000
,
0001
0000
0000
0000
,
0100
0000
0000
0000
,
0010
0000
0010
0000
,
0010
0000
0000
0000
,
1000
0000
0000
0000
,
0000
0000
0000
0000
,
0001
0000
0000
0000
,
0000
0000
0000
0000
,
0001
0000
0000
0000
,
0100
0000
0000
0000
,
0001
0000
0000
0000
,
0100
0000
0000
0000
,
1000
0000
0000
0000
,
1000
0000
0000
0000
,
0001
0000
0000
0000
,
0001
0000
0000
0000
,
0100
0000
0000
0000
,
1000
0000
0000
0000
,
0100
0000
0000
0000
,
0000
0000
0000
0000
,
1000
0000
0000
0000
,
0001
0000
0000
0000
,
0010
0000
0000
0000
,
0000
0000
0000
0000
,
0100
0000
0000
0000
,
0000
0000
0000
0000
,
1000
0000
0000
0000
,
0001
0000
0000
0000
,
0010
0000
0000
0000
,
1000
0000
1000
0000
,
1000
0000
0000
0000
,
0001
0000
0001
0000
,
0001
0000
0000
0000
,
0100
0000
0000
0000
,
0010
0000
0000
0000
,
1001
0000
0000
0000
,
1000
0000
1000
0000
,
1000
0000
1000
0000
,
0001
0000
0001
0000
,
0001
0000
0001
0000
,
0100
0000
0000
0000
,
0010
0000
0000
0000
,
1000
0000
1000
0000
,
0001
0000
0001
0000
,
1001
0000
0000
0000
,
0000
0000
0000
0000
;

//---------------dance-single - ----------------
#NOTES:
     dance-single:
     :
     Easy:
     4:
     :
0000
0000
0000
0000
,
0000
0000
0000
0000
,
0000
0000
0000
0000
,
0000
0000
0000
0000
,
0000
0000
0000
0000
,
0000
0000
0000
0000
,
0000
0000
0000
0000
,
0000
0000
0000
0000
,
0000
0000
0000
0000
,
1000
0000
0000
0000
,
1000
0000
1000
0000
,
0100
0000
0000
0000
,
0001
0000
0001
0000
,
0100
0000
0000
0000
,
0100
0000
0000
0000
,
1000
0000
0001
0000
,
1001
0000
0000
0000
,
1000
1000
0001
0001
,
2000
0000
3000
0000
,
0001
0001
1000
1000
,
0200
0000
0300
0000
,
0001
0001
0002
0003
,
0100
0100
0200
0300
,
0001
0010
0100
1000
,
0001
1000
1001
0000
,
1000
1000
2000
3000
,
0001
0001
0100
0000
,
0001
0001
1000
1000
,
0100
0010
0100
0000
,
0001
0001
0002
0003
,
0100
0100
0200
0300
,
0010
0010
0010
0010
,
1001
0000
0000
0000
,
0001
0000
0000
0000
,
0100
0000
1000
0000
,
0001
0001
0001
0000
,
0100
0000
0001
0000
,
0200
0000
0300
0000
,
0010
0000
1000
0000
,
0020
0000
0030
0000
,
0100
0000
0000
0000
,
0001
0010
0010
0000
,
1000
0000
0001
0000
,
0100
0010
0010
0000
,
0001
0000
1000
0000
,
0001
0010
0001
0000
,
1000
0010
1000
0000
,
0010
0010
0100
0100
,
0010
0000
0000
0000
,
0200
0000
0000
0300
,
2000
0000
0000
3000
,
2002
0000
0000
0000
,
3003
0000
0000
0000
,
0020
0000
0000
0030
,
0200
0000
0000
0300
,
0002
0000
0000
0003
,
2000
0000
0000
3000
,
0001
0000
0010
0000
,
1000
0000
0100
0000
,
0001
0000
0010
0000
,
1000
0000
0100
0000
,
0001
1000
0001
0000
,
0100
0100
0100
0000
,
0020
0000
0000
0030
,
0200
0000
0300
0000
,
1000
1000
0001
1000
,
0001
0001
0010
0000
,
0100
0010
0100
0010
,
0001
0010
0100
0000
,
1000
1000
1000
1000
,
0001
0010
0100
1000
,
0001
0001
0001
0001
,
0100
0010
0110
0000
,
1001
0000
0000
0000
,
0000
0000
0000
0000
;

//---------------dance-single - ----------------
#NOTES:
     dance-single:
     :
     Medium:
     7:
     :
0000
0000
0000
0000
,
0000
0000
0000
0000
,
0000
0000
0000
0000
,
0000
0000
0000
0000
,
0000
0000
0000
0000
,
0000
0000
0000
0000
,
0000
0000
0000
0000
,
0000
0000
0000
0000
,
0000
0000
0000
0000
,
0001
0000
1000
0000
,
0001
0000
1000
0000
,
0001
0000
0010
0000
,
0001
0010
0100
1000
,
0001
0000
1000
0000
,
0001
0100
0010
0100
,
0001
0000
1000
0000
,
1001
0000
0000
0000
,
0020
1030
0020
0031
,
2002
0000
3003
0000
,
2000
3100
0002
0103
,
0220
0000
0330
0000
,
2010
0000
3100
0010
0001
0000
0000
0000
,
0012
0000
1003
0100
0010
0000
0000
0000
,
0001
0010
0100
1000
,
0001
0100
0101
0000
,
1000
0000
0001
0010
0100
0000
0000
0000
,
1000
0010
0001
0100
,
1010
1010
1001
1001
,
0010
0000
0010
0000
0100
0100
0100
0000
,
0001
0000
1000
0010
0100
0000
0000
0000
,
0001
1000
1000
0001
,
0011
1000
0011
0100
,
0011
0000
1000
0000
0010
1000
0100
0000
,
0002
0000
0010
0013
,
0001
1000
0001
0100
,
0010
0000
0100
0100
,
0001
0000
1000
0000
0010
0000
0100
0001
,
0100
0020
0000
0030
,
1000
1000
0001
0001
,
0100
1000
1000
0000
0010
0001
0001
0000
,
1001
0000
0000
0000
,
1000
1100
0001
0100
,
0010
1000
0100
0001
,
0010
0101
0010
1100
,
0001
0000
0001
0000
1000
0100
0100
0000
,
1001
0000
0100
0100
,
0011
0000
0010
0010
,
1100
0000
0100
0010
,
0100
0000
1000
0001
,
2000
0000
0020
3000
,
0200
0030
0002
0300
,
2000
0000
0000
0000
,
3003
0010
0010
0010
,
2002
0000
0000
0000
,
3003
0000
1000
0001
,
0101
0000
1010
0000
,
1100
0000
0011
0000
,
1000
0000
0010
0000
0100
0100
0001
0000
,
1000
0020
0100
1030
,
0001
0000
0010
0000
0100
0100
1000
0000
,
0001
1000
0010
0100
,
0001
0100
0001
0100
0001
0000
0000
0000
,
1000
0100
1000
0100
1000
0000
0000
0000
,
0010
0100
0010
1000
,
0011
0000
1100
0000
,
1001
0000
0010
0000
1000
0100
0100
0000
,
0010
0000
0001
0000
1000
0010
0010
0000
,
1000
0101
1001
0100
,
0001
1000
0001
1000
0001
0000
0000
0000
,
1010
0000
1010
0000
0100
0100
0100
0000
,
0011
0000
0011
0000
0100
0100
0100
0000
,
1000
0000
0100
0000
0010
0001
0010
0100
,
2000
3001
0110
0000
,
1001
0000
0000
0000
,
0000
0000
0000
0000
;

//---------------dance-single - ----------------
#NOTES:
     dance-single:
     :
     Hard:
     11:
     :
0000
0000
0000
0000
,
0000
0000
0000
0000
,
0000
0000
0000
0000
,
0000
0000
0000
0000
,
0000
0000
0000
0000
,
0000
0000
0000
0000
,
0000
0000
0000
0000
,
0000
0000
0000
0000
,
0000
0000
0000
0000
,
0100
0001
0000
0001
0000
1000
0000
1000
,
0000
0100
0000
0100
0000
0001
0000
0001
,
1000
0001
0000
0001
0000
1000
0000
1000
,
0000
0010
0000
0010
0000
0100
0000
0100
,
0100
0001
0000
1000
0000
0001
0000
0100
,
0010
0010
0000
1000
0000
0001
0000
0100
,
0100
0010
0000
1000
0000
0001
0000
0010
,
0100
0010
0011
1100
,
2010
3100
2010
3100
,
2001
0000
3100
0010
0001
0100
0010
0000
,
0012
0103
0012
0103
,
1002
0000
0013
0100
1000
0010
0100
0000
,
1001
1000
0100
0010
0002
0000
0103
0000
,
1100
0010
0001
0100
0020
0000
0130
0000
,
1000
0010
0100
0001
0010
0100
1000
0010
,
0100
0001
1000
0000
,
0001
0100
0001
0010
0200
0000
1300
0000
,
0010
0100
0010
0100
0001
0010
0100
0000
,
0001
1000
0001
1000
0010
1000
0100
1000
,
0001
0010
0100
1000
0001
0001
0010
0000
,
0100
1000
0100
0010
0002
0000
1003
0000
,
0010
0100
0010
0100
0001
0010
0100
1000
,
0001
0100
0001
0100
0010
1000
0010
0100
,
0001
1000
0010
0000
,
1000
1100
0010
1100
,
0001
0010
1000
0100
,
0001
0010
0001
0001
0010
0000
0100
0000
,
1000
0000
0010
0000
0001
0000
0100
0100
,
0010
0100
0020
0000
1000
0000
0130
0000
,
1000
0100
0001
0100
,
0010
0010
1000
0000
0001
1000
0001
1000
,
0100
0000
0000
0000
0000
1000
0010
0000
,
1000
0011
0100
0011
,
1000
0100
0001
0010
,
1000
0000
0100
0000
0001
0010
0010
0000
,
0001
0000
0100
0000
1000
0000
0010
0010
,
0100
0010
0200
0000
0001
0000
0310
0000
,
0001
0010
1000
0010
,
0100
0100
0001
0000
1000
0001
1000
0001
,
0010
0000
0001
1000
,
2010
0000
0000
3010
0200
0001
0300
0000
,
0102
0000
0000
0103
0020
1000
0030
0000
,
0120
0000
0000
1030
0200
0010
0300
0000
,
2001
0000
0000
3010
0002
0010
0003
0000
,
0210
0000
0000
1300
0020
0001
0030
0000
,
0012
0000
0000
0013
0200
1000
0300
0000
,
0210
0000
0000
1300
0020
0100
0030
0000
,
2001
0000
0000
3010
0002
0010
0003
0000
,
0100
0000
0000
0010
0100
0000
0001
0000
0000
0000
1000
0000
1000
0000
0000
0000
,
0001
0000
0000
0100
0001
0000
1000
0000
0000
0000
0010
0000
0010
0000
0000
0000
,
0100
0000
0000
0001
1000
0000
0010
0000
0000
0000
0100
0000
0100
0000
0000
0000
,
0001
0000
0000
1000
0100
0000
1000
0000
0000
0000
0100
0000
0001
0000
1000
0000
,
0010
0100
0010
0100
0001
1000
0001
1000
,
0001
0010
0100
1000
0001
1000
0100
0010
,
0001
1000
1000
1000
0001
0100
0001
0010
,
0100
0000
1010
0011
,
1001
0000
0100
0000
0020
0000
0000
1000
0000
0000
0130
0000
0001
0000
1000
0000
,
1001
0000
0100
0000
0020
0000
0000
0001
0000
0000
0130
0000
1000
0000
0001
0000
,
0010
0100
1000
0010
0100
0001
0010
0100
,
1000
0000
1100
0000
0100
0001
0010
0000
,
1000
0000
0000
0001
1000
0000
0000
0010
1000
0000
0100
0000
0110
0000
0000
0000
,
0010
0010
0000
0011
0000
0100
1100
0002
,
0000
1003
0010
1000
0010
0100
0001
0010
,
1000
0000
0001
0000
0100
0000
0010
0000
0001
0000
1000
0100
1000
0000
0000
0000
,
1001
0000
0000
0000
,
0000
0000
0000
0000
;

//---------------dance-single - ----------------
#NOTES:
     dance-single:
     :
     Challenge:
     16:
     :
0000
0000
0000
0000
,
0000
0000
0000
0000
,
0000
0000
0000
0000
,
0000
0000
0000
0000
,
0000
0000
0000
0000
,
0000
0000
0000
0000
,
0000
0000
0000
0000
,
0000
0000
0000
0000
,
0000
0000
0000
0000
,
0001
0000
0100
0000
0010
0000
1000
0001
0100
0000
0000
0010
0000
0000
1000
0000
,
0100
0000
0010
0000
0001
0000
1000
0010
0100
0000
0000
0001
0000
1000
0000
0000
,
0010
0000
1000
0000
0100
0000
0010
0000
0001
0000
0100
0010
1000
0000
0000
0000
,
0001
0100
0000
0000
0010
1000
0000
0000
0100
0000
1000
0010
1000
0000
0001
0000
,
0100
0000
0010
0000
1000
0000
0001
0100
0001
0000
0010
0000
0100
0000
1000
0001
,
1000
0000
0010
0000
0100
0000
0010
1000
0001
0000
0010
0100
1000
0000
0001
0100
,
0010
0000
0000
0000
1000
0100
0010
0001
0100
0000
0010
0000
1000
0000
0001
0000
,
0010
0001
0000
0000
1000
0010
0000
0000
0100
0001
0000
0000
1000
0100
0000
0100
,
0010
0000
0000
0001
0000
0000
1000
0000
0010
0000
0000
1000
0000
0000
0001
0000
,
0100
0000
0000
0000
0001
0010
0001
0010
0100
1000
0100
1000
0010
0100
0010
0100
,
0001
0000
0000
1000
0000
0000
0010
0000
1000
0000
0000
0001
0000
0000
0010
0000
,
0100
0000
0000
0000
1000
0010
1000
0010
0100
0001
0100
0001
0010
0100
0010
0100
,
1000
0000
0000
0010
1000
0010
0100
0001
0020
0000
0000
0000
0031
1000
0010
0100
,
0001
0000
0010
0100
0000
0010
0001
1000
0200
0000
0000
0000
1300
0001
0100
0010
,
1000
0100
0010
0001
0100
0010
0100
0010
1000
0001
1000
0001
1000
0100
0010
0001
,
0100
0010
0100
0010
0100
0000
0100
0000
0001
1000
0001
1000
0001
0000
0001
0000
,
0010
0100
0010
0100
1000
0100
0010
0100
2000
0000
0000
0000
3001
0100
0010
0100
,
0001
1000
0001
1000
0010
0100
0010
0100
0010
1000
0100
0000
1000
0001
0000
0010
,
0001
0000
0010
0100
1000
0000
0001
0100
0001
0000
0010
0100
1000
0000
0010
0100
,
0001
0010
0001
0010
0100
1000
0100
1000
0010
1000
0010
1000
0200
0000
0000
0000
,
1300
0001
1000
0010
0100
0010
0100
0001
0020
0000
0000
0000
0031
1000
0001
0100
,
0010
1000
0010
1000
0010
0100
0010
0100
0010
1000
0010
0100
0010
1000
0100
0000
,
0010
0000
0001
1000
0001
0000
1000
0001
1000
0000
0001
1000
0001
0000
1000
0001
,
0100
0010
0100
0010
1000
0010
1000
0010
0100
0001
1000
0001
0200
0000
0000
0000
,
0310
0000
1000
0000
0100
0000
0010
0000
0001
0000
0100
0010
0000
0010
1000
0000
,
0100
0000
0010
0001
0000
0001
1000
0000
0010
0100
0000
0010
1000
0000
0001
0000
,
1000
0000
0100
0000
0001
0000
0010
0000
0001
1000
0000
1000
0010
0000
0100
0000
,
0001
0010
0000
0001
1000
0000
0010
0000
0100
0001
0000
0001
1000
0000
0100
0000
,
1000
0000
1000
0000
0001
0100
0010
0100
0001
0000
0000
0010
0000
0000
1000
0000
,
0100
0000
1000
0000
0010
0100
0000
0100
0001
0000
0010
0001
0000
0001
1000
0000
,
0100
0000
0100
0000
0010
0000
0001
1000
0010
0000
1000
0100
0000
0100
0001
0000
,
0010
0001
0010
0100
1000
0000
0001
0100
0010
0000
1000
0100
1000
0000
0001
0000
,
1000
0000
0010
0000
0100
0001
0000
0010
0001
0000
0100
1000
0000
1000
0010
0000
,
0100
0001
0010
0100
1000
0010
1000
0001
,
0100
0000
0010
0000
1000
0000
0001
0000
0010
0000
0100
1000
0000
0001
0100
0000
,
0001
0000
0010
0000
1000
0000
0001
0000
0100
0000
0010
1000
0000
1000
0001
0000
,
0100
0000
0010
0000
1000
0001
0010
0100
1000
0000
0010
0100
0000
0100
0001
0000
,
0010
0000
0001
0000
1000
0001
0100
0010
1000
0000
0100
1000
0000
1000
0001
0000
,
0100
0000
0010
0000
1000
0010
0100
0001
0010
0000
0001
0100
0001
0000
1000
0000
,
0010
0000
1000
0000
0100
0010
0001
1000
0001
0000
0100
0010
1000
0000
0000
0001
,
0200
0000
0310
1000
0002
0100
0003
0010
,
2000
0000
3001
1000
0020
0100
0030
0001
,
0020
0000
0031
0100
0010
1000
0000
0100
,
1000
0000
0010
0100
0001
0100
0010
0000
,
2000
0000
3100
0010
0001
0100
0000
0001
,
1000
0000
0001
0100
0010
0100
1000
0100
,
0002
0000
0013
0001
2000
0010
3000
0100
,
0001
0000
0010
0100
1000
1000
0000
0001
,
0100
0000
0001
0010
0001
0000
0000
0000
0100
0000
0010
0000
1000
0000
0001
0000
,
0010
0000
0100
1000
0100
0000
0001
0000
0100
0000
0100
0000
1000
0000
0001
0000
,
0100
0000
0001
0010
0001
0000
0100
0000
1000
0000
1000
0000
0010
0000
0100
0001
,
0100
0000
0001
1000
0001
0000
0010
0000
0100
0000
0001
0000
0100
0000
1000
0001
,
0100
0000
0010
0000
0100
0000
0001
1000
0001
0000
0010
0000
0100
1000
0100
0010
,
0001
0000
0100
0000
1000
0000
0010
1000
0001
0000
0100
0000
0001
1000
0100
0000
,
0010
0000
0001
0000
0100
0010
0100
0010
1000
0000
0001
0000
1000
0000
0100
0000
,
0001
0000
0010
0100
1000
0000
0010
0100
0001
0000
1000
0001
0100
0000
0010
0000
,
1000
0100
0001
0100
1000
0000
0010
0100
0000
0100
0001
1000
0001
0000
0010
0000
,
0001
0100
1000
0100
0001
0000
0010
0100
0000
0100
1000
0001
1000
0000
0010
0000
,
0100
0001
0100
0001
1000
0000
0100
1000
0100
1000
0001
0000
0100
0010
0100
0010
,
0100
0000
0001
0010
0001
0010
0100
1000
0010
1000
0001
1000
0200
0000
0000
0000
,
0310
0000
0001
0100
0001
0000
1000
0100
1000
0000
0001
0000
0100
0010
1000
0000
,
0001
0010
0100
0000
0010
0100
1000
0000
0010
1000
0001
0000
1000
0001
0100
0000
,
0020
2030
3020
0230
0302
0023
0032
2003
,
3100
0000
1000
0010
1000
0000
0001
0010
0001
0000
0100
0010
0200
0000
0000
0000
,
0301
1000
0001
1000
0010
0000
0100
0001
0100
0010
1000
0000
0100
0010
0001
1000
,
0001
0000
0000
0000
;

//---------------dance-double - ----------------
#NOTES:
     dance-double:
     :
     Easy:
     4:
     :
00000000
00000000
00000000
00000000
,
00000000
00000000
00000000
00000000
,
00000000
00000000
00000000
00000000
,
00000000
00000000
00000000
00000000
,
00000000
00000000
00000000
00000000
,
00000000
00000000
00000000
00000000
,
00000000
00000000
00000000
00000000
,
00000000
00000000
00000000
00000000
,
00000000
00000000
00000000
00000000
,
00001000
00000000
00000000
00000000
,
00010000
00000000
00000000
00000000
,
01000000
00000000
00000000
00000000
,
00100000
00000000
01000000
00000000
,
00100000
00000000
00000000
00000000
,
00001000
00000000
00000000
00000000
,
00011000
00000000
00000000
00000000
,
00001000
00000100
00000010
00000100
,
00000002
00000003
00002000
00003000
,
00000020
00000000
00000030
00000000
,
00020000
00030000
00002000
00003000
,
02000000
00000000
03000000
00000000
,
00010000
10000000
00100000
00000000
,
00010000
00001000
00100000
00000000
,
10000000
00000000
01000000
00000000
,
00010000
00001000
00010000
00000000
,
00000020
00000030
00000200
00000300
,
00000002
00000000
00000003
00000000
,
00000010
00000010
00000100
00000100
,
00001000
00000000
00010000
00000000
,
00100000
00100000
00100000
00000000
,
10000000
00000000
00010000
00000000
,
00100000
00100000
00100000
00100000
,
10010000
00000000
00000000
00000000
,
01000000
00000000
00000000
00000000
,
00010000
00000000
00001000
00000000
,
00010000
00000000
00000000
00000000
,
00000100
00000000
00000100
00000000
,
00000020
00000000
00000000
00000030
,
00000001
00000000
00000001
00000000
,
00001000
00000000
00000000
00000000
,
00000001
00000010
00000100
00000000
,
00001000
00001000
00000001
00000000
,
00000100
00000100
00000010
00000000
,
00001000
00000000
00010000
00000000
,
00100000
00100000
01000000
00000000
,
00010000
00000000
10000000
00000000
,
00010000
00010000
01000000
00000000
,
10000000
00100000
00100000
10000000
,
10010000
00000000
00000000
00000000
,
02000000
00000000
00000000
03000000
,
00020000
00000000
00000000
00030000
,
00022000
00000000
00000000
00033000
,
00000000
00000000
00000000
00000000
,
00000200
00000000
00000000
00000300
,
00002000
00000000
00000000
00003000
,
00000002
00000000
00000000
00000003
,
00000020
00000000
00000000
00000030
,
00000001
00000000
00000100
00000000
,
00001000
00000000
00010000
00000000
,
00001000
00000000
01000000
00000000
,
00100000
00000000
10000000
00000000
,
00100000
00100000
01000000
00000000
,
10000000
10000000
01000000
00000000
,
00010000
00001000
00010000
00001000
,
00011000
00000000
00000000
00000000
,
00000100
00000000
00000010
00000001
,
00000010
00000000
00000001
00001000
,
00000100
00000000
00001000
00000000
,
00000001
00000010
00000100
00001000
,
00000100
00000100
00010000
00000000
,
00100000
00100000
00100000
00000000
,
10000000
10000000
00010000
00010000
,
10000000
00100000
01000000
00000000
,
10010000
00000000
00000000
00000000
,
00000000
00000000
00000000
00000000
;

//---------------dance-double - ----------------
#NOTES:
     dance-double:
     :
     Medium:
     7:
     :
00000000
00000000
00000000
00000000
,
00000000
00000000
00000000
00000000
,
00000000
00000000
00000000
00000000
,
00000000
00000000
00000000
00000000
,
00000000
00000000
00000000
00000000
,
00000000
00000000
00000000
00000000
,
00000000
00000000
00000000
00000000
,
00000000
00000000
00000000
00000000
,
00000000
00000000
00000000
00000000
,
00100000
00000000
00100000
00000000
,
00001000
00000000
00000000
00010000
00000000
00000000
00001000
00000000
,
00000100
00000000
00000000
00000010
00000000
00000000
00000100
00000000
,
00000001
00000100
00000010
00010000
,
00001000
00000000
00010000
00001000
,
00100000
00000000
00000000
00010000
00000000
00000000
01000000
00000000
,
10000000
00000000
00010000
00000000
,
10000000
00010000
00001000
00010000
,
00011000
01000000
00011000
00000100
,
00000020
00000001
00000100
00001030
,
00011000
00000010
00011000
00100000
,
02000000
00010000
00100000
13000000
,
00020000
00000000
10030000
01000000
00100000
00000000
00000000
00000000
,
00002000
00000000
00013000
00000100
00000010
00000000
00000000
00000000
,
00000001
00000010
00001000
00010000
,
00100000
01000000
01100000
00000000
,
00200000
00000000
10300000
01000000
00010000
00000000
00000000
00000000
,
00001000
00010000
00100000
00010000
,
00002000
00100000
00010000
00003010
,
00000100
00000010
00000100
00000000
00001000
00000000
00000001
00000000
,
00001001
00000000
00001000
00000100
00000010
00000000
00000000
00000000
,
00000001
00000010
00000100
00010000
,
00001000
00010000
00001000
00000000
00010000
00001000
00010000
00000000
,
00100000
10000000
00010000
10010000
,
00100000
00100000
01000000
01000000
,
10000000
00010000
10000000
00010000
,
01000000
00000000
00001000
00000100
,
00000001
00000000
00000010
00000000
00000001
00000000
00001000
00000001
,
00000100
00000100
00000100
00000000
00000010
00000000
00000001
00000000
,
00000100
00000000
00010000
00100000
,
01000000
00100000
10000000
00000000
00100000
00000000
00010000
00000000
,
10010000
00000000
00000000
01001000
00000000
00000000
00101000
00000000
,
00010000
11000000
00100000
00001000
,
00010000
00001000
00000100
00000001
,
00000010
00000000
00000100
00001000
00000100
00000000
00001000
00000000
,
00000001
00000000
00000100
00000000
00000010
00000100
00000010
00001000
,
00000100
00000000
00010000
00000000
,
00100000
00100000
01000000
01000000
,
00001000
00000000
00010000
00000000
00100000
01000000
00100000
00000000
,
10010000
00000000
00100000
01000000
,
20000000
00000000
00200000
30000000
,
02000000
00300000
00002000
03000000
,
00020000
00000000
00000000
00000000
,
00033000
00010000
00000010
00000100
,
00002002
00000000
00000000
00000000
,
00003003
00000000
00000001
00001000
,
00000011
00000000
00001100
00000000
,
00010010
00000000
00011000
00000000
,
00001000
00010000
00001000
00000000
00100000
00000000
00010000
00000000
,
01000000
00100000
01000000
00000000
00010000
00000000
10000000
00000000
,
00010000
10010000
00100000
01010000
,
00100000
00001000
00010000
00000100
,
00000010
00000000
00000010
00000200
00000000
00000000
00000300
00000000
,
00000001
00000000
00000001
00002000
00000000
00000000
00003000
00000000
,
00001000
00000100
00000001
00000010
,
00001001
00000000
00000001
00000001
,
00000100
00000010
00000200
00000000
00000001
00000000
00000310
00000000
,
00010000
00001000
00020000
00000000
00001000
00000000
00130000
00000000
,
00001000
00010000
01000000
00000000
00001000
00010000
00100000
00000000
,
10000000
00010000
00100000
01000000
,
10000000
00000000
10000000
00000000
00110000
00010000
00000000
00010000
,
00000000
00001000
00000000
00001000
00000000
00000010
00000000
00000010
,
00000000
00001000
00000001
00001000
00000001
00001000
00000001
00000100
,
00000000
00000010
00000000
00000100
00000000
00001000
00010000
00000000
,
00011000
00000000
00000000
00000000
,
00000000
00000000
00000000
00000000
;

//---------------dance-double - ----------------
#NOTES:
     dance-double:
     :
     Hard:
     13:
     :
00000000
00000000
00000000
00000000
,
00000000
00000000
00000000
00000000
,
00000000
00000000
00000000
00000000
,
00000000
00000000
00000000
00000000
,
00000000
00000000
00000000
00000000
,
00000000
00000000
00000000
00000000
,
00000000
00000000
00000000
00000000
,
00000000
00000000
00000000
00000000
,
00000000
00000000
00000000
00000000
,
10010000
10000000
00000000
10000000
00000000
10000000
00000000
10000000
,
00010000
00100000
00000000
00100000
00000000
00100000
00010000
00100000
,
00001000
00000100
00000000
00000100
00000000
00000100
00000000
00000100
,
00000010
00001000
00000100
00001000
00000000
00000001
00000100
00000001
,
00001000
00000010
00000000
00000010
00000000
00000010
00000100
00000010
,
00000100
00000001
00000000
00000100
00000000
00001000
00010000
00001000
,
00100000
00010000
00000000
00010000
00000000
01000000
00000000
01000000
,
00100000
01000000
01100000
10010000
,
00120000
00031000
00002010
00013000
,
00120000
00000000
00031000
00010000
01000000
00010000
00001000
00000000
,
00002010
00013000
00120000
00031000
,
00002010
00000000
00013000
00001000
00000100
00001000
00010000
00000000
,
00100000
10000000
01000000
00100000
00020000
00000000
01030000
00000000
,
00010000
01000000
00100000
00010000
00002000
00000000
00003100
00000000
,
00000001
00000010
00000100
00001000
00000010
00000100
00001000
00010000
,
00001000
00010000
00001000
00000000
00100000
00000000
00010000
00000000
10000000
01000000
10000000
00000000
00100000
00000000
01000000
00000000
,
00010000
00010000
10000000
10000000
00200000
00000000
01300000
00000000
,
10000000
00000000
01000000
00000000
00100000
00000000
01000000
00000000
10000000
00010000
10000000
00000000
00010000
10000000
00000000
00000000
,
01000000
01000000
00100000
00100000
00001000
00001000
00000010
00000010
,
00000001
00000010
00001000
00010000
00000010
00000100
00000002
00000000
,
00000103
00000100
00001000
00001000
00020000
00000000
00030100
00000000
,
00000010
00000000
00000001
00000000
00000100
00000000
00000010
00000000
00001000
00000100
00001000
00000000
00000010
00000000
00000100
00000000
,
00000001
00001000
00000100
00010000
00001000
00100000
00010000
01000000
,
00010000
10000000
00010000
10000000
00010000
00000000
01000000
00000000
00100000
00000000
10000000
00000000
00020000
00000000
00000000
00000000
,
10030000
11000000
00100000
11000000
,
00010000
10000000
00010000
00001000
,
00010000
00001100
00000010
00001100
,
00000001
00000000
00001000
00000000
00010000
00000000
00001000
00010000
,
00100000
00100000
00010000
00000000
00001000
00000000
00000100
00000000
,
00000001
00000110
00001000
00000001
,
00000100
00000001
00000100
00000001
00001000
00000100
00001000
00000100
,
00010000
00000000
00000000
00000000
00000000
00000000
00000000
00000000
00001000
00000000
00010000
00001000
00010000
00000000
00000000
00000000
,
00101000
00010000
00000010
00011000
,
00200000
00010000
01000000
10300000
,
00100000
00000000
00010000
01000000
10000000
00000000
10000000
01000000
,
00010000
00000000
00010000
01000000
10000000
01000000
00010000
00000000
,
00010000
00101000
00000010
00011000
,
00000020
00001000
00000100
00000031
,
00000010
00001000
00000100
00000001
00000001
00000100
00001000
00000001
,
00000100
00000000
00000010
00000100
,
00000012
00000000
00000000
00000013
00000200
00001000
00000300
00000000
,
00002001
00000000
00000000
00013000
00200000
00010000
00300000
00000000
,
01020000
00000000
00000000
10030000
02000000
00100000
03000000
00000000
,
20010000
00000000
00000000
30100000
00020000
00001000
00030000
00000000
,
00102000
00000000
00000000
00013000
00200000
01000000
00300000
00000000
,
20010000
00000000
00000000
31000000
00020000
00001000
00030000
00000000
,
00002010
00000000
00000000
00003001
00000020
00000100
00000030
00000000
,
00000012
00000000
00000000
00000103
00000020
00001000
00000030
00000000
,
00001001
00000000
00000000
00000001
00000100
00000000
00000010
00000000
00001000
00000000
00010000
00000000
00100000
00000000
00000000
00000000
,
00110000
00000000
00000000
10000000
01000000
00000000
00100000
00000000
00001000
00000000
00010000
00000000
00100000
00000000
00000000
00000000
,
01100000
00000000
00000000
00001000
00010000
00000000
00100000
00000000
01000000
00000000
00001000
00000000
00010000
00000000
00000000
00000000
,
00011000
00000000
00000000
00010000
00001000
00000000
00000100
00000000
00000001
00000000
00000010
00000000
00000100
00000000
00000000
00000000
,
00001000
00000100
00000001
00000100
00001000
00000001
00000100
00001000
,
00010000
01000000
10000000
01000000
00010000
10000000
00100000
00010000
,
00001000
00000010
00000001
00000010
00001000
00000001
00000010
00001000
,
00011000
00000000
00101000
00010010
,
00010000
00001000
00010000
00000000
00001000
00000000
00100000
00010000
00000000
00100000
00010000
00000000
01000000
00000000
00010000
00000000
,
10000000
01000000
10000000
00000000
00010000
00000000
01000000
00100000
00000000
01000000
00100000
00000000
01000000
00000000
00010000
00000000
,
00100000
00001000
00010000
00001000
00000100
00000001
00000010
00000100
,
00001000
00000100
00001000
00000000
00000001
00000010
00000001
00000000
00001000
00000000
00000100
00000000
00000011
00000000
00000000
00000000
,
00001001
00000000
00000000
00000100
00001000
00000000
00000000
00000010
00001000
00000000
00001000
00000000
00010000
00000000
00100000
00000000
,
00000000
10100000
00000000
01100000
00000000
00110000
00000000
00102000
,
00000000
00013000
01000000
10000000
01000000
00010000
00001000
00010000
,
00000000
00000000
00001000
00000000
00000000
00000000
00000010
00000000
00000000
00000000
00000001
00000010
00000100
00000000
00000000
00000000
,
00001001
00000000
00000000
00000000
,
00000000
00000000
00000000
00000000
;
