#TITLE:DROP THE BOMB;
#SUBTITLE:(25th Anniversary Special);
#ARTIST:Scotty D.;
#TITLETRANSLIT:;
#SUBTITLETRANSLIT:;
#ARTISTTRANSLIT:;
#GENRE:;
#CREDIT:;
#BANNER:DROP THE BOMB (25th Anniversary Special)-bn.png;
#BACKGROUND:DROP THE BOMB (25th Anniversary Special)-bg.png;
#LYRICSPATH:;
#CDTITLE:;
#MUSIC:DROP THE BOMB (25th Anniversary Special).ogg;
#OFFSET:0.800000;
#SAMPLESTART:108.875999;
#SAMPLELENGTH:20.000000;
#SELECTABLE:YES;
#DISPLAYBPM:150.000000;
#BPMS:0.000000=150.169998
;
#STOPS:
;
#BGCHANGES:;
#KEYSOUNDS:;
#ATTACKS:;

//---------------dance-single - ----------------
#NOTES:
     dance-single:
     :
     Challenge:
     14:
     0.669153,0.655279,0.266459,0.028048,0.378652,668.000000,630.000000,38.000000,4.000000,0.000000,0.000000,0.669153,0.655279,0.266459,0.028048,0.378652,668.000000,630.000000,38.000000,4.000000,0.000000,0.000000:
// measure 0
0000
0000
0000
0000
,  // measure 1
0000
0000
0000
0000
,  // measure 2
0000
0000
0000
0000
,  // measure 3
1001
0000
0010
0100
0000
0001
0010
0001
,  // measure 4
0000
1000
0010
1000
0000
0100
0010
0001
,  // measure 5
0000
0100
0010
1000
0000
0001
1000
0100
,  // measure 6
0000
0100
0010
0100
0000
1000
0001
0010
,  // measure 7
0110
0000
0000
0000
1000
0000
0001
0100
0001
0000
0010
0000
0001
1000
0001
0000
,  // measure 8
0000
0000
0100
0000
0010
0000
1000
0000
0000
0000
0001
0000
1000
0100
1000
0000
,  // measure 9
0010
0010
0010
0010
,  // measure 10
0010
0000
0010
0000
0010
1000
0100
0001
,  // measure 11
0010
0000
0100
0000
1000
0000
0001
0000
0000
1000
0010
1000
0010
0000
0100
0000
,  // measure 12
0001
0000
0010
0000
0100
0000
1000
0000
0000
0010
0100
0010
0100
0000
0001
0000
,  // measure 13
1000
0000
0100
0000
0010
0000
0001
0000
0000
0100
0001
0100
0001
0000
1000
0000
,  // measure 14
0010
0000
1000
0000
0100
0000
0010
0001
0010
0000
0001
0000
0100
0000
0000
0000
,  // measure 15
0010
0000
1000
0000
0001
0000
1000
0100
1000
0000
0010
0000
0100
0000
0001
0000
,  // measure 16
0010
0100
1000
0001
0000
1000
0010
0001
,  // measure 17
0100
0000
0001
0000
0010
0000
0100
0000
1000
0000
0001
0000
0100
0010
0100
0000
,  // measure 18
0001
0010
0101
0000
1000
0010
0100
0001
,  // measure 19
0010
0100
0000
0100
0000
1000
0000
1000
0000
0001
0000
0001
0100
0000
0010
0000
,  // measure 20
1000
0010
1000
0010
1000
0000
0100
0000
0010
0000
0001
0000
0100
0000
0010
0000
,  // measure 21
0100
0000
0001
0000
0010
0000
0100
0000
1000
0000
0001
0100
0001
0000
1000
0000
,  // measure 22
0010
0000
0100
0000
0010
0000
0100
0000
0000
0001
0000
0000
1000
0000
0000
0100
0000
0000
0001
0000
0000
0000
0000
0000
,  // measure 23
0010
0001
0010
0000
0100
0000
1000
0000
0001
0100
0001
0000
1000
0000
0010
0000
,  // measure 24
0100
0000
0001
0000
0011
0000
0000
0100
0000
0000
1000
0001
1000
0000
0010
0000
,  // measure 25
0100
0001
0010
0001
0100
0010
1000
0001
,  // measure 26
1000
0100
0010
0001
0100
0010
1000
0001
,  // measure 27
0010
0100
0010
0000
0001
0000
0100
0000
1000
0000
1000
0000
1000
0000
0001
0000
,  // measure 28
1001
0000
0000
0000
0010
1000
0010
1000
0010
0000
0100
0000
0001
0000
1000
0000
,  // measure 29
1100
0000
0010
0011
0000
1100
0000
0001
,  // measure 30
0101
0000
0000
0100
0000
0000
0010
0000
1000
0000
0001
0100
0001
0000
0000
0000
,  // measure 31
0010
0000
0000
0000
0000
0000
0100
0000
0000
0000
0000
0000
1000
0000
0000
0000
0001
0000
0000
0000
1000
0000
0000
0000
0001
0000
0000
0000
0000
0000
0100
0000
0000
0000
0000
0000
0010
0000
0000
1000
0000
0000
0000
0000
0000
0000
0000
0000
,  // measure 32
0110
0100
0001
0010
0001
0100
0010
1000
,  // measure 33
1010
0000
0001
0011
0000
1100
0000
0101
,  // measure 34
0001
0000
1000
0000
0001
0100
0001
0000
0010
0000
1000
0000
0100
0000
0001
0000
,  // measure 35
0010
0100
0010
0100
0010
0000
0001
0000
0100
0000
0010
0000
1000
0000
0001
0000
,  // measure 36
0100
0000
0001
0000
1000
0000
0001
0000
0000
0010
0100
0010
0100
0000
1000
0000
,  // measure 37
0001
0000
0100
0000
0001
0000
0010
0000
0000
0100
1000
0100
1000
0000
0001
0000
,  // measure 38
0010
0000
0001
0000
0100
0000
0010
0000
0000
1000
0001
1000
0001
0000
0100
0000
,  // measure 39
0010
0000
1000
0000
0001
0000
0010
0000
0000
0100
1000
0100
1000
0000
0001
0000
,  // measure 40
0010
0000
0100
0000
0010
0000
0001
0000
0000
1000
0010
1000
0010
0000
0100
0000
,  // measure 41
0001
0000
0010
0000
0001
0000
0100
0000
1000
0001
1000
0000
0010
0000
0100
0000
,  // measure 42
0001
0000
0010
0000
0100
0000
1000
0000
0000
0001
0100
0001
0100
0000
0010
0000
,  // measure 43
1000
0000
0100
0000
1000
0000
0010
0000
0000
0100
0001
0100
0001
0000
1000
0000
,  // measure 44
2200
0000
0000
3300
,  // measure 45
0001
0010
0001
0100
0001
0010
0001
0000
,  // measure 46
1000
0100
1000
0010
1000
0100
1000
0000
,  // measure 47
0001
1000
0001
0010
0001
0100
0010
1000
,  // measure 48
0001
0010
0001
0100
0010
1000
0001
0000
,  // measure 49
1001
0000
0010
0000
1000
0000
0100
0010
,  // measure 50
0011
0000
1000
1010
0000
0101
0000
0001
,  // measure 51
0011
0100
1000
0001
,  // measure 52
0100
0010
0000
0010
0000
1000
0000
0001
1000
0000
0100
0000
0010
0000
0001
0000
,  // measure 53
1001
0000
0100
0000
0010
0000
1000
0001
,  // measure 54
0101
0000
0010
1010
0000
1100
0000
0100
,  // measure 55
0110
0010
0001
0100
,  // measure 56
0001
0000
1000
0000
0001
0000
0000
0000
0010
0000
0000
0100
1000
0000
0001
0000
,  // measure 57
1001
0000
0000
0000
0100
0001
0100
0001
0100
0000
0010
0000
1000
0000
0001
0000
,  // measure 58
0011
0000
0100
1100
0000
0101
0000
0010
,  // measure 59
1010
0000
0000
0001
0000
0000
1000
0000
0001
0000
0010
0100
0010
0000
0000
0000
,  // measure 60
0001
0000
0000
0000
0000
0000
0100
0000
0000
0000
0000
0000
0010
0000
0000
0000
1000
0000
0000
0000
0010
0000
0000
0000
1000
0000
0000
0000
0000
0000
0100
0000
0000
0000
0000
0000
1000
0000
0000
0001
0000
0000
0000
0000
0000
0000
0000
0000
,  // measure 61
0110
0001
1000
0010
1000
0100
0010
0001
,  // measure 62
0011
0000
0100
0110
0000
1010
0000
1100
,  // measure 63
0001
0000
0010
0000
0001
0100
0001
0000
1000
0000
0010
0000
0100
0000
0001
0000
,  // measure 64
0010
0000
0100
1000
0000
0100
1000
0000
0001
0000
0100
0000
1001
0000
0000
0000
,  // measure 65
0010
0000
0000
0010
0000
0000
1000
0000
0001
0000
0100
0010
0100
0000
0000
0000
,  // measure 66
0001
1000
0000
0000
0001
0100
0000
0000
0010
0000
1000
0001
1000
0000
0100
0000
,  // measure 67
0110
0000
0000
0000
0001
0000
0100
0000
0010
0000
1000
0001
1000
0000
0100
0000
,  // measure 68
0010
0001
0010
0100
1000
0001
1000
0100
,  // measure 69
0010
0000
0001
0000
0100
0000
0010
0000
0000
1000
0001
0100
0010
0000
1000
0000
,  // measure 70
0100
0000
0010
0000
0001
0000
0100
0000
0000
0001
0010
0100
1000
0000
0001
0000
,  // measure 71
1000
0000
0010
0000
1000
0000
0100
0000
0000
0010
0001
1000
0100
0000
0010
0000
,  // measure 72
0001
0000
0100
0000
0001
0000
0010
0000
0100
1000
0001
1000
0100
0000
0010
0000
,  // measure 73
0001
0000
0100
0000
0010
0000
1000
0000
0000
0010
0100
0001
1000
0000
0100
0000
,  // measure 74
0010
0000
0001
0000
0100
0000
0001
0000
1000
0010
1000
0100
1000
0000
0001
0000
,  // measure 75
0010
0000
0001
0000
0100
0000
0010
0000
0000
1000
0001
1000
0100
0000
0010
0000
,  // measure 76
0001
0000
0100
0000
0001
0000
0010
0000
0100
1000
0010
1000
0001
0000
0100
0000
,  // measure 77
0010
0000
1000
0000
0001
0000
0010
0000
0000
0100
1000
0010
1000
0000
0001
0000
,  // measure 78
0100
0000
0010
0000
0100
0000
0001
0000
1000
0010
0100
0010
1000
0000
0001
0000
,  // measure 79
0010
0000
0100
0000
1000
0000
0010
0000
0000
1000
0001
0100
0010
0000
1000
0000
,  // measure 80
0100
0000
0010
0000
0001
0000
0100
0000
0000
0001
1000
0010
1000
0000
0100
0000
,  // measure 81
0010
0000
0001
0000
1000
0000
0010
0000
0000
0100
0001
1000
0001
0000
0100
0000
,  // measure 82
0001
0100
0001
1000
0100
1000
0001
0100
0001
1000
0100
1000
,  // measure 83
0000
0202
0000
0000
,  // measure 84
0000
0000
0000
0000
,  // measure 85
0000
0000
0000
0000
,  // measure 86
0000
0000
0000
0000
,  // measure 87
0000
0000
0000
0000
,  // measure 88
0000
0000
0000
0000
,  // measure 89
0303
0000
0000
0000
;
