#TITLE:DROP OUT (25th Anniversary Special);
#SUBTITLE:;
#ARTIST:NW260;
#TITLETRANSLIT:;
#SUBTITLETRANSLIT:;
#ARTISTTRANSLIT:;
#GENRE:;
#CREDIT:;
#MUSIC:DROP OUT (25th Anniversary Special).ogg;
#BANNER:DROP OUT (25th Anniversary Special)-bn.png;
#BACKGROUND:DROP OUT (25th Anniversary Special)-bg.png;
#CDTITLE:;
#SAMPLESTART:14.750;
#SAMPLELENGTH:20.000;
#SELECTABLE:YES;
#OFFSET:0.000;
#DISPLAYBPM:33:520;
#BPMS:0.000=260.020
,64.000=130.010
,68.000=260.020
,164.000=130.010
,168.000=260.020
,200.000=130.010
,208.000=260.020
,320.000=130.010
,321.000=65.005
,321.500=32.502
,322.000=260.020
,351.000=520.040
,415.000=130.010
,420.000=260.020
;
#STOPS:223.500=0.231
,350.000=0.808
;
#BGCHANGES:;
#FGCHANGES:;

//--------------- dance-single - ----------------
#NOTES:
     dance-single:
     :
     Challenge:
     18:
     0,0,0,0,0:
0000
0000
0000
0000
,
0000
0000
0000
0000
,
0000
0000
0000
0000
,
0000
0000
0000
0000
,
0000
0000
0000
0000
,
0000
0000
0000
0000
,
0000
0000
0000
0000
,
0000
0000
0000
0000
,
1001
0010
1000
0100
,
0010
0001
0000
0001
0001
0000
0100
0010
,
1001
0100
1000
0010
,
0100
0001
0000
0001
0001
0000
0010
0100
,
1001
0000
0010
0000
1000
0001
0100
0000
,
0010
1000
0000
1000
1000
0000
0010
0100
,
1001
0000
0010
0000
1000
0100
0010
0001
,
0100
0010
0100
0010
1000
0001
0100
0010
,
1000
1000
1000
1000
1000
1000
1000
1000
1000
1000
1000
1000
1000
1000
1000
1000
,
0001
0000
0010
0001
0200
0000
0310
1000
,
0002
0000
0013
0001
0100
0010
1000
0000
,
0100
0000
1000
0001
0020
0000
0031
1000
,
0200
0000
0310
0001
1000
0001
0100
0000
,
0010
0000
1000
0100
2000
0000
3001
1000
,
0020
0000
0130
0001
0010
0100
1000
0000
,
0001
0000
0010
0001
2000
0000
3010
0100
,
0001
0010
0001
0100
1000
1000
1000
1000
,
0010
0001
0100
0010
1000
0001
0010
0100
,
1000
0010
0100
1000
0001
1000
0001
0010
,
0100
0001
1000
0001
0100
1000
0010
0100
,
1000
0010
0001
0100
0010
1010
0000
0101
,
0000
0001
0010
0100
1000
0011
0000
1100
,
0000
0010
0100
0001
1000
0101
0000
1010
,
0000
1000
0001
0010
0100
1100
0000
0011
,
0000
0010
0000
0010
0010
0001
1000
0001
,
0100
0010
0001
0100
1000
0010
0100
0001
,
0100
0001
0100
0010
1000
0100
0001
0010
,
1000
0010
0100
0001
1000
0100
0010
0100
,
0001
1000
0100
0010
0001
1010
0000
0101
,
0000
0001
0100
0010
1000
0011
0000
1100
,
0000
0100
1000
0010
0001
0101
0000
1010
,
0000
0010
0100
0001
1000
0011
0000
1100
,
0000
0100
0000
0100
0100
0010
0001
0100
,
1000
1000
1000
1000
1000
1000
1000
1000
1000
1000
1000
1000
1000
1000
1000
1000
,
0001
0000
0010
0001
0100
0010
1000
0000
,
0100
1000
0010
1000
0100
0010
0001
0000
,
0010
0000
0100
0010
0001
0100
1000
0000
,
0001
0010
0001
0100
1000
0010
0001
0000
,
1000
0000
0001
0010
0001
0100
0010
0000
,
0100
0010
0100
0001
0010
1000
0001
0000
,
1000
0000
0010
0100
0010
1000
0001
0000
,
0010
0001
0100
0010
1000
1000
1000
1000
,
1001
0010
0001
0100
0001
0010
0001
0000
1001
0010
1000
0100
1000
0010
1000
0000
,
1001
0100
0001
0010
0001
0100
0001
0000
0110
1000
0001
1000
0100
0100
0100
0100
,
1001
0000
0010
1000
0100
0010
0001
0100
,
1001
0000
0001
0010
1000
0001
0010
0100
,
1001
0000
0010
1000
0100
0010
0001
1000
,
0110
0000
0110
0000
0110
0110
0110
0110
,
0001
0010
1000
0100
0010
0100
0010
0001
,
0100
1000
0001
0100
0001
0010
1000
0100
,
0010
0001
0100
0010
0100
0001
0010
0100
,
1000
0010
1000
0001
0100
1010
0001
0101
,
0010
1000
0100
0010
0001
0011
1000
1100
,
0010
1000
0001
0010
0100
1100
0001
0011
,
0100
0001
0010
1000
0100
0101
0010
1010
,
0001
1000
0100
1000
1000
0010
0100
0001
,
0010
0001
0100
0010
0100
0001
0010
1000
,
0001
0010
1000
0001
1000
0001
1000
0100
,
0010
1000
0001
0100
0010
1000
0010
0001
,
0100
0010
0100
0001
0010
1010
1000
0101
,
0010
1000
0010
0001
1000
1100
0010
0011
,
0100
0010
0100
0001
1000
0101
1000
1010
,
0001
0010
1000
0001
0100
0011
0100
1100
,
0010
0001
1000
0001
0001
0010
0100
1000
,
0020
2030
3200
0320
,
0032
0000
0000
0000
1003
0000
0010
0100
,
0001
0010
0001
1000
0001
0010
0001
1000
,
0001
0100
0010
0100
0001
0010
0100
1000
,
0020
2030
3002
0203
,
0320
0000
0000
0000
1030
0000
0100
0010
,
0001
0010
0100
1000
0001
0100
0010
1000
,
0100
0100
0100
0100
0010
0010
0010
0010
,
0001
0000
0000
0000
0000
0000
0000
0000
1000
0000
0000
0000
0000
0000
0000
0000
0001
0000
0000
0000
0000
0000
0000
0000
1000
0000
0000
0000
0001
0000
0000
0000
1000
0000
0000
0000
0001
0000
1000
0000
0001
0000
0000
0000
0000
0110
0000
0000
1001
0000
0000
0000
0000
0000
0000
0000
0000
0000
0000
0000
0000
0000
0000
0000
0000
0000
0000
0000
0000
0000
0000
0000
0010
0000
0000
0000
0000
0000
0000
0000
0000
0000
0000
0000
1000
0000
0000
0000
0000
0000
0000
0000
0000
0000
0000
0000
,
0001
1000
0100
0010
0011
0000
0100
0001
,
0010
0001
1000
0100
1010
0000
0001
0100
,
0010
0100
0001
0010
1100
0000
0010
1000
,
0100
0010
0001
0100
0010
1000
0001
1000
,
0100
0010
0001
0100
0001
0010
1000
0001
,
1000
0001
0010
0100
1000
0010
0001
0100
,
0010
1000
0100
0001
0020
0000
0031
0000
,
0100
0001
0010
0100
,
1000
0010
1000
0001
,
0010
0001
0100
0010
,
1000
0010
0001
0100
,
1000
0001
1000
0001
,
0010
1000
0001
1000
,
0010
0001
1000
0001
,
1000
0001
0100
0010
,
0100
0010
1000
0100
,
0010
0001
0010
0001
,
0100
1000
0001
1000
,
0010
1000
0010
0001
,
0001
0010
0001
0100
,
0010
1000
0010
0100
,
0100
0100
0100
0100
,
0100
0000
0100
0000
0100
0000
0101
0101
,
1100
1100
1010
1010
0011
0011
1001
0110
,
1001
0110
0000
0000
;
