#VERSION:0.83;
#TITLE:DRILL INSTRUCTOR (C-Jah Happy Mix);
#SUBTITLE:;
#ARTIST:CAPTAIN JACK;
#TITLETRANSLIT:;
#SUBTITLETRANSLIT:;
#ARTISTTRANSLIT:;
#GENRE:;
#ORIGIN:;
#CREDIT:;
#BANNER:DRILL INSTRUCTOR (C-Jah Happy Mix)-bn.png;
#BACKGROUND:DRILL INSTRUCTOR (C-Jah Happy Mix)-bg.png;
#PREVIEWVID:;
#JACKET:DRILL INSTRUCTOR (C-Jah Happy Mix)-jacket.png;
#CDIMAGE:;
#DISCIMAGE:;
#LYRICSPATH:;
#CDTITLE:;
#MUSIC:DRILL INSTRUCTOR (C-Jah Happy Mix).ogg;
#OFFSET:0.000000;
#SAMPLESTART:60.000000;
#SAMPLELENGTH:20.000000;
#SELECTABLE:YES;
#DISPLAYBPM:170.000000;
#BPMS:0.000=170.000;
#STOPS:;
#DELAYS:;
#WARPS:;
#TIMESIGNATURES:0.000=4=4;
#TICKCOUNTS:0.000=4;
#COMBOS:0.000=1;
#SPEEDS:0.000=1.000=0.000=0;
#SCROLLS:0.000=1.000;
#FAKES:;
#LABELS:0.000=Song Start;
#BGCHANGES:;
#KEYSOUNDS:;
#ATTACKS:
;

//---------------dance-solo - ----------------
#NOTEDATA:;
#CHARTNAME:;
#STEPSTYPE:dance-solo;
#DESCRIPTION:;
#CHARTSTYLE:;
#DIFFICULTY:Easy;
#METER:3;
#RADARVALUES:0.244416,0.377599,0.207053,0.000000,0.000000,157.000000,138.000000,19.000000,0.000000,0.000000,0.000000,0.000000,0.000000,0.000000,0.244416,0.377599,0.207053,0.000000,0.000000,157.000000,138.000000,19.000000,0.000000,0.000000,0.000000,0.000000,0.000000,0.000000;
#CREDIT:;
#DISPLAYBPM:170.000000;
#NOTES:
000000
000000
000000
000000
,
000000
000000
000000
000000
,
000000
000000
000000
000000
,
000000
000000
000000
000000
,
000000
000000
000000
000000
,
000000
000000
000000
000000
,
000000
000000
001000
000000
,
100000
000000
001000
000000
,
100000
000000
001000
000000
,
100000
000000
001000
000100
,
001000
000000
000001
000000
,
001000
000000
000001
000000
,
001000
000000
000001
000000
,
010000
000000
000010
100000
,
000001
000000
000000
000000
,
000000
000000
000000
000000
,
001100
000000
100001
000000
,
010010
000000
000000
000000
,
100000
000100
001000
000001
,
100000
001000
000100
000000
,
000001
000000
100000
000000
,
100000
000000
000001
000000
,
000001
000100
001000
100000
,
000001
001000
000100
000000
,
100000
000000
000001
000000
,
000001
000000
100000
000000
,
100000
001000
000100
000001
,
100000
001000
000100
000000
,
000010
000000
010000
000000
,
000100
000000
001000
000000
,
000001
001000
000100
100000
,
000001
001000
000100
000000
,
010000
000000
000010
000000
,
000100
000000
001000
000000
,
001100
100001
001100
000000
,
010000
000000
001000
000000
,
100001
001100
100001
000000
,
000010
000000
001000
000000
,
001100
100001
010010
000000
,
000100
100000
001000
000001
,
010000
000000
000010
000000
000000
001000
000100
000000
,
001000
000000
000100
000000
000000
010000
000010
000000
,
000000
000000
001000
000000
,
100000
000000
001000
000000
,
100000
000000
001000
000000
,
000001
000000
001000
000000
,
000001
000000
001000
000100
,
100001
000000
000100
000000
,
000001
000000
000100
000000
,
100000
000000
000100
000000
,
000001
000000
001000
000100
,
010010
000000
100000
000000
,
001000
000000
100000
000000
,
000100
000000
000001
000000
,
001000
000000
000001
000000
,
000000
000000
001000
000100
,
010010
000000
100000
000000
,
000100
000000
000001
000000
,
000100
000000
100000
000000
,
010010
000000
001100
000000
,
100001
000000
001100
000000
,
000001
000010
000001
000100
,
001000
000100
100000
010000
,
100000
000000
000000
000000
;

//---------------dance-solo - ----------------
#NOTEDATA:;
#CHARTNAME:;
#STEPSTYPE:dance-solo;
#DESCRIPTION:;
#CHARTSTYLE:;
#DIFFICULTY:Medium;
#METER:4;
#RADARVALUES:0.278665,0.411926,0.217950,0.000000,0.000000,179.000000,159.000000,20.000000,0.000000,0.000000,0.000000,0.000000,0.000000,0.000000,0.278665,0.411926,0.217950,0.000000,0.000000,179.000000,159.000000,20.000000,0.000000,0.000000,0.000000,0.000000,0.000000,0.000000;
#CREDIT:;
#DISPLAYBPM:170.000000;
#NOTES:
000000
000000
000000
000000
,
000000
000000
000000
000000
,
000000
000000
000000
000000
,
000000
000000
000000
000000
,
000000
000000
000000
000000
,
000000
000000
000000
000000
,
000000
000000
001000
100000
,
001000
100000
001000
100000
,
000010
000000
000000
001000
,
000001
001000
000001
001000
,
010000
000000
001000
000101
,
101000
000000
000000
001000
,
100000
001000
000100
001000
,
100000
001000
000010
010000
,
100001
000000
000000
000000
,
000000
000000
000000
000000
,
000011
000000
000100
000000
,
110000
000000
000000
000000
,
000001
000000
100100
000000
,
000010
000000
100000
001000
000000
000000
000000
000000
,
100000
000000
000001
000000
,
000001
000000
100000
000000
,
000001
000000
101000
000000
,
000010
000000
100000
001000
100000
000000
000000
000000
,
000001
000000
100000
000000
,
100000
000000
000001
000000
,
100000
000000
000101
000000
,
010000
000000
000001
001000
000000
000000
000000
000000
,
001000
000000
000100
000000
,
000100
000000
001000
000000
,
100000
000000
001001
000000
,
010000
000000
000001
001000
000001
000000
000000
000000
,
000100
000000
001000
000000
,
001000
000000
000100
000000
,
100000
010000
001000
000000
,
010000
000000
010000
000000
,
000001
000010
001000
000000
,
000010
000000
000010
000000
,
100000
001000
000001
000000
,
100000
010000
000001
001000
,
100000
000000
010000
000000
000000
000001
001000
000000
,
100000
000000
010000
000000
000000
000001
100000
000000
,
000000
000000
001000
100000
,
001000
100000
001000
100000
,
000101
000000
000000
001000
,
000001
001000
000001
001000
,
100000
001000
100000
001000
,
010010
000000
001000
100000
,
001000
100000
001000
100000
,
000101
000000
000000
001000
,
000001
001000
000001
001000
,
010010
000000
000010
100100
,
001001
000000
000000
001000
,
000001
001000
000100
001000
,
000001
001000
000100
000000
,
000000
000000
010000
000101
,
101000
000000
000000
001000
,
100000
001000
000100
001000
,
100000
001000
010010
001001
,
101000
000000
000000
010000
000010
000000
000000
000000
,
001000
000000
000000
000000
000010
000000
000000
001000
,
000100
000000
000000
001000
000100
000000
000000
000000
,
000010
000100
010000
000100
,
001000
000000
000000
000000
;

//---------------dance-solo - ----------------
#NOTEDATA:;
#CHARTNAME:;
#STEPSTYPE:dance-solo;
#DESCRIPTION:;
#CHARTSTYLE:;
#DIFFICULTY:Hard;
#METER:7;
#RADARVALUES:0.457696,0.583562,0.708339,0.000000,0.000000,294.000000,229.000000,65.000000,0.000000,0.000000,0.000000,0.000000,0.000000,0.000000,0.457696,0.583562,0.708339,0.000000,0.000000,294.000000,229.000000,65.000000,0.000000,0.000000,0.000000,0.000000,0.000000,0.000000;
#CREDIT:;
#DISPLAYBPM:170.000000;
#NOTES:
000000
000000
000000
000000
,
000000
000000
000000
000000
,
000000
000000
000000
000000
,
000000
000000
000000
000000
,
000000
000000
000000
000000
,
000000
000000
000000
000000
,
000000
000000
101000
000010
,
000001
000000
010000
000000
100000
000000
100000
000001
,
001000
000000
000000
000000
000000
000000
100000
001000
,
100000
000000
010000
000000
100000
000000
100000
000001
,
000100
000000
000000
000000
010000
000000
000010
000100
,
001000
000000
000000
000000
000000
000000
100000
001000
,
100000
000010
000001
010000
,
100000
000000
000101
000000
101000
000000
100000
001000
,
100000
000000
000000
000000
100000
000000
000000
000001
,
000000
000100
000000
001000
000000
000100
000000
000000
,
000110
000011
010100
110000
,
100001
000000
000000
000000
,
100100
000000
001001
000000
100000
000010
001000
000000
,
000100
000000
100000
000010
001000
000000
000000
000000
,
000001
001000
100000
000100
,
001000
000100
010010
000000
,
101000
100100
101000
100100
,
101000
000000
100000
000010
001000
000000
000000
000000
,
100000
001000
000001
000100
,
001000
000100
010010
000000
,
100100
000000
001001
000000
100000
000010
001000
000000
,
000100
000000
100000
000010
001000
000000
000000
000000
,
001001
101000
100100
000101
,
001001
101000
010010
000000
,
001001
000101
001001
000101
,
001001
000000
000001
010000
001000
000000
000000
000000
,
101000
001001
000101
100100
,
101000
001001
010010
001000
,
100000
010000
001000
000001
100000
000000
000000
000000
,
000101
100100
001000
000000
,
000001
000010
001000
100000
000001
000000
000000
000000
,
100100
000101
001000
000000
,
100000
010000
001000
000001
100000
000000
000000
000000
,
110000
000001
000011
100000
,
000011
000000
100000
000000
000000
000010
010000
000000
,
110000
000000
000001
000000
000000
010000
000010
000000
,
000000
000000
101000
000010
,
000001
000000
010000
000000
100000
000000
000001
001000
,
100000
000000
000000
000000
000000
000000
100000
000100
,
100000
000000
000001
000100
000001
000000
100000
001000
,
100000
000000
000001
001000
000001
000000
010000
000010
,
001000
000000
101000
000010
,
000001
000000
010000
000000
100000
000000
000001
001000
,
100000
000000
000000
000000
000000
000000
100000
001000
,
100000
000000
010000
000000
100000
000000
000001
001000
,
100000
000000
000101
101000
,
000101
000000
000000
000000
000000
000000
100000
001000
,
100000
100000
001000
000001
001000
001000
000001
100000
,
000100
000100
000000
001000
000100
000000
000000
000000
,
000000
000000
101000
000101
,
101000
000000
000000
000000
000000
000000
100000
001000
,
100000
100000
001000
000001
001000
001000
000001
100000
,
000001
101000
000101
001001
,
100100
000000
000000
100000
010000
000000
000000
010100
,
000000
000110
000000
010100
000000
000110
000000
100000
,
010000
000000
000000
000001
000010
000000
000000
101000
,
000000
000101
000000
001100
000000
100000
010000
100000
,
010000
000000
000000
000000
;

//---------------dance-threepanel - ----------------
#NOTEDATA:;
#CHARTNAME:;
#STEPSTYPE:dance-threepanel;
#DESCRIPTION:;
#CHARTSTYLE:;
#DIFFICULTY:Easy;
#METER:3;
#RADARVALUES:0.227291,0.308945,0.119873,0.000000,0.000000,146.000000,135.000000,11.000000,0.000000,0.000000,0.000000,0.000000,0.000000,0.000000,0.227291,0.308945,0.119873,0.000000,0.000000,146.000000,135.000000,11.000000,0.000000,0.000000,0.000000,0.000000,0.000000,0.000000;
#CREDIT:;
#DISPLAYBPM:170.000000;
#NOTES:
000
000
000
000
,
000
000
000
000
,
000
000
000
000
,
000
000
000
000
,
000
000
000
000
,
000
000
000
000
,
000
000
010
000
,
100
000
010
000
,
100
000
010
000
,
100
000
010
010
,
010
000
001
000
,
010
000
001
000
,
010
000
001
000
,
100
000
001
100
,
001
000
000
000
,
000
000
000
000
,
010
000
101
000
,
010
000
000
000
,
100
010
010
001
,
100
010
010
000
,
001
000
100
000
,
010
000
001
000
,
010
010
010
100
,
001
010
010
000
,
100
000
001
000
,
010
000
100
000
,
100
010
010
001
,
100
010
010
000
,
001
000
100
000
,
010
000
010
000
,
001
010
010
100
,
001
010
010
000
,
100
000
001
000
,
010
000
010
000
,
101
000
101
000
,
100
000
010
000
,
101
000
101
000
,
001
000
010
000
,
010
000
101
000
,
010
100
010
001
,
100
000
001
000
000
010
010
000
,
100
000
001
000
000
010
010
000
,
000
000
010
000
,
100
000
010
000
,
100
000
010
000
,
001
000
010
000
,
001
000
010
010
,
101
000
010
000
,
001
000
010
000
,
100
000
010
000
,
001
000
010
010
,
101
000
100
000
,
010
000
100
000
,
010
000
001
000
,
010
000
001
000
,
000
000
010
010
,
101
000
010
000
,
010
000
001
000
,
010
000
100
000
,
101
000
010
000
,
101
000
010
000
,
001
010
001
010
,
010
010
100
010
,
100
000
000
000
;

//---------------dance-threepanel - ----------------
#NOTEDATA:;
#CHARTNAME:;
#STEPSTYPE:dance-threepanel;
#DESCRIPTION:;
#CHARTSTYLE:;
#DIFFICULTY:Medium;
#METER:4;
#RADARVALUES:0.278665,0.411926,0.217950,0.000000,0.000000,179.000000,159.000000,20.000000,0.000000,0.000000,0.000000,0.000000,0.000000,0.000000,0.278665,0.411926,0.217950,0.000000,0.000000,179.000000,159.000000,20.000000,0.000000,0.000000,0.000000,0.000000,0.000000,0.000000;
#CREDIT:;
#DISPLAYBPM:170.000000;
#NOTES:
000
000
000
000
,
000
000
000
000
,
000
000
000
000
,
000
000
000
000
,
000
000
000
000
,
000
000
000
000
,
000
000
010
100
,
010
100
010
100
,
001
000
000
010
,
001
010
001
010
,
100
000
010
011
,
110
000
000
010
,
100
010
010
010
,
100
010
001
100
,
101
000
000
000
,
000
000
000
000
,
011
000
010
000
,
110
000
000
000
,
001
000
110
000
,
001
000
100
010
000
000
000
000
,
100
000
001
000
,
010
000
100
000
,
001
000
110
000
,
001
000
100
010
100
000
000
000
,
001
000
100
000
,
010
000
001
000
,
100
000
011
000
,
100
000
001
010
000
000
000
000
,
010
000
010
000
,
010
000
010
000
,
100
000
011
000
,
100
000
001
010
001
000
000
000
,
010
000
010
000
,
010
000
010
000
,
100
010
010
000
,
100
000
010
000
,
001
010
010
000
,
001
000
010
000
,
100
010
001
000
,
100
010
001
010
,
100
000
010
000
000
001
010
000
,
100
000
010
000
000
001
100
000
,
000
000
010
100
,
010
100
010
100
,
011
000
000
010
,
001
010
001
010
,
100
010
100
010
,
101
000
010
100
,
010
100
010
100
,
011
000
000
010
,
001
010
001
010
,
101
000
010
110
,
011
000
000
010
,
001
010
010
010
,
001
010
010
000
,
000
000
100
011
,
110
000
000
010
,
100
010
010
010
,
100
010
101
011
,
110
000
000
010
001
000
000
000
,
010
000
000
000
001
000
000
010
,
010
000
000
010
010
000
000
000
,
001
010
100
010
,
010
000
000
000
;

//---------------dance-threepanel - ----------------
#NOTEDATA:;
#CHARTNAME:;
#STEPSTYPE:dance-threepanel;
#DESCRIPTION:;
#CHARTSTYLE:;
#DIFFICULTY:Hard;
#METER:7;
#RADARVALUES:0.456139,0.583562,0.697441,0.000000,0.000000,293.000000,229.000000,64.000000,0.000000,0.000000,0.000000,0.000000,0.000000,0.000000,0.456139,0.583562,0.697441,0.000000,0.000000,293.000000,229.000000,64.000000,0.000000,0.000000,0.000000,0.000000,0.000000,0.000000;
#CREDIT:;
#DISPLAYBPM:170.000000;
#NOTES:
000
000
000
000
,
000
000
000
000
,
000
000
000
000
,
000
000
000
000
,
000
000
000
000
,
000
000
000
000
,
000
000
110
010
,
001
000
010
000
100
000
010
001
,
010
000
000
000
000
000
100
010
,
100
000
010
000
100
000
010
001
,
010
000
000
000
100
000
001
010
,
010
000
000
000
000
000
100
010
,
100
010
001
010
,
100
000
011
000
110
000
100
010
,
100
000
000
000
010
000
000
001
,
000
010
000
010
000
010
000
000
,
011
011
110
110
,
101
000
000
000
,
110
000
011
000
100
001
010
000
,
010
000
100
001
010
000
000
000
,
001
010
100
010
,
010
010
101
000
,
110
110
110
110
,
110
000
100
001
010
000
000
000
,
100
010
001
010
,
010
010
101
000
,
110
000
011
000
100
001
010
000
,
010
000
100
001
010
000
000
000
,
011
110
110
011
,
011
110
101
000
,
011
011
011
011
,
011
000
001
100
010
000
000
000
,
110
011
011
110
,
110
011
101
010
,
100
010
010
001
100
000
000
000
,
011
110
010
000
,
001
010
010
100
001
000
000
000
,
110
011
010
000
,
100
010
010
001
100
000
000
000
,
110
001
011
100
,
011
000
100
000
000
001
010
000
,
110
000
001
000
000
100
010
000
,
000
000
110
010
,
001
000
010
000
100
000
001
010
,
100
000
000
000
000
000
010
010
,
100
000
001
010
001
000
100
010
,
100
000
001
010
001
000
100
001
,
010
000
110
010
,
001
000
010
000
100
000
001
010
,
100
000
000
000
000
000
100
010
,
100
000
010
000
100
000
001
010
,
100
000
011
110
,
011
000
000
000
000
000
100
010
,
100
100
010
001
010
010
001
100
,
010
010
000
010
010
000
000
000
,
000
000
110
011
,
110
000
000
000
000
000
100
010
,
100
100
010
001
010
010
001
100
,
001
110
011
011
,
110
000
000
100
010
000
000
110
,
000
011
000
110
000
011
000
100
,
010
000
000
001
010
000
000
110
,
000
011
000
010
000
100
010
100
,
010
000
000
000
;

//---------------dance-single - ----------------
#NOTEDATA:;
#CHARTNAME:;
#STEPSTYPE:dance-single;
#DESCRIPTION:;
#CHARTSTYLE:;
#DIFFICULTY:Beginner;
#METER:3;
#RADARVALUES:0.166576,0.240290,0.021795,0.043590,0.000000,107.000000,105.000000,2.000000,4.000000,0.000000,0.000000,0.000000,0.000000,0.000000,0.166576,0.240290,0.021795,0.043590,0.000000,107.000000,105.000000,2.000000,4.000000,0.000000,0.000000,0.000000,0.000000,0.000000;
#CREDIT:;
#DISPLAYBPM:170.000000;
#NOTES:
0000
0000
0000
0000
,
0000
0000
0000
0000
,
0000
0000
0000
0000
,
0000
0000
0000
0000
,
0001
0000
0000
0000
,
1000
0000
0000
0000
,
0010
0000
0000
0000
,
1000
0000
0100
0000
,
1000
0000
0000
0000
,
0001
0000
0010
0000
,
0001
0000
0100
0000
,
0100
0000
0000
0000
,
0010
0000
1000
0000
,
0001
0000
1000
0000
,
0100
0000
0000
0000
,
1000
1000
1000
0000
,
0020
0000
0000
0030
,
0010
0000
0000
0000
,
1000
0000
0001
0000
,
0010
0010
0000
0000
,
0001
0000
1000
0000
,
0010
0010
0000
0000
,
1000
0000
0100
0000
,
1000
0000
1000
0000
,
0001
0000
0100
0000
,
0001
0000
0001
0000
,
0010
0000
0100
0000
,
1000
1000
0000
0000
,
0010
0000
0100
0000
,
0001
0001
0000
0000
,
1000
1000
1000
0000
,
0100
0100
0100
0000
,
0010
0010
0010
0000
,
0001
0001
0001
0000
,
2000
0000
3000
0000
,
0001
0000
1000
0000
,
0020
0000
0030
0000
,
0100
0000
0001
0000
,
0200
0000
0300
0000
,
0001
0000
1000
0000
,
0010
0010
0000
0000
,
0100
0100
0000
0000
,
1001
0000
0000
0000
,
1000
0000
0100
0000
,
1000
0000
0000
0000
,
0010
0000
0010
0000
,
1000
0000
0001
0000
,
0100
0000
0010
0000
,
0100
0000
0001
0000
,
0001
0000
0000
0000
,
0010
0000
0100
0000
,
1000
0000
0001
0000
,
0001
0000
0000
0000
,
1000
0000
0001
0000
,
1000
0000
0100
0000
,
0000
0000
0010
0000
,
0010
0000
0000
0000
,
0001
0000
1000
0000
,
0001
0000
0100
0000
,
0010
0000
0000
0000
,
1000
0000
0000
0000
,
0001
0000
0000
0000
,
0100
0100
0100
0000
,
1001
0000
0000
0000
;

//---------------dance-single - ----------------
#NOTEDATA:;
#CHARTNAME:;
#STEPSTYPE:dance-single;
#DESCRIPTION:;
#CHARTSTYLE:;
#DIFFICULTY:Easy;
#METER:6;
#RADARVALUES:0.275552,0.343272,0.065385,0.043590,0.000000,177.000000,171.000000,6.000000,4.000000,0.000000,0.000000,0.000000,0.000000,0.000000,0.275552,0.343272,0.065385,0.043590,0.000000,177.000000,171.000000,6.000000,4.000000,0.000000,0.000000,0.000000,0.000000,0.000000;
#CREDIT:;
#DISPLAYBPM:170.000000;
#NOTES:
0000
0000
0000
0000
,
0000
0000
0000
0000
,
0000
0000
0000
0000
,
0000
0000
0000
0000
,
0001
0000
0010
0000
,
1000
0000
0010
0000
,
0001
0000
1000
0100
,
1000
0000
0010
0100
,
0001
0000
0000
0000
,
0010
0100
1000
0000
,
0001
0000
1000
0010
,
0100
0000
0000
0000
,
0001
0001
1000
1000
,
0001
0100
0010
1000
,
0100
0000
0010
0000
,
0001
0001
1000
0001
,
0020
0000
0000
0030
,
1001
0000
0000
0000
,
1000
0100
1000
0100
,
0010
0010
0010
0000
,
0001
0100
0001
0100
,
0010
0010
0010
0000
,
1000
0001
1000
0100
,
0010
0010
0010
0000
,
0001
1000
0001
0100
,
0010
0010
0010
0000
,
0100
0010
0100
0001
,
1000
1000
1000
0000
,
0100
0010
0100
1000
,
0001
0001
0001
0000
,
0010
0001
0010
0001
,
1000
1000
1000
0000
,
0010
1000
0010
1000
,
0001
0001
0001
0000
,
0200
0000
0310
0000
,
2000
0000
3001
0000
,
1000
0100
0010
0000
,
0002
0000
1003
0000
,
0010
1000
0100
0000
,
1000
0001
1000
0001
,
0010
0010
0000
1001
,
0100
0100
0000
1001
,
0110
0000
0000
0000
,
1000
0100
1000
0010
,
0001
0000
0000
0000
,
0100
0010
0100
0000
,
0001
0010
0001
0000
,
1000
0000
0010
0100
,
0001
0000
1000
0001
,
0100
0000
0000
0000
,
0001
0010
0001
0100
,
0010
0000
1000
0100
,
0001
0000
0000
0000
,
1000
1000
0001
0001
,
1000
0100
0001
0000
,
0110
0000
0100
1000
,
0010
0000
0000
0000
,
0100
0100
0010
0010
,
1000
0001
0010
0100
,
1000
0000
0001
0000
,
1000
0100
1000
0001
,
0100
0000
0010
0000
,
0100
0100
0001
1000
,
1001
0000
0000
0000
;

//---------------dance-single - ----------------
#NOTEDATA:;
#CHARTNAME:;
#STEPSTYPE:dance-single;
#DESCRIPTION:;
#CHARTSTYLE:;
#DIFFICULTY:Medium;
#METER:9;
#RADARVALUES:0.442128,0.549235,0.326926,0.261540,0.000000,284.000000,254.000000,30.000000,24.000000,0.000000,0.000000,0.000000,0.000000,0.000000,0.442128,0.549235,0.326926,0.261540,0.000000,284.000000,254.000000,30.000000,24.000000,0.000000,0.000000,0.000000,0.000000,0.000000;
#CREDIT:;
#DISPLAYBPM:170.000000;
#NOTES:
0000
0000
0000
0000
,
0000
0000
0000
0000
,
0000
0000
0000
0000
,
0000
0000
0000
0000
,
0001
0000
1000
0010
0000
0000
1000
0100
,
0010
0000
0001
1000
0000
0000
0101
0000
,
1100
0000
0020
2030
,
3001
0100
0001
0100
0001
1000
0010
0100
,
0001
0000
0000
0000
0000
0000
0010
0100
,
2000
3002
0023
0230
,
0310
0000
0000
0000
0001
0000
1000
0001
,
0000
0000
0000
0000
0000
0000
0100
0010
,
1000
0000
0001
0010
0000
0001
0010
0100
,
1000
1000
0001
0001
,
1001
0000
0010
0000
0101
0000
1000
0001
,
0000
0010
0000
0001
1000
0001
0100
0000
,
0020
0200
0000
0000
0000
0000
0330
0000
,
1001
0000
0000
0000
,
1000
0000
0010
0000
1000
0001
1000
0001
,
0100
0000
0010
1000
0000
0000
0000
0000
,
0001
0000
0010
0000
0001
0100
0010
0100
,
0001
0000
1000
0010
0000
0000
0000
0000
,
0110
0000
1000
0001
0000
0000
1000
0100
,
0010
0100
0010
0100
0010
0000
0000
0000
,
0110
0000
0001
1000
0000
0000
0001
0100
,
0010
0100
0010
0100
0010
0000
0000
0000
,
1000
0000
1000
0000
0001
0100
0001
0100
,
0010
0000
0100
0001
0000
0000
0000
0000
,
0010
0000
0010
0000
0001
1000
0001
1000
,
0010
0000
1000
0100
0000
0000
0000
0000
,
1000
0100
1000
0100
0010
0000
0010
0100
,
1000
0001
1000
0001
0100
0000
0000
0000
,
0001
0010
0001
0010
0100
0000
0010
0001
,
1000
0001
1000
0001
0100
0000
1010
0000
,
0002
0000
1003
0000
,
0020
0000
0130
0000
,
0001
1000
0001
0000
0010
0000
0000
0000
,
2000
0000
3100
0000
,
1000
0001
1000
0000
0100
0000
0000
0000
,
0011
0101
1100
0101
,
0110
0000
1001
0000
0000
1000
0100
0000
,
0110
0000
1001
0000
0000
0001
0010
0000
,
1001
0000
0020
0230
,
0301
1000
0001
0010
0100
0010
0100
1000
,
0001
0000
0000
0000
0000
0000
1000
0001
,
0010
0000
0001
0100
0000
0000
0010
1000
,
0001
0000
1000
0100
0000
0000
0011
0000
,
1100
0000
0002
2003
,
3001
0010
0001
0010
0100
1000
0100
1000
,
0010
0000
0000
0000
0000
0000
1000
0001
,
2000
3020
0230
0302
,
0023
0000
0030
0000
1001
0000
0100
0010
,
1000
0000
0000
0000
0000
0000
0001
0010
,
0001
0000
1000
0001
0000
1000
0010
0100
,
0001
0000
1000
0100
0000
0000
0000
0000
,
0110
0000
0000
0000
1001
0000
0010
0100
,
0001
0000
0000
0000
0000
0000
1000
0100
,
0010
0000
0001
1000
0000
0001
1000
0010
,
2000
3200
0320
0032
,
0103
0000
0000
0010
1000
0000
0000
0011
,
0000
1100
0000
0101
0000
1010
0000
1000
,
0001
0000
0000
0010
0100
0000
0000
1100
,
0000
0101
0000
1100
0000
1000
0001
0000
,
1001
0000
0000
0000
;

//---------------dance-single - ----------------
#NOTEDATA:;
#CHARTNAME:;
#STEPSTYPE:dance-single;
#DESCRIPTION:;
#CHARTSTYLE:;
#DIFFICULTY:Hard;
#METER:12;
#RADARVALUES:0.647624,0.617889,0.305131,0.174360,0.108975,416.000000,388.000000,28.000000,16.000000,0.000000,0.000000,0.000000,0.000000,0.000000,0.647624,0.617889,0.305131,0.174360,0.108975,416.000000,388.000000,28.000000,16.000000,0.000000,0.000000,0.000000,0.000000,0.000000;
#CREDIT:;
#DISPLAYBPM:170.000000;
#NOTES:
// measure 0
0000
0000
0000
0000
,  // measure 1
0000
0000
0000
0000
,  // measure 2
0000
0000
0000
0000
,  // measure 3
0000
0000
0000
0000
,  // measure 4
0001
0000
1000
0010
1000
0000
0100
0010
,  // measure 5
0001
0000
1000
0100
1000
0000
1010
0000
,  // measure 6
0101
0010
2000
3002
,  // measure 7
1003
0010
0100
0001
0010
0100
1000
0001
,  // measure 8
0100
0000
0000
0000
0010
0000
0000
1000
0000
0000
0001
0000
1000
0000
0100
0000
,  // measure 9
0020
0000
0032
0000
1003
0001
0100
0000
,  // measure 10
0110
0000
1000
0000
0001
0010
0001
1000
,  // measure 11
0000
0100
0000
0000
1000
0000
0000
0001
0000
0000
0100
0000
0010
0000
1000
0000
,  // measure 12
1001
0000
0010
1000
0100
1000
0001
0100
,  // measure 13
0001
0010
0001
0100
0001
1000
0100
0010
,  // measure 14
0001
0000
1000
0000
0101
0010
1000
0001
,  // measure 15
0100
0010
0100
1000
0100
0001
0100
0000
,  // measure 16
0010
0100
0001
0100
0001
0100
0001
0000
,  // measure 17
1001
0010
1000
0001
1000
0100
0010
0001
,  // measure 18
0020
0000
0230
0000
1300
0010
1000
0001
,  // measure 19
1000
0000
0100
0000
0001
0000
0100
0000
1000
0000
0000
0000
0000
0000
0001
0100
,  // measure 20
0002
0000
2003
0000
3010
0100
0001
0100
,  // measure 21
0001
0000
0010
0000
1000
0000
0010
0000
0001
0000
0000
0000
0000
0000
1000
0100
,  // measure 22
1000
0000
0010
0100
0001
0000
0010
0100
,  // measure 23
1000
0000
0010
0000
0001
0000
0010
0000
1000
0000
0000
0000
0000
0000
0100
0010
,  // measure 24
0100
1000
0010
1000
0001
0010
0001
0100
,  // measure 25
0001
0010
1000
0010
0001
0100
0010
1000
,  // measure 26
0101
0000
1010
0000
0001
1000
0001
0010
,  // measure 27
0100
0000
1000
0000
0001
0000
1000
0000
0010
0000
0100
0000
0000
0100
0000
0000
,  // measure 28
0110
0000
1001
0000
1000
0010
0100
0001
,  // measure 29
0010
0000
0100
0000
0010
0000
0001
0000
1000
0000
0001
0100
0001
0000
1000
0000
,  // measure 30
0010
0100
0010
0100
0001
0100
0010
0100
,  // measure 31
1000
0000
0100
0000
0010
0000
0100
0000
0001
0000
0000
0000
0000
0000
0100
0001
,  // measure 32
0100
0010
0100
0010
1000
0010
0100
0010
,  // measure 33
0001
0000
0010
0000
0100
0000
0010
0000
1000
0000
0000
0000
0100
0000
1000
0001
,  // measure 34
2000
0010
0010
3010
1010
0000
0000
0000
,  // measure 35
0002
0010
0010
0013
0011
0000
0000
0000
,  // measure 36
0001
1000
0001
1000
0010
0000
0000
0000
,  // measure 37
2000
0100
0100
3100
1100
0000
0000
0000
,  // measure 38
0001
1000
0001
1000
0100
0000
0000
0000
,  // measure 39
0010
0001
0100
0001
1000
0100
0001
0000
,  // measure 40
0011
0000
1100
0000
0000
0010
1001
0000
,  // measure 41
1100
0000
0101
0000
0000
0010
1001
0000
,  // measure 42
0110
0000
2000
3002
,  // measure 43
0013
0100
0010
0001
1000
0010
0001
0010
,  // measure 44
1000
0000
0100
0000
0010
0000
0000
0001
0000
1000
0000
0000
0010
0000
0100
0000
,  // measure 45
0020
1000
1030
0100
0020
0000
0031
1000
,  // measure 46
0002
0100
0103
0010
1000
0000
1010
0000
,  // measure 47
0101
1000
0001
0000
0010
0001
0100
0000
,  // measure 48
0001
0010
0100
1000
0010
0001
0010
1000
,  // measure 49
0100
0000
0010
0000
0001
0000
0000
1000
0000
0001
0000
0000
0100
0000
0010
0000
,  // measure 50
1000
0010
0100
0010
1000
0001
0010
0000
,  // measure 51
0011
0001
1000
0000
0010
0100
0010
1000
,  // measure 52
0000
0001
0000
0000
1000
0000
0000
0010
0000
0100
0000
0000
0001
0000
1000
0000
,  // measure 53
0001
0100
0010
0100
1000
0100
0010
0100
,  // measure 54
0001
0100
1000
0100
0001
1001
0000
0100
,  // measure 55
0110
0000
1000
0010
1000
0100
0010
0001
,  // measure 56
0000
0100
0000
0000
0010
0000
0000
1000
0000
0001
0000
0000
1000
0000
0100
0000
,  // measure 57
0001
0100
0010
0100
1000
0010
0100
0010
,  // measure 58
0001
0010
1000
0010
0001
0010
0100
0000
,  // measure 59
0101
0000
0010
1000
1000
0100
1000
0001
,  // measure 60
0000
0010
0001
0100
0001
0010
0001
1000
,  // measure 61
0100
0010
0100
0010
0001
1000
0001
0100
,  // measure 62
0010
1000
0001
1000
0100
0010
0011
0000
,  // measure 63
1001
0000
0000
0000
;
