#VERSION:0.83;
#TITLE:DON'T TRY TO STOP IT;
#SUBTITLE:;
#ARTIST:ROMAN HOLLIDAY;
#TITLETRANSLIT:;
#SUBTITLETRANSLIT:;
#ARTISTTRANSLIT:;
#GENRE:;
#ORIGIN:;
#CREDIT:;
#BANNER:DON'T TRY TO STOP IT-bn.png;
#BACKGROUND:DON'T TRY TO STOP IT-bg.png;
#PREVIEWVID:;
#JACKET:DON'T TRY TO STOP IT-jacket.png;
#CDIMAGE:;
#DISCIMAGE:;
#LYRICSPATH:;
#CDTITLE:;
#MUSIC:DON'T TRY TO STOP IT.ogg;
#OFFSET:-0.052000;
#SAMPLESTART:51.245998;
#SAMPLELENGTH:20.000000;
#SELECTABLE:YES;
#DISPLAYBPM:180.000000:205.000000;
#BPMS:0.000=191.218,
30.000=204.545,
32.000=185.567,
36.000=195.652,
44.000=189.474,
48.000=192.513,
56.000=189.474,
60.000=195.652,
64.000=193.548,
68.000=192.857,
71.000=187.500,
76.000=190.141,
79.000=180.000,
80.000=191.489,
84.000=195.652,
88.000=191.489,
96.000=191.761,
111.000=195.652,
112.000=192.073,
119.000=187.500,
124.000=193.548,
128.000=198.529,
131.000=195.652,
134.000=187.500,
139.000=190.773,
156.000=200.000,
160.000=195.652,
164.000=183.673,
168.000=190.476,
176.000=191.489,
180.000=197.802,
184.000=191.489,
188.000=190.141,
191.000=187.500,
192.000=190.141,
195.000=187.500,
196.000=195.652,
203.000=180.000,
204.000=191.489,
216.000=193.548,
220.000=192.857,
223.000=180.000,
224.000=191.489,
228.000=192.073,
235.000=187.500,
236.000=195.652,
239.000=180.000,
240.000=191.489,
244.000=195.652,
246.000=192.857,
252.000=189.474,
256.000=192.661,
270.000=187.500,
272.000=193.548,
276.000=195.122;
#STOPS:;
#DELAYS:;
#WARPS:;
#TIMESIGNATURES:0.000=4=4;
#TICKCOUNTS:0.000=4;
#COMBOS:0.000=1;
#SPEEDS:0.000=1.000=0.000=0;
#SCROLLS:0.000=1.000;
#FAKES:;
#LABELS:0.000=Song Start;
#BGCHANGES:;
#KEYSOUNDS:;
#ATTACKS:
;

//---------------dance-single - ----------------
#NOTEDATA:;
#CHARTNAME:;
#STEPSTYPE:dance-single;
#DESCRIPTION:;
#CHARTSTYLE:;
#DIFFICULTY:Beginner;
#METER:3;
#RADARVALUES:0.150129,0.272031,0.043788,0.000000,0.000000,96.000000,92.000000,4.000000,0.000000,0.000000,0.000000,0.000000,0.000000,0.000000,0.150129,0.272031,0.043788,0.000000,0.000000,96.000000,92.000000,4.000000,0.000000,0.000000,0.000000,0.000000,0.000000,0.000000;
#CREDIT:;
#DISPLAYBPM:180.000000:205.000000;
#NOTES:
0000
0000
0000
0000
,
0000
0000
0000
0000
,
0000
0000
0000
0000
,
0000
0000
0000
0000
,
0000
0000
0000
0000
,
1000
0000
0000
0000
,
0001
0000
0000
0000
,
1000
0000
0000
0000
,
0001
0000
0000
0000
,
0010
0000
0000
0000
,
0100
0000
0000
0000
,
0010
0000
0000
0000
,
0100
0000
0000
0000
,
0001
0000
0000
0000
,
1000
0000
0000
0000
,
0001
0000
0000
0000
,
1000
0000
0000
0000
,
0010
0000
0010
0000
,
0010
0000
0010
0000
,
0000
0000
0000
0000
,
0000
0000
0000
0000
,
0100
0000
0100
0000
,
0100
0000
0100
0000
,
0000
0000
0000
0000
,
0000
0000
0000
0000
,
0001
0000
0000
0000
,
0001
0000
0000
0000
,
1000
0000
0000
0000
,
1000
0000
0000
0000
,
0001
0000
0001
0000
,
1000
0000
1000
0000
,
0001
0000
1000
0000
,
1001
0000
0000
0000
,
0001
0000
0001
0000
,
1000
0000
1000
0000
,
0010
0000
0100
0000
,
0010
0000
0100
0000
,
0001
0000
0001
0000
,
1000
0000
1000
0000
,
0010
0000
0100
0000
,
1001
0000
0000
0000
,
0001
0000
0001
0000
,
0001
0000
0001
0000
,
0000
0000
0000
0000
,
0000
0000
0000
0000
,
1000
0000
1000
0000
,
1000
0000
1000
0000
,
0000
0000
0000
0000
,
0000
0000
0000
0000
,
0010
0000
0000
0000
,
0010
0000
0010
0000
,
1000
0000
0000
0000
,
1000
0000
1000
0000
,
0100
0000
0000
0000
,
0100
0000
0100
0000
,
0001
0000
0000
0000
,
0001
0000
0001
0000
,
1000
0000
1000
0000
,
0001
0000
0001
0000
,
1000
0000
0001
0000
,
1001
0000
0000
0000
,
0000
0000
0000
0000
,
0001
0000
0001
0000
,
1000
0000
1000
0000
,
0010
0000
0010
0000
,
0100
0000
0100
0000
,
0001
0000
1000
0000
,
0001
0000
1000
0000
,
0001
0001
0001
0000
,
1000
1000
1000
0000
,
0000
0000
0000
0000
,
1001
0000
0000
0000
;

//---------------dance-single - ----------------
#NOTEDATA:;
#CHARTNAME:;
#STEPSTYPE:dance-single;
#DESCRIPTION:;
#CHARTSTYLE:;
#DIFFICULTY:Easy;
#METER:5;
#RADARVALUES:0.222066,0.349754,0.251779,0.000000,0.000000,142.000000,119.000000,23.000000,0.000000,0.000000,0.000000,0.000000,0.000000,0.000000,0.222066,0.349754,0.251779,0.000000,0.000000,142.000000,119.000000,23.000000,0.000000,0.000000,0.000000,0.000000,0.000000,0.000000;
#CREDIT:;
#DISPLAYBPM:180.000000:205.000000;
#NOTES:
0000
0000
0000
0000
,
0000
0000
0000
0000
,
0000
0000
0000
0000
,
0000
0000
0000
0000
,
0000
0000
0000
0000
,
0000
1000
0000
1000
,
0000
1000
0000
1000
,
0000
0001
0000
0001
,
0000
0001
0000
0001
,
0010
0000
0100
0000
,
0010
0010
0010
0000
,
0001
0000
1000
0000
,
0001
0001
0001
0000
,
0100
0000
0010
0000
,
0100
0100
0100
0000
,
1000
0000
0001
0000
,
1000
1000
1000
0000
,
0001
0000
1000
0000
,
0001
0000
1000
0000
,
0000
0000
0000
0000
,
0000
0000
0000
0000
,
0010
0000
0100
0000
,
0010
0000
0100
0000
,
0000
0000
0000
0000
,
0000
0000
0000
0000
,
1001
0000
0000
0000
,
1001
0000
0000
0000
,
0110
0000
0000
0000
,
1001
0000
0110
0000
,
1001
0000
0000
0000
,
1001
0000
0000
0000
,
0110
0000
0000
0000
,
1001
0000
0110
0000
,
1000
0000
0001
0000
,
0100
0000
0010
0000
,
0001
0001
1000
1000
,
0010
0100
1001
0000
,
0010
0000
0001
0000
,
0100
0000
1000
0000
,
0010
1000
0001
0100
,
1001
0000
0000
0000
,
0001
0000
1000
0000
,
0001
0000
1000
0000
,
1001
0000
0000
0000
,
0110
0000
0000
0000
,
0100
0000
0010
0000
,
0100
0000
0010
0000
,
1001
0000
0000
0000
,
0110
0000
0000
0000
,
0010
0000
0000
0000
,
0010
0000
0010
0000
,
1000
0000
0000
0000
,
1000
0000
1000
0000
,
0100
0000
0000
0000
,
0100
0000
0100
0000
,
0001
0000
0000
0000
,
0001
0000
0001
0000
,
1000
0000
0001
0000
,
1000
0000
0001
0000
,
0010
0010
0100
0100
,
1001
0000
0000
0000
,
1001
0000
1001
0000
,
0110
0000
0000
0000
,
0110
0000
0110
0000
,
0010
0000
1000
0000
,
0100
0000
0001
0000
,
0010
0000
0001
0000
,
0100
0000
1000
0000
,
0001
0000
0100
0000
,
1000
0000
0100
0000
,
0001
0000
1000
0000
,
1001
0000
0000
0000
;

//---------------dance-single - ----------------
#NOTEDATA:;
#CHARTNAME:;
#STEPSTYPE:dance-single;
#DESCRIPTION:;
#CHARTSTYLE:;
#DIFFICULTY:Medium;
#METER:7;
#RADARVALUES:0.322152,0.426724,0.240832,0.000000,0.010947,206.000000,184.000000,22.000000,0.000000,0.000000,0.000000,0.000000,0.000000,0.000000,0.322152,0.426724,0.240832,0.000000,0.010947,206.000000,184.000000,22.000000,0.000000,0.000000,0.000000,0.000000,0.000000,0.000000;
#CREDIT:;
#DISPLAYBPM:180.000000:205.000000;
#NOTES:
0000
0000
0000
0000
,
0000
0000
0000
0000
,
0000
0000
0000
0000
,
0000
0000
0000
0000
,
0000
0000
0000
0000
,
0000
1000
0000
0001
,
0000
1000
0000
0001
,
0000
1000
0000
0001
,
1000
0001
1000
0001
,
1000
0001
0100
0000
,
0001
1000
0100
0000
,
0010
0001
0100
0000
,
0010
1000
0100
0000
,
1000
0001
0010
0000
,
0001
1000
0010
0000
,
0100
0001
0010
0000
,
0100
1000
0010
0000
,
0000
1001
0000
1001
,
0000
0110
0000
0110
,
0000
0001
0000
1000
,
0000
0010
0100
0010
,
0000
1001
0000
1001
,
0000
0110
0000
0110
,
0000
0001
0000
1000
,
0000
0001
1000
0000
,
1001
0000
0000
0000
,
0110
0000
0000
0000
,
0011
0000
0000
0000
,
1100
0000
0101
0000
,
1001
0000
0000
0000
,
0110
0000
0000
0000
,
1010
0000
0101
0000
,
1100
0000
1001
0000
,
0001
0000
0001
0000
,
1000
0000
1000
0000
,
0010
0000
0100
0000
,
0010
1000
0100
0001
,
0010
0000
0010
0000
,
0100
0000
0100
0000
,
0001
1000
0001
1000
,
0010
0000
0000
0000
,
0000
0001
0000
0001
,
0000
1000
0000
1000
,
0010
1000
0001
0100
,
0001
0001
1000
1000
,
0000
0001
0000
0001
,
0000
1000
0000
1000
,
0001
0100
1000
0010
,
0001
1000
0100
0010
,
0001
0000
0001
0000
,
0001
0001
0001
0000
,
1000
0000
1000
0000
,
1000
1000
1000
0000
,
0010
0010
0100
0100
,
0010
0100
0001
1000
,
0010
1000
0100
0001
,
0010
0001
0100
1000
,
0010
0000
0010
0000
,
1000
0000
0000
0001
0000
0000
1000
0000
0100
0001
0000
0000
,
0001
0000
0000
1000
0000
0000
0001
0000
0100
1000
0000
0000
,
0001
1000
0001
1000
,
0010
0100
0010
0100
,
0001
0100
1000
0100
,
0001
1000
0010
1000
,
0001
0001
1001
0000
,
1000
1000
1001
0000
,
0010
0010
0100
0100
,
1000
0001
1000
0001
,
1000
1000
0100
0000
,
0001
0001
0100
0000
,
0010
0100
0000
0001
0000
1000
0000
1001
;

//---------------dance-single - ----------------
#NOTEDATA:;
#CHARTNAME:;
#STEPSTYPE:dance-single;
#DESCRIPTION:;
#CHARTSTYLE:;
#DIFFICULTY:Hard;
#METER:11;
#RADARVALUES:0.501994,0.659483,0.405036,0.109469,0.492611,321.000000,284.000000,37.000000,10.000000,0.000000,0.000000,0.000000,0.000000,0.000000,0.501994,0.659483,0.405036,0.109469,0.492611,321.000000,284.000000,37.000000,10.000000,0.000000,0.000000,0.000000,0.000000,0.000000;
#CREDIT:;
#DISPLAYBPM:180.000000:205.000000;
#NOTES:
0000
0000
0000
0000
,
0000
0000
0000
0000
,
0000
0000
0000
0000
,
0000
0000
0000
0000
,
0000
0000
0000
0000
,
0000
1000
0000
0001
,
0000
1000
0000
0001
,
0000
1000
0000
0001
,
1000
0000
0010
0000
0001
0000
1000
0000
0100
0000
0001
0000
,
1000
0000
0001
1000
0000
0001
1000
0000
0000
0001
0000
0000
,
0100
0000
0010
0100
0000
0010
0100
0000
0000
0010
0000
0000
,
0001
0000
1000
0001
0000
1000
0001
0000
0000
1000
0000
0000
,
0010
0000
0100
0010
0000
0100
0010
0000
0000
0100
0000
0000
,
1000
0000
0010
1000
0000
0010
1000
0000
0000
0100
0000
0000
,
0010
0000
1000
0010
0000
1000
0010
0000
0000
0001
0000
0000
,
0100
0000
0001
0100
0000
0001
0100
0000
0000
0010
0000
0000
,
0001
0000
0100
0001
0000
0100
0001
0000
0000
1000
0000
0001
,
0000
0000
0000
1000
0000
0000
0001
0000
1000
0000
0000
0001
,
0000
0000
0000
1000
0000
0000
0001
0000
1000
0000
0000
0010
,
0000
0000
0010
0000
0000
1001
0000
0000
0000
0000
0000
0100
,
0000
0000
0100
0000
0000
1001
0000
0000
0000
0000
0000
0010
,
0000
0000
0000
0100
0000
0000
0010
0000
0100
0000
0000
0010
,
0000
0000
0000
0100
0000
0000
0010
0000
0100
0000
0000
1001
,
0000
0000
0110
0000
0000
1001
0000
0000
0100
0010
0000
0100
,
0000
0000
0000
0010
0000
0000
1000
0000
0001
0000
0000
0000
,
2000
0000
0000
3000
,
0002
0000
0000
0003
,
0200
0300
0020
0030
,
2002
3003
0220
0330
,
0001
1000
0010
0100
,
0010
1000
0001
0100
,
0010
1000
0100
0010
,
0001
1000
0010
0100
,
0001
1000
0010
0100
,
0001
0000
1000
0100
0000
0000
0010
0000
0000
0100
0000
0000
,
0010
0001
1000
0010
,
1000
0000
0001
0100
0000
0000
0010
0000
0000
0100
0000
0000
,
1001
0000
0000
0110
0000
0000
1000
0000
0100
0001
0000
0100
,
1000
0001
1000
0001
,
2002
0000
0000
3003
,
0001
0000
1000
0000
0010
0000
0100
0000
0001
0000
1000
0000
,
0000
0011
0000
1100
,
0000
0000
0000
0000
0011
0000
0000
0000
0000
0000
0000
0000
1100
0000
0000
0010
,
0000
0000
0000
0100
0000
0000
0000
0010
0000
0000
0000
1000
0001
0000
0000
0100
,
0000
0000
0000
0010
0000
0000
1000
0000
0001
0000
0000
0000
,
0000
1010
0000
0101
,
0000
0000
0000
0000
1010
0000
0000
0000
0000
0000
0000
0000
0101
0000
0000
0010
,
0000
0000
0000
0100
0000
0000
0000
0010
0000
0000
0000
0001
1000
0000
0000
0100
,
0000
0000
0000
0010
0000
0000
0001
0000
1000
0000
0000
0000
,
0010
0000
0010
0000
0000
0000
0001
0000
0010
0000
0000
0000
,
1000
0000
0010
0000
0000
0000
0100
0000
0010
0000
0000
0000
,
0100
0000
0100
0000
0000
0000
1000
0000
0100
0000
0000
0000
,
0001
0000
0100
0000
0000
0000
0010
0000
0100
0000
0000
0000
,
0010
0000
0000
1000
0000
0000
0010
0000
1000
0100
0000
0000
,
0001
0000
0000
0010
0000
0000
0001
0000
0010
0001
0000
0000
,
0100
0000
0000
1000
0000
0000
0100
0000
1000
0010
0000
0000
,
0001
0000
0000
0100
0000
0000
0001
0000
0100
1000
0000
0000
,
0001
0000
0000
0001
0000
0000
0001
0000
1000
0001
0000
0000
,
1000
0000
0000
1000
0000
0000
1000
0000
0001
1000
0000
0000
,
1001
1001
0110
0110
,
1000
0000
0001
0010
0000
0000
0100
0000
0010
0100
0000
0000
,
0001
0000
0100
1000
0000
0000
0001
0000
1000
0100
0000
0000
,
0010
0000
0001
0100
0000
0000
0010
0000
1000
0100
0000
0000
,
1000
0000
0001
0100
0000
0000
0001
0000
1000
0100
0000
0000
,
1001
1001
0110
0110
,
1010
0101
0011
1100
,
0001
0000
1000
0001
0000
0000
1000
0000
0001
1000
0000
0000
,
0010
0000
0100
0010
0000
0000
0100
0000
0010
0100
0000
0000
,
1001
0110
1001
0110
,
1000
0000
0001
0000
0000
0100
0001
0000
0010
0100
0000
1000
,
0001
0100
0000
1001
0000
0110
0000
1001
;

//---------------dance-double - ----------------
#NOTEDATA:;
#CHARTNAME:;
#STEPSTYPE:dance-double;
#DESCRIPTION:;
#CHARTSTYLE:;
#DIFFICULTY:Easy;
#METER:6;
#RADARVALUES:0.281492,0.388615,0.394089,0.000000,0.000000,180.000000,144.000000,36.000000,0.000000,0.000000,0.000000,0.000000,0.000000,0.000000,0.281492,0.388615,0.394089,0.000000,0.000000,180.000000,144.000000,36.000000,0.000000,0.000000,0.000000,0.000000,0.000000,0.000000;
#CREDIT:;
#DISPLAYBPM:180.000000:205.000000;
#NOTES:
00000000
00000000
00000000
00000000
,
00000000
00000000
00000000
00000000
,
00000000
00000000
00000000
00000000
,
00000000
00000000
00000000
00000000
,
00000000
00000000
00000000
00000000
,
00000000
00001000
00000000
00010000
,
00000000
00001000
00000000
00010000
,
00000000
00001000
00000000
00010000
,
00011000
00000000
00000000
00000000
,
00000000
00000010
00000000
00000010
,
00000000
00000001
00000000
00000001
,
00000000
00000100
00000000
00000100
,
00000000
00001000
00000000
00001000
,
00000000
00010000
00000000
00010000
,
00000000
01000000
00000000
01000000
,
00000000
10000000
00000000
10000000
,
00000000
00100000
00000000
00100000
,
00000000
10010000
00000000
01100000
,
00000000
10010000
00000000
01100000
,
00000000
01000000
00000000
00010000
,
00000000
00001000
00000000
00000100
,
00000000
00001001
00000000
00000110
,
00000000
00001001
00000000
00000110
,
00000000
00000010
00000000
00001000
,
00000000
00010000
00000000
00100000
,
10010000
00000000
00000000
00000000
,
00011000
00000000
00000000
00000000
,
00001001
00000000
00000000
00000000
,
00011000
00000000
00000000
00000000
,
00100000
00000000
00010000
00000000
,
10000000
00000000
01000000
00000000
,
00010000
00000000
00001000
00000000
,
00000100
00000000
00000001
00000000
,
00001000
00000010
00000100
00000001
,
00000100
00000000
00001000
00000000
,
00010000
01000000
10000000
00100000
,
01000000
00000000
10010000
00000000
,
01100000
00000000
10010000
00000000
,
00011000
00000000
00001001
00000000
,
00000110
00000000
00001001
00000000
,
00011000
00000000
00000000
00000000
,
00100000
00001000
00100000
00001000
,
00010000
00000010
00010000
00000010
,
00000000
00000000
00000000
00000000
,
00000000
00000000
00000000
00000000
,
00000100
00010000
00000100
00010000
,
00001000
01000000
00001000
01000000
,
00000000
00000000
00000000
00000000
,
00000000
00000000
00000000
00000000
,
10010000
00000000
01100000
00000000
,
01000000
00010000
00001000
00000000
,
00001001
00000000
00000110
00000000
,
00000100
00001000
00010000
00000000
,
10010000
00000000
00011000
00000000
,
00001001
00000000
00011000
00000000
,
00100000
10000000
01000000
00010000
,
00001000
00000100
00000001
00000000
,
00001001
00000000
00011000
00000000
,
10010000
00000000
00011000
00000000
,
00000010
00001000
00000100
00010000
,
00001000
00000000
00010000
00000000
,
00001000
00100000
00010000
00000000
,
10000000
00000000
01000000
00000000
,
00010000
00001000
00000100
00000000
,
00000001
00000000
00001000
00000000
,
00000010
00001000
00000100
00000000
,
00010000
00000000
00001000
00000000
,
00100000
00010000
01000000
00000000
,
00100000
00010000
00001000
00000000
,
00000010
00001000
00010000
00000000
,
00010100
00000000
01001000
00000000
,
00011000
00000000
00000000
00000000
;

//---------------dance-double - ----------------
#NOTEDATA:;
#CHARTNAME:;
#STEPSTYPE:dance-double;
#DESCRIPTION:;
#CHARTSTYLE:;
#DIFFICULTY:Medium;
#METER:7;
#RADARVALUES:0.395653,0.426724,0.372195,0.000000,0.027367,253.000000,219.000000,34.000000,0.000000,0.000000,0.000000,0.000000,0.000000,0.000000,0.395653,0.426724,0.372195,0.000000,0.027367,253.000000,219.000000,34.000000,0.000000,0.000000,0.000000,0.000000,0.000000,0.000000;
#CREDIT:;
#DISPLAYBPM:180.000000:205.000000;
#NOTES:
00000000
00000000
00000000
00000000
,
00000000
00000000
00000000
00000000
,
00000000
00000000
00000000
00000000
,
00000000
00000000
00000000
00000000
,
00000000
00000000
00000000
00000000
,
00000000
10000000
00000000
00010000
,
00000000
00001000
00000000
00000001
,
00000000
00000100
00000000
00001000
,
00010000
01000000
10000000
00100000
,
10000000
00010000
01000000
00000000
,
00100000
00010000
00001000
00000000
,
00000010
00000100
00001000
00000001
,
00000100
00001000
00010000
01000000
,
10000000
00010000
01000000
00000000
,
00100000
00010000
00001000
00000000
,
00000010
00000100
00001000
00000001
,
00000100
00001000
00010000
00001000
,
00000000
00101000
00000000
01010000
,
00000000
00101000
00000000
01010000
,
00100000
10000000
01000000
00010000
,
01000000
10000000
00100000
00010000
,
00000000
00010010
00000000
00001100
,
00000000
00010010
00000000
00001100
,
00000010
00000001
00000100
00001000
,
00000100
00000001
00000010
00001000
,
00010000
00001000
00100000
00000000
,
00001000
00010000
00000010
00000000
,
00010000
00001000
00100000
00010000
,
10000000
01000000
10010000
00000000
,
01000000
00001000
00010000
00000000
,
00000100
00010000
00001000
00000000
,
00010000
00000100
00001000
00000010
,
00000100
00000000
00000000
00000001
00000000
00000000
00000000
00000000
00001000
00000001
00000000
00000000
,
00000010
00000001
00001000
00000100
,
00010000
00001000
01000000
00010000
,
10000000
00100000
01000000
00001000
,
00010000
00000100
00001000
00000001
,
00000110
00000000
00011000
00000000
,
01100000
00000000
00011000
00000000
,
00100000
00010000
10000000
01000000
,
00011000
00000000
00000000
00000000
,
00000000
00001001
00000000
00001010
,
00000000
00010100
00000000
00001010
,
00000100
00000001
00000010
00001000
,
00010000
01000000
10000000
00100000
,
00000000
10010000
00000000
00110000
,
00000000
01001000
00000000
00110000
,
01000000
10000000
00100000
00010000
,
00001000
00000100
00000001
00000010
,
00001001
00000000
00000110
00000000
,
00000001
00000000
00000100
00001000
00000000
00000000
00011000
00000000
00000000
00000000
00000000
00000000
,
10010000
00000000
01100000
00000000
,
10000000
00000000
01000000
00010000
00000000
00000000
00011000
00000000
00000000
00000000
00000000
00000000
,
00000010
00001000
00000001
00000100
,
00001000
00010000
01000000
00100000
,
00010000
10000000
01000000
00010000
,
00001000
00000100
00000010
00001000
,
00000000
00000101
00000000
00010010
,
00000000
00101000
00000000
11000000
,
00100000
00010000
00001000
00000010
,
00000001
00000001
00001000
00001000
,
00000001
00000000
00000100
00001000
00000000
00000000
00010000
00000000
00000000
01000000
00000000
00000000
,
10000000
10000000
00010000
00010000
,
10000000
00000000
01000000
00010000
00000000
00000000
00001000
00000000
00000000
00000100
00000000
00000000
,
00000001
00000010
00000100
00001000
,
00000001
00000010
00001000
00010000
,
00100000
10000000
00010000
00100000
,
01000000
10000000
01000000
00010000
,
00001000
00001000
00011000
00000000
,
00010000
00010000
00011000
00000000
,
00000010
00001000
00000000
00000001
00000000
00001000
00000000
00010000
;

//---------------dance-double - ----------------
#NOTEDATA:;
#CHARTNAME:;
#STEPSTYPE:dance-double;
#DESCRIPTION:;
#CHARTSTYLE:;
#DIFFICULTY:Hard;
#METER:11;
#RADARVALUES:0.498866,0.659483,0.262726,0.065681,0.454297,319.000000,295.000000,24.000000,6.000000,0.000000,0.000000,0.000000,0.000000,0.000000,0.498866,0.659483,0.262726,0.065681,0.454297,319.000000,295.000000,24.000000,6.000000,0.000000,0.000000,0.000000,0.000000,0.000000;
#CREDIT:;
#DISPLAYBPM:180.000000:205.000000;
#NOTES:
00000000
00000000
00000000
00000000
,
00000000
00000000
00000000
00000000
,
00000000
00000000
00000000
00000000
,
00000000
00000000
00000000
00000000
,
00000000
00000000
00000000
00000000
,
00000000
10000000
00000000
00010000
,
00000000
00001000
00000000
00000001
,
00000000
00000010
00000000
00000100
,
00000001
00000000
00000100
00000000
00001000
00000000
00010000
00000000
01000000
00000000
10000000
00000000
,
00010000
00000000
10000000
00010000
00000000
10000000
00010000
00000000
00000000
01000000
00000000
00000000
,
00001000
00000000
00100000
00001000
00000000
00100000
00001000
00000000
00000000
00010000
00000000
00000000
,
00000010
00000000
00000100
00000010
00000000
00000100
00000010
00000000
00000000
00001000
00000000
00000000
,
00000001
00000000
00001000
00000001
00000000
00000000
00000100
00000000
00000000
00000010
00000000
00000000
,
00001000
00000000
00000001
00001000
00000000
00000001
00001000
00000000
00000000
00000100
00000000
00000000
,
00010000
00000000
00000010
00010000
00000000
00000010
00010000
00000000
00000000
00001000
00000000
00000000
,
00100000
00000000
01000000
00100000
00000000
01000000
00100000
00000000
00000000
00010000
00000000
00000000
,
10000000
00000000
00010000
10000000
00000000
00000000
00100000
00000000
00000000
01000000
00000000
00001000
,
00000000
00000000
00000000
00010000
00000000
00000000
00000010
00000000
00010000
00000000
00000000
00001000
,
00000000
00000000
00000000
00010000
00000000
00000000
00000010
00000000
00010000
00000000
00000000
00000010
,
00000000
00000000
00000100
00000000
00000000
00001001
00000000
00000000
00000000
00000000
00000000
00001000
,
00000000
00000000
00000001
00000000
00000000
00000010
00000000
00000000
00000100
00000000
00000000
00010000
,
00000000
00000000
00000000
00001000
00000000
00000000
00100000
00000000
00001000
00000000
00000000
00010000
,
00000000
00000000
00000000
00001000
00000000
00000000
00100000
00000000
00001000
00000000
00000000
00100000
,
00000000
00000000
01000000
00000000
00000000
10010000
00000000
00000000
00100000
01000000
00000000
00010000
,
00000000
00000000
00000000
10000000
00000000
00000000
01000000
00000000
00100000
00000000
00000000
00000000
,
20000000
00010000
00010000
30010000
,
00020000
00001000
00001000
00031000
,
00002000
00000001
00000001
00003001
,
00000001
00001000
00000010
00000100
,
00000002
00001000
00001000
00001003
,
00002000
00010000
00010000
00013000
,
00020000
10000000
10000000
10030000
,
10000000
00000000
00000000
00010000
00000000
00000000
00000000
00000000
00100000
01000000
00000000
00000000
,
01000000
10000000
00010000
01000000
,
00001000
00010000
00000100
00001000
,
00000001
00000100
00000010
00001000
,
00000100
00001000
00000010
00000101
,
00000100
00000001
00001000
00000100
,
00010000
00001000
01000000
00010000
,
10000000
01000000
00010000
00001000
,
00000100
00000000
00001000
00000000
00010000
00000000
01000000
00000000
00010000
00000000
00001000
00010000
,
00000000
00000000
00000000
00000100
00000000
00000000
00010000
00000000
00001000
00000000
00000000
00010000
,
00000000
00000000
00000000
00000100
00000000
00000000
00010000
00000000
00001000
00000000
00000000
00000100
,
00000000
00000000
00000001
00000000
00000000
00001000
00000000
00000000
00000000
00000100
00000000
00000010
,
00000000
00000000
00000000
00001000
00000000
00000000
00010000
00000000
00011000
00000000
00000000
00001000
,
00000000
00000000
00000000
01000000
00000000
00000000
00001000
00000000
00010000
00000000
00000000
00001000
,
00000000
00000000
00000000
01000000
00000000
00000000
00001000
00000000
00010000
00000000
00000000
01000000
,
00000000
00000000
10000000
00000000
00000000
00010000
00000000
00000000
00000000
00100000
00000000
01000000
,
00000000
00010000
00001000
00011000
,
00000010
00000000
00001000
00000000
00000000
00000000
00000010
00000000
00001000
00000000
00000000
00000000
,
00000010
00000000
00000100
00001000
00000000
00010000
00001000
00000000
00000000
00011000
00000000
00000000
,
00100000
00000000
00010000
00000000
00000000
00000000
00100000
00000000
00010000
00000000
00000000
00000000
,
00100000
00000000
01000000
00010000
00000000
00001000
00010000
00000000
00000000
00011000
00000000
00000000
,
00000010
00000100
00000001
00001000
,
00000010
00000000
00000000
00000100
00000000
00000000
00000001
00000000
00000100
00001000
00000000
00010000
,
01000000
00100000
00010000
10000000
,
00100000
00000000
00000000
01000000
00000000
00000000
00100000
00000000
00010000
00001000
00000000
00000010
,
00000001
00001000
00000001
00001000
,
00000100
00010000
00000100
00010000
,
00001000
01000000
00010000
10000000
,
00100000
00000000
10000000
01000000
00000000
00000000
00100000
00000000
00001000
00010000
00000000
00000000
,
00000010
00000000
00001000
00000001
00000000
00000000
00000100
00000000
00000010
00001000
00000000
00000000
,
00000101
00000110
00001010
00001100
,
00010100
00001100
00001010
00000110
,
00000010
00000000
00000001
00000100
00000000
00000000
00000010
00000000
00010000
00001000
00000000
00000000
,
00100000
00000000
00010000
10000000
00000000
00000000
01000000
00000000
00100000
00010000
00000000
00000000
,
11000000
01100000
00110000
01010000
,
01001000
01010000
00110000
01100000
,
10000000
00000000
00000000
01000000
00000000
00000000
00010000
00000000
00001000
00000100
00000000
00000000
,
00000001
00000000
00000000
00000010
00000000
00000000
00001000
00000000
00010000
00100000
00000000
00000000
,
01000000
00001000
00000000
00010000
00000000
00000100
00000000
00011000
;

//---------------dance-single - ----------------
#NOTEDATA:;
#CHARTNAME:;
#STEPSTYPE:dance-single;
#DESCRIPTION:;
#CHARTSTYLE:;
#DIFFICULTY:Challenge;
#METER:13;
#RADARVALUES:0.691219,0.814655,0.350301,0.175151,1.061850,442.000000,410.000000,32.000000,16.000000,0.000000,0.000000,0.000000,0.000000,0.000000,0.691219,0.814655,0.350301,0.175151,1.061850,442.000000,410.000000,32.000000,16.000000,0.000000,0.000000,0.000000,0.000000,0.000000;
#CREDIT:;
#DISPLAYBPM:180.000000:205.000000;
#NOTES:
// measure 0
0000
0000
0000
0000
,  // measure 1
0000
0000
0000
0000
,  // measure 2
0000
0000
0000
0000
,  // measure 3
0000
0000
0000
0000
,  // measure 4
0000
0000
0000
0000
,  // measure 5
1000
0000
0000
1100
0000
0000
0001
0000
0100
1000
0000
0000
,  // measure 6
0001
0000
0000
0101
0000
0000
1000
0000
0100
0001
0000
0000
,  // measure 7
0010
1001
0100
1001
,  // measure 8
0110
0000
0110
0000
0110
0000
0110
0000
0110
0000
0110
0000
,  // measure 9
1000
0000
1000
0010
0000
0010
0100
0000
0100
0001
0000
0001
,  // measure 10
0010
0000
0010
0100
0000
0100
1000
0000
1000
0001
0000
0001
,  // measure 11
0100
0000
0100
0001
0000
0001
0100
0000
0100
0010
0000
0010
,  // measure 12
1000
0000
1000
0001
0000
0001
1000
0000
1000
0100
0000
0100
,  // measure 13
0010
0000
0010
0100
0000
0100
0010
0000
0010
0100
0000
0100
,  // measure 14
1000
0000
1000
0010
0000
0010
1000
0000
1000
0001
0000
0001
,  // measure 15
0100
0000
0100
0010
0000
0010
1000
0000
1000
0001
0000
0001
,  // measure 16
0010
0000
0010
0001
0000
0001
1000
0000
0010
0100
0000
0002
,  // measure 17
0000
0000
0000
0013
0000
0010
0100
0000
1000
0000
0000
0020
,  // measure 18
0000
0000
0000
0130
0000
0100
0001
0000
1000
0000
0000
1100
,  // measure 19
0000
0000
0101
0000
0000
1100
0000
0000
0010
0001
0000
0100
,  // measure 20
0010
0000
1000
0010
0000
0100
0000
0000
0001
1000
0000
0200
,  // measure 21
0000
0000
0000
0310
0000
0010
0001
0000
0100
0000
0000
2000
,  // measure 22
0000
0000
0000
3010
0000
0010
1000
0000
0001
0000
0000
0011
,  // measure 23
0000
0000
1010
0000
0000
0011
0000
0000
0100
0010
0000
1000
,  // measure 24
0100
0000
0100
0010
0000
0000
0001
0000
1000
0100
0000
0000
,  // measure 25
1000
0000
0001
0000
0010
0000
0001
0000
0100
0010
0000
1000
,  // measure 26
0000
0000
0001
0000
0000
1000
0000
0000
0000
0000
0000
0000
,  // measure 27
0010
0000
1000
0010
0000
1000
0100
0000
0010
0000
0001
0000
,  // measure 28
2000
0010
0002
3003
,  // measure 29
0100
0000
0001
1000
0000
0000
0001
0000
0010
0001
0000
0100
,  // measure 30
0000
0000
0010
0000
0000
1000
0000
0000
0000
0000
0000
0100
,  // measure 31
1000
0000
0000
1000
0000
0000
0001
0000
0100
0000
0000
0001
,  // measure 32
1000
0000
0000
0010
0000
0100
0000
0000
0100
0001
0000
0000
,  // measure 33
0010
0000
0001
0100
0000
0000
1010
0000
0000
0100
0000
0001
,  // measure 34
1000
0000
1000
0100
0000
0010
0001
0000
0001
1000
0000
0000
,  // measure 35
0102
0013
2100
3010
,  // measure 36
0101
0000
0000
0010
0000
0000
1000
0000
0001
1000
0000
0100
,  // measure 37
0010
0100
1001
1001
,  // measure 38
0010
0000
0000
1000
0000
0000
0100
0000
0100
0010
0000
0001
,  // measure 39
1000
0001
1000
0001
1000
0001
1000
0001
1000
0001
1000
0001
,  // measure 40
0100
0000
0100
0000
0100
0000
0100
0000
0100
0000
0100
0000
,  // measure 41
0010
0000
0000
1000
0000
0001
1000
0000
0100
0000
0000
0020
,  // measure 42
0000
0000
0000
0031
0000
0100
0010
0000
1000
0000
0000
1100
,  // measure 43
0000
0000
0110
0000
0000
0011
0000
0000
0100
0010
0000
0100
,  // measure 44
0001
0000
0001
1000
0000
1000
0010
0000
0100
0001
0000
0000
,  // measure 45
1000
0000
0000
0010
0000
0010
1000
0000
0001
0000
0000
0200
,  // measure 46
0000
0000
0000
0301
0000
0010
0001
0000
1000
0000
0000
1001
,  // measure 47
0000
0000
1010
0000
0000
1100
0000
0000
1000
0010
0000
0100
,  // measure 48
0001
0000
0001
1000
0000
1000
0001
0000
0001
0100
0000
0000
,  // measure 49
0010
0000
0100
0000
0000
0000
0001
0000
0100
0010
0000
0000
,  // measure 50
1000
0000
0001
0000
0000
0000
1000
0000
0010
0100
0000
0000
,  // measure 51
0001
0000
0001
0010
0000
0000
0100
0000
0100
1000
0000
0000
,  // measure 52
0001
0000
0001
0100
0000
0000
0010
0000
0010
1000
0000
0000
,  // measure 53
0100
0000
0010
0100
0000
0000
1000
0000
0001
0100
0000
0000
,  // measure 54
0001
0000
0010
0001
0000
0000
0100
0000
0010
1000
0000
0000
,  // measure 55
0001
0000
0001
1000
0000
1000
0010
0000
1000
0100
0000
0000
,  // measure 56
0010
0000
0010
0001
0000
0000
0100
0000
0100
0010
0000
0000
,  // measure 57
1000
0000
0010
1000
0000
0001
0100
0000
0010
1000
0000
0000
,  // measure 58
0001
0000
0001
0010
0000
0000
0100
0000
0100
1000
0000
0000
,  // measure 59
0001
0000
0100
0010
0000
1000
0100
0000
0010
0001
0000
1000
,  // measure 60
0001
0000
0100
0010
0000
0010
1000
0000
0100
0001
0000
0000
,  // measure 61
0010
0000
0010
0001
0000
0100
0010
0000
2000
0000
3002
0000
,  // measure 62
1003
0000
0100
0010
0000
0010
0001
0000
1000
0001
0000
0000
,  // measure 63
0100
0000
0010
1000
0010
1000
0001
0000
1000
0200
0000
0000
,  // measure 64
0310
0000
0010
0001
0000
0100
0001
0000
0001
1000
0000
0000
,  // measure 65
0010
0000
0010
1000
0001
1000
0001
0000
0200
0000
0320
0000
,  // measure 66
1030
0000
0100
1000
0000
0002
0000
0000
0013
0001
0000
0100
,  // measure 67
0010
0000
1000
0001
0000
1000
0100
0000
0010
0001
0000
0000
,  // measure 68
1000
0000
0010
0100
0000
0010
1000
0000
0100
0010
0000
0100
,  // measure 69
1000
0000
0001
0010
0000
0001
0100
0000
0010
0100
0000
0001
,  // measure 70
1000
1100
0000
0101
0000
0011
0000
1010
;
