#TITLE:DOCTOR WHO;
#ARTIST:JAKAZiD;
#BANNER:DOCTOR WHO-bn.png;
#BACKGROUND:DOCTOR WHO-bg.png;
#JACKET:DOCTOR WHO-jacket.png;
#MUSIC:DOCTOR WHO.ogg;
#OFFSET:0.03;
#SAMPLESTART:76.1;
#SAMPLELENGTH:20;
#DISPLAYBPM:172;
#BPMS:0=172.04;
#BGCHANGES:;

//---------------dance-single - ----------------
#NOTES:
     dance-single:
     :
     Beginner:
     3:
     :
0000
0000
0000
0000
,
0000
0000
0000
0000
,
0000
0000
0000
0000
,
0000
0000
0000
0000
,
0000
0000
0000
0000
,
0000
0000
0000
0000
,
0000
0000
0000
0000
,
0000
0000
0000
0000
,
0001
0000
0000
0000
,
1000
0000
0000
0000
,
0010
0000
0000
0000
,
0100
0000
0000
0000
,
0001
0000
0000
0000
,
0010
0000
0000
0000
,
0001
0000
0000
0000
,
1000
0000
0100
0100
,
0200
0000
0000
0000
,
0300
0000
1000
0000
,
0002
0000
0000
0000
,
0003
0000
0000
0000
,
0010
0010
0010
0000
,
0001
0000
1000
0000
,
0001
0000
0100
0000
,
0010
0000
1000
1000
,
2000
0000
0000
0000
,
3000
0000
0100
0000
,
0020
0000
0000
0000
,
0030
0000
0000
0000
,
0001
0000
1000
0000
,
0100
0100
0100
0000
,
1000
0000
0010
0000
,
0100
0000
0001
0000
,
0020
0000
0000
0000
,
0030
0000
0001
0001
,
0001
0000
2000
0000
,
0000
0000
3000
0000
,
0010
0000
0010
0000
,
0100
0000
0100
0000
,
0020
0000
0030
0000
,
0200
0000
0000
0000
,
0000
0000
0000
0000
,
0300
0000
0000
0000
,
0000
0000
0000
0000
,
0002
0000
0000
0000
,
0000
0000
0000
0000
,
0003
0000
0000
0000
,
0000
0000
0000
0000
,
0001
0000
0001
0000
,
0001
0000
0001
0000
,
1000
0000
1000
0000
,
1000
0000
1000
0000
,
0010
0010
0010
0000
,
1001
0000
0110
0000
,
1000
0000
0100
0000
,
1000
1000
1000
0000
,
0001
0000
0001
0000
,
1000
0000
0010
0000
,
1000
0000
0100
0000
,
0010
0000
0001
0000
,
0100
0100
0100
0000
,
0010
0000
0100
0000
,
0010
0000
1000
0000
,
0100
0000
0010
0000
,
0001
0000
0001
0000
,
0100
0000
0001
0000
,
0010
0000
0100
0000
,
1000
0000
1000
0000
,
0010
0010
0010
0000
,
1000
0000
0100
0000
,
1000
0000
0010
0000
,
0001
0000
0010
0010
,
0020
0000
0000
0000
,
0030
0000
0001
0000
,
2000
0000
0000
0000
,
3000
0000
0000
0000
,
0100
0100
0100
0000
,
1000
1000
1000
0000
,
0001
0000
1000
0000
,
0100
0000
0010
0010
,
0020
0000
0000
0000
,
0030
0000
0001
0000
,
0002
0000
0000
0000
,
0003
0000
0000
0000
,
0100
0100
0100
0000
,
0001
0001
0001
0000
,
1000
0000
0001
0000
,
1000
0000
0100
0100
,
0200
0000
0000
0000
,
0000
0000
0000
0300
;

//---------------dance-single - ----------------
#NOTES:
     dance-single:
     :
     Easy:
     6:
     :
0000
0000
0000
0000
,
0000
0000
0000
0000
,
0000
0000
0000
0000
,
0000
0000
0000
0000
,
0000
0000
0000
0000
,
0000
0000
0000
0000
,
0000
0000
0000
0000
,
0000
0000
0000
0000
,
0001
0000
0001
0000
,
0001
0000
0001
0000
,
1000
0000
1000
0000
,
1000
0000
1000
0000
,
0001
0000
0001
0000
,
1000
0000
1000
0000
,
0001
0000
1000
0000
,
0010
0000
1000
0001
,
0200
0010
0010
0310
,
1000
0001
2000
3000
,
0002
0010
0010
0013
,
0001
1000
0200
0300
,
1000
0010
0100
0001
,
0010
0010
0010
0000
,
0001
0100
0001
0010
,
1000
0000
0100
1000
,
0002
1000
1000
1003
,
0100
1000
0020
0030
,
0100
0001
0100
0001
,
0010
0100
2000
3000
,
0001
0001
1000
0100
,
1000
0010
0010
0000
,
0100
0001
0010
0001
,
1000
0000
0010
0100
,
0002
1000
0000
0100
,
0000
1003
0001
0100
,
0020
0030
2010
0000
,
0001
0100
3001
1000
,
0202
0300
1000
1003
,
2200
0300
0001
3001
,
0012
1000
1000
1003
,
0200
0000
0000
0000
,
0000
0000
0000
0000
,
0000
0000
0000
0000
,
0000
0000
0000
0300
,
2000
0000
0000
0000
,
3002
0000
0000
0000
,
0203
0000
0000
0000
,
0320
0000
0000
0030
,
1001
0000
0100
0000
,
0001
0000
1000
0000
,
0010
0000
1000
0000
,
0010
0000
0100
0000
,
0101
1100
0101
0000
,
1001
0000
0110
0000
,
1000
0010
1000
0001
,
0100
0100
0100
0000
,
0001
0010
0001
0100
,
0010
1000
0002
0003
,
1000
0100
1000
0010
,
0100
0001
2000
3000
,
0010
0010
0100
0100
,
0001
0100
0010
0000
,
1000
0100
1000
0010
,
0100
0100
0001
0000
,
0010
0001
0010
0100
,
1000
0010
2000
3000
,
0100
1000
0010
0100
,
0001
0010
0200
0300
,
1000
1000
0001
0001
,
1000
0001
0100
0000
,
0001
0010
0100
1000
,
0010
0000
0100
0100
,
2001
0000
0100
0000
,
0001
0000
0200
3300
,
1000
0010
1000
0001
,
0010
0100
1000
0000
,
0001
0001
0100
0100
,
0001
0010
0100
1000
,
0010
0010
1000
0001
,
0200
0000
0010
0310
,
0210
0000
1000
0000
,
0010
0000
0001
0000
,
1300
0100
0001
0010
,
0001
1000
0100
0000
,
0010
0010
0100
0100
,
0010
0001
1000
0000
,
0001
0100
0010
1000
,
0002
0003
1000
0001
,
0200
0000
0000
0000
,
0000
0000
0000
0300
;

//---------------dance-single - ----------------
#NOTES:
     dance-single:
     :
     Medium:
     9:
     :
0000
0000
0000
0000
,
0000
0000
0000
0000
,
0000
0000
0000
0000
,
0000
0000
0000
0000
,
0000
0000
0000
0000
,
0000
0000
0000
0000
,
0000
0000
0000
0000
,
0000
0000
0000
0000
,
0001
0001
0001
0001
,
1000
1000
1000
1000
,
0001
0001
0001
0001
,
1000
1000
0010
0100
,
0001
0001
0001
0001
,
1000
1000
1000
1000
,
0100
0100
0010
0010
,
0100
1000
0001
0001
,
0202
0000
0000
0000
0000
0300
0000
0000
1003
0000
0000
0100
,
0010
0001
2100
3001
,
1020
0000
0000
0100
0000
0000
1030
0000
0001
0000
0000
0100
,
0010
0010
1001
0110
,
2000
3200
0320
0032
,
0103
0000
0000
0010
0000
0010
1000
0000
0000
0001
0000
0001
,
2000
3200
0320
0032
,
0203
0310
1010
0101
,
2100
0000
0000
0001
0000
0000
3010
0000
0100
0000
0000
0001
,
1000
0001
0012
0103
,
2010
0000
0000
0100
0000
0000
3001
0000
1000
0000
0000
0010
,
0100
0001
0011
1100
,
0020
2030
3002
0203
,
0301
0000
0000
0010
0000
0010
0100
0000
0000
1000
0000
1000
,
0002
0023
0032
2003
,
3010
0000
0100
0001
0000
0000
0011
0000
0000
1100
0000
0000
,
0102
1000
0010
1000
,
0010
0103
2000
3002
,
0203
0000
0000
0300
0000
0010
2000
0000
0000
3001
0000
0100
,
0001
1000
0101
1100
,
0002
0000
0000
0003
0000
0010
0200
0000
0000
1300
0000
0000
,
0020
0000
0000
0030
0000
1000
0002
0000
0000
0013
0000
0100
,
2000
0000
0000
0001
0000
0000
0001
0000
0000
3001
0000
0100
,
0020
0000
0000
0000
,
0000
0000
0000
0000
,
0000
0000
0000
0000
,
0000
0000
0000
0030
,
0002
0000
0200
0300
,
2000
0000
0000
3003
,
0020
0000
2000
3000
,
0200
0330
0001
1000
,
1001
0010
1000
0010
,
0100
0001
0010
0100
,
1000
0010
1000
0001
,
1000
0100
0010
0001
,
0011
0110
1100
0000
,
1001
0000
0000
1000
0002
0000
0003
0000
,
0011
0011
1100
1100
,
1001
0110
2000
3002
,
0013
0000
0001
1000
0100
0000
0010
0000
,
1000
0000
0100
0000
1000
0000
0001
0100
,
0010
0000
1000
0010
1000
0000
0001
0000
,
0010
0000
0001
0100
0001
0000
1000
0000
,
0020
2030
3200
0320
,
0031
0000
0100
0010
1000
0000
0001
1000
,
0100
0000
0010
0000
0001
0000
0100
0001
,
1000
0000
0010
0100
0010
0000
1000
0001
,
1000
0000
0100
0000
0010
0001
0100
0000
,
0001
0000
0010
0000
1000
0100
1000
0001
,
1000
0000
0010
0000
0100
0000
0001
1000
,
0001
0000
0100
0001
1000
0000
0100
0000
,
0020
0032
0203
0320
,
1030
0000
0100
0010
0100
0000
1000
0001
,
0100
0000
0010
0000
1000
0000
0001
0010
,
0100
0000
0000
1000
0000
0000
0001
0000
2000
0000
0000
0000
3200
0000
0000
0000
,
0310
0000
0000
0000
0001
0000
0000
0000
0100
0000
0000
0010
0000
0000
1000
0000
,
0001
0000
0000
0000
0010
0000
0100
0000
1000
0000
0000
0001
0000
0000
1000
0000
,
0010
0000
1000
0000
0100
0010
0001
0000
,
1000
0000
0000
0001
0000
0000
1000
0000
0010
0000
0000
0000
0100
0000
0000
0000
,
0002
0023
0230
2300
,
3010
0000
1000
0001
1000
0000
0100
0010
,
0002
0203
0320
2030
,
3001
0000
0000
0010
0000
0000
0100
0000
1000
0000
0000
0001
0000
0000
1000
0000
,
0010
0000
0100
0001
1000
0000
0010
0000
,
1000
0000
0000
0100
0000
0000
0010
0000
0001
0000
0000
1000
0000
0000
0001
0000
,
0100
0000
0001
0010
0001
0000
1000
0100
,
0010
0000
0000
0000
0001
0000
0100
0000
0010
0000
0000
1000
0000
0000
0001
0000
,
2000
3200
0320
0032
,
0013
0000
0001
0100
0010
0000
1000
0100
,
2000
3020
0230
0302
,
0013
0000
0000
0001
0000
0000
1000
0000
0001
0000
0000
0000
0101
0000
0000
0000
,
2200
0000
0000
0000
,
0000
0000
0000
3000
,
0000
0000
0000
0000
,
0000
0000
0000
0300
;

//---------------dance-single - ----------------
#NOTES:
     dance-single:
     :
     Hard:
     12:
     :
0000
0000
0000
0000
,
0000
0000
0000
0000
,
0000
0000
0000
0000
,
0000
0000
0000
0000
,
0000
0000
0000
0000
,
0000
0000
0000
0000
,
0000
0000
0000
0000
,
0000
0000
0000
0000
,
0001
0001
1000
1000
,
0001
0001
0100
0100
,
0010
0010
1000
1000
,
0100
0000
0000
0100
0000
0000
0010
0000
0001
0000
1000
0000
,
0001
0001
0010
0010
,
0001
0001
1000
1000
,
0010
0010
1000
1000
,
0001
1000
0020
0230
,
0302
0000
0000
1000
0000
0000
1003
0000
0100
1000
0000
0010
,
1000
0001
0201
0310
,
2010
0000
0000
0100
0000
0000
3100
0000
1000
0001
0000
1000
,
0010
0000
0000
0100
0000
0000
0001
0000
1000
0000
0001
0000
,
0020
0000
0000
0230
0000
0000
1300
0000
0001
1000
0000
0010
,
0200
0000
0000
0301
0000
1000
0001
0000
0000
0010
0000
0100
,
1000
0000
0000
0001
0000
0000
0100
0000
0001
1000
0000
0001
,
0010
0000
0000
0100
0000
0000
1000
0000
0010
0000
0100
0000
,
0002
0000
0000
0010
0000
0000
0013
0000
0001
1000
0000
0001
,
0100
0010
1002
0103
,
0120
0000
0000
1000
0000
0000
1030
0000
0010
0100
0000
0010
,
1000
0000
0001
0100
0000
0000
0001
0000
0010
0000
0100
0000
,
1000
0000
0010
0100
0000
0010
0100
0000
0001
1000
0000
0001
,
0200
0000
0000
0301
0000
1000
0100
0000
0000
0010
0000
0001
,
0100
0000
0000
0010
0000
0000
1000
0000
0100
1000
0000
0001
,
0100
0000
0010
1000
0000
0001
1000
0000
0100
0000
1000
0000
,
0002
0010
1000
0100
,
1003
0000
0010
0100
0000
0000
1002
0000
0000
0013
0000
0000
,
2100
0000
0000
3001
1000
0001
1000
0000
0010
0100
0000
0001
,
1000
0000
0100
0010
0000
0000
0001
0000
1000
0000
0001
0000
,
0200
0000
0000
0310
1000
0010
1000
0000
0000
0001
0000
0010
,
0200
0000
0000
1300
0001
1000
0001
0000
0000
0100
0000
0010
,
2000
0000
0000
0100
0000
0000
3001
0000
1000
0010
0100
0001
,
2000
0000
0020
0030
,
0002
0003
0200
0300
,
0020
0030
0200
0300
,
0020
0030
0002
3003
,
0100
0010
0100
0010
,
1000
1000
0001
0000
,
0010
0001
0100
0001
,
0010
0100
1000
0000
,
1001
0010
1000
0001
,
1000
0000
0000
0000
0100
0000
0000
0000
0010
0000
0000
0001
0000
0000
1000
0000
,
1100
0001
0100
0010
,
1000
0000
0000
0100
0000
0000
1000
0000
0001
0000
0000
0100
0000
0000
0001
0000
,
0011
0110
1100
0000
,
1001
0000
0000
1000
0002
0000
0003
0000
,
0010
0000
0000
0010
0000
0000
1000
0000
0100
0000
0000
1000
0000
0000
0001
0000
,
0010
0000
0000
0001
0000
0000
0100
0000
0002
0000
0000
0000
2003
0000
0000
0000
,
3010
0000
0000
1000
0000
0000
0100
0000
1000
0000
0000
0010
0000
0000
0100
0000
,
0001
0000
0000
0010
0000
0000
0001
0000
1000
0000
0000
0001
0000
0000
0100
0000
,
0001
0000
0000
0010
0000
0000
0100
0000
1000
0000
0000
0100
0000
0000
0010
0000
,
0100
0000
0000
1000
0000
0000
0001
0000
1000
0000
0000
0010
0000
0000
0100
0000
,
0001
0011
0101
1001
,
1000
0000
0000
0100
0000
0000
1000
0000
0010
0000
0000
0100
0000
0000
0001
0000
,
0010
0000
0000
0100
0000
0000
0010
0000
0100
0000
0000
1000
0000
0000
0001
0000
,
1000
0000
0000
0010
0000
0000
0100
0000
0001
0000
0000
0010
0001
0000
1000
0000
,
0010
0000
0000
0100
0000
0000
0001
0000
0010
0000
0000
0100
0000
0000
1000
0000
,
0001
0000
0000
1000
0000
0000
0010
0000
1000
0000
0000
0100
0000
0000
0010
0000
,
0001
0000
0000
1000
0000
0000
0001
0000
1000
0000
0000
0100
0000
0000
0010
0000
,
0001
0000
0000
0100
0000
0000
0001
0000
0010
0000
0000
0100
0000
0000
1000
0000
,
1001
1010
1100
1000
,
0010
0000
0000
1000
0000
0000
0001
0000
1000
0000
0000
0100
0000
0000
0010
0000
,
0001
0000
0000
0100
0000
0000
0001
0000
1000
0000
0000
0100
0000
0000
1000
0000
,
0010
0000
0000
0010
0000
0000
0010
0000
2000
0000
0000
0000
3002
0000
0000
0000
,
0103
0001
0010
0001
1000
0010
0100
0001
,
1000
0000
0100
0000
0010
0000
0001
0000
0100
0000
0000
0100
0000
0000
0100
0000
,
0001
0010
0100
0010
0001
1000
0010
0100
,
0010
0000
1000
0000
0100
0000
0010
0000
0001
0000
0000
1000
0000
0000
0001
0000
,
0020
0230
2300
3002
,
1003
0010
0100
0010
1000
0100
0010
0001
,
0200
0000
0320
0000
1030
0100
1000
0001
,
0010
0000
0000
0001
0000
0000
0100
0000
0010
0000
0000
1000
0001
0000
1000
0000
,
0100
0010
0001
0100
0001
1000
0010
0100
,
1000
0000
0100
0000
0001
0000
0100
0000
0010
0000
0000
1000
0000
0000
0001
0000
,
0010
0100
0001
0100
1000
0010
1000
0001
,
0100
0000
0010
0000
1000
0000
0001
0000
0100
0000
0000
0100
0000
0000
0100
0000
,
0002
0023
0230
2300
,
3010
0000
0000
1000
0000
0000
0001
0000
1000
0000
0000
0100
0000
0000
0010
0000
,
0001
0000
2001
0000
3020
0000
0130
0001
,
1000
0000
0000
1000
0000
0000
0001
0000
0020
0000
0000
0000
0130
0000
0000
0000
,
2200
0000
0000
0000
,
0000
0000
0000
3000
,
0000
0000
0000
0000
,
0000
0000
0000
0300
;
