#VERSION:0.83;
#TITLE:DO YOU REMEMBER ME;
#SUBTITLE:;
#ARTIST:JENNY;
#TITLETRANSLIT:;
#SUBTITLETRANSLIT:;
#ARTISTTRANSLIT:;
#GENRE:;
#ORIGIN:;
#CREDIT:;
#BANNER:DO YOU REMEMBER ME-bn.png;
#BACKGROUND:DO YOU REMEMBER ME-bg.png;
#PREVIEWVID:;
#JACKET:DO YOU REMEMBER ME-jacket.png;
#CDIMAGE:;
#DISCIMAGE:;
#LYRICSPATH:;
#CDTITLE:;
#MUSIC:DO YOU REMEMBER ME.ogg;
#OFFSET:0.000000;
#SAMPLESTART:57.200001;
#SAMPLELENGTH:20.000000;
#SELECTABLE:YES;
#DISPLAYBPM:150.000000;
#BPMS:0.000=149.634,
4.000=150.000;
#STOPS:;
#DELAYS:;
#WARPS:;
#TIMESIGNATURES:0.000=4=4;
#TICKCOUNTS:0.000=4;
#COMBOS:0.000=1;
#SPEEDS:0.000=1.000=0.000=0;
#SCROLLS:0.000=1.000;
#FAKES:;
#LABELS:0.000=Song Start;
#BGCHANGES:0.000=DO YOU REMEMBER ME.mp4=1.000=0=0=0=StretchNoLoop====,
99999=-nosongbg-=1.000=0=0=0 // don't automatically add -songbackground-
;
#KEYSOUNDS:;
#ATTACKS:
;

//---------------dance-single - ----------------
#NOTEDATA:;
#CHARTNAME:;
#STEPSTYPE:dance-single;
#DESCRIPTION:;
#CHARTSTYLE:;
#DIFFICULTY:Beginner;
#METER:2;
#RADARVALUES:0.090522,0.147298,0.000000,0.000000,0.000000,57.000000,57.000000,0.000000,0.000000,0.000000,0.000000,0.000000,0.000000,0.000000,0.090522,0.147298,0.000000,0.000000,0.000000,57.000000,57.000000,0.000000,0.000000,0.000000,0.000000,0.000000,0.000000,0.000000;
#CREDIT:;
#DISPLAYBPM:150.000000;
#NOTES:
0000
0000
0000
0000
,
0000
0000
0000
0000
,
0000
0000
0000
0000
,
0000
0000
0000
0000
,
0000
0000
0000
0000
,
0000
0000
0000
0000
,
1000
0000
0000
0000
,
0001
0000
0000
0000
,
0010
0000
0000
0000
,
0100
0000
0000
0000
,
0001
0000
0000
0000
,
1000
0000
0000
0000
,
0001
0000
0000
0000
,
0100
0000
0000
0000
,
0010
0000
0000
0000
,
1000
0000
0000
0000
,
0100
0000
0000
0000
,
0001
0000
0000
0000
,
1000
0000
1000
0000
,
0100
0000
0100
0000
,
0001
0000
0001
0000
,
0010
0000
0010
0000
,
1000
0000
0000
0000
,
0001
0000
0000
0000
,
0001
0000
0000
0000
,
0001
0000
0000
0000
,
1000
0000
0000
0000
,
0000
0000
0000
0000
,
0001
0000
0000
0000
,
0001
0001
0000
0000
,
0000
0000
0000
0000
,
0100
0000
0100
0000
,
0010
0000
0000
0000
,
0010
0000
0000
0000
,
1000
0000
0000
0000
,
1000
0000
0000
0000
,
0001
0000
0001
0000
,
1000
0000
1000
0000
,
0010
0000
0000
0000
,
0001
0000
0000
0000
,
1000
0000
0000
0000
,
1000
1000
0000
0000
,
0010
0000
0000
0000
,
0100
0000
0000
0000
,
0100
0000
0000
0000
,
0001
0000
1000
0000
,
0100
0000
0000
0000
,
0010
0000
0000
0000
,
0001
0000
0000
0000
,
1000
0000
0000
0000
,
0010
0000
0000
0000
,
0100
0000
0000
0000
,
0001
0000
0001
0000
,
0100
0000
0000
0000
,
0000
0000
0000
0000
;

//---------------dance-single - ----------------
#NOTEDATA:;
#CHARTNAME:;
#STEPSTYPE:dance-single;
#DESCRIPTION:;
#CHARTSTYLE:;
#DIFFICULTY:Easy;
#METER:4;
#RADARVALUES:0.142930,0.209135,0.022234,0.066701,0.000000,90.000000,88.000000,2.000000,6.000000,0.000000,0.000000,0.000000,0.000000,0.000000,0.142930,0.209135,0.022234,0.066701,0.000000,90.000000,88.000000,2.000000,6.000000,0.000000,0.000000,0.000000,0.000000,0.000000;
#CREDIT:;
#DISPLAYBPM:150.000000;
#NOTES:
0000
0000
0000
0000
,
0000
0000
0000
0000
,
0000
0000
0000
0000
,
0000
0000
0000
0000
,
0000
0000
0000
0000
,
0000
0000
0000
0000
,
1000
0000
1000
0000
,
0001
0000
0001
0000
,
1000
0000
0001
0000
,
0100
0000
0100
0000
,
0001
0000
0001
0000
,
1000
0000
1000
0000
,
0001
0000
1000
0000
,
0200
0000
0000
0300
,
0010
0000
0001
0000
,
1000
1000
0010
0000
,
0100
0000
0001
0000
,
1000
0100
0001
0100
,
0010
0000
1000
0000
,
0100
0100
0010
0000
,
0001
0000
1000
0000
,
0100
0000
0000
0000
,
0010
0000
0000
0000
,
0010
0000
0000
0000
,
0001
0000
0000
0000
,
0001
0000
0000
0000
,
1000
0000
0100
0000
,
0010
0000
0000
0000
,
0002
0000
0000
0003
,
1001
0000
0000
0000
,
0001
0000
0001
0000
,
0001
1000
0001
1000
,
0100
0000
0100
0000
,
0010
0000
0001
0000
,
1000
0000
0100
0000
,
0020
0000
0000
0030
,
0001
0000
0001
0000
,
1000
0000
1000
0000
,
0010
0000
0100
0000
,
0002
0000
0000
0003
,
2000
0000
0000
3000
,
1001
0000
0000
0000
,
0100
0000
0100
0000
,
0010
0000
0010
0000
,
0100
0000
0010
0000
,
0001
0000
1000
0000
,
0100
0000
0100
0000
,
0010
0000
0010
0000
,
0001
0000
1000
0000
,
0010
0000
0010
0000
,
0100
0000
0100
0000
,
0001
0000
0001
0000
,
1000
0000
0100
0000
,
0020
0000
0000
0030
,
0000
0000
0000
0000
;

//---------------dance-single - ----------------
#NOTEDATA:;
#CHARTNAME:;
#STEPSTYPE:dance-single;
#DESCRIPTION:;
#CHARTSTYLE:;
#DIFFICULTY:Medium;
#METER:7;
#RADARVALUES:0.352561,0.419242,0.211219,0.088934,0.000000,222.000000,203.000000,19.000000,8.000000,0.000000,0.000000,0.000000,0.000000,0.000000,0.352561,0.419242,0.211219,0.088934,0.000000,222.000000,203.000000,19.000000,8.000000,0.000000,0.000000,0.000000,0.000000,0.000000;
#CREDIT:;
#DISPLAYBPM:150.000000;
#NOTES:
0000
0000
0000
0000
,
0000
0000
0000
0000
,
0000
0000
0000
0000
,
0000
0000
0000
0000
,
0000
0000
0000
0000
,
0000
0000
0000
0000
,
1000
0000
1000
0100
0010
0000
0001
0000
,
0100
0000
0100
0010
1000
0000
0100
0000
,
0010
0000
0010
0001
0100
0000
0010
0000
,
1000
0100
0010
0001
,
0100
0000
0010
1000
0001
0000
1000
0000
,
0100
0000
0010
0001
0100
0000
0010
0000
,
1000
0100
1000
0000
0001
0100
0001
0000
,
1000
0010
0100
0001
,
0000
1000
0000
1000
0000
0100
0010
0100
,
0000
1000
0000
1000
0000
0001
0100
0001
,
0000
0010
0000
0010
0000
0100
1000
0100
,
0000
0001
0000
0001
0000
0100
0010
1000
,
0000
0100
0000
0100
0000
0010
0001
0010
,
0000
0100
0000
0100
0000
1000
0010
1000
,
0000
0001
0000
0001
0000
0100
0010
0100
,
0001
1000
0100
0010
,
0001
0000
0001
0000
1000
0010
1000
0000
,
0100
0000
0100
0000
0010
0001
0010
0000
,
0100
0000
1000
0000
0010
0100
0010
0000
,
1000
0000
0001
0000
0010
0100
0010
0000
,
0001
1000
0100
0010
,
0001
0001
1000
1000
,
0020
0030
0200
0300
,
1001
0000
0000
0000
,
0100
0100
0100
0100
,
0020
0030
0020
0030
,
0001
0101
1000
1100
,
0001
0011
1000
1010
,
0001
0100
1000
0100
,
0011
0000
1100
1001
,
0100
0101
0010
1010
,
0100
1100
0010
0011
,
1000
0100
0001
0100
,
0220
0330
1001
0110
,
2002
0000
0000
3003
,
0110
0000
0000
0000
,
1000
1100
0001
0100
,
0010
0010
1000
1000
,
0100
0011
0100
0100
,
0010
1000
0100
0010
,
0001
0000
0001
1000
0100
0000
0010
0000
,
0001
0000
0001
0100
1000
0000
0100
0000
,
0001
0000
0001
1000
0100
0000
0010
0000
,
0001
0100
1000
0100
,
0010
0000
0001
0100
1000
0000
0100
0000
,
0001
0000
0010
1000
0010
0000
0001
0000
,
1000
0010
0100
0000
0001
1000
0100
0000
,
0010
0000
0001
0000
1000
0000
0010
0100
,
0000
0000
0000
0000
;

//---------------dance-single - ----------------
#NOTEDATA:;
#CHARTNAME:;
#STEPSTYPE:dance-single;
#DESCRIPTION:;
#CHARTSTYLE:;
#DIFFICULTY:Hard;
#METER:12;
#RADARVALUES:0.571721,0.598917,0.022234,0.100051,0.188985,360.000000,358.000000,2.000000,9.000000,0.000000,0.000000,0.000000,0.000000,0.000000,0.571721,0.598917,0.022234,0.100051,0.188985,360.000000,358.000000,2.000000,9.000000,0.000000,0.000000,0.000000,0.000000,0.000000;
#CREDIT:;
#DISPLAYBPM:150.000000;
#NOTES:
0000
0000
0000
0000
,
0000
0000
0000
0000
,
0000
0000
0000
0000
,
0000
0000
0000
0000
,
0000
0000
0000
0000
,
0000
0000
0000
0000
,
1000
0000
0100
0000
1000
0000
0010
0100
0000
0100
0001
0000
1000
0000
0100
0000
,
0010
0001
0010
0000
0001
0000
0100
0010
0000
0010
1000
0000
0100
0000
0010
0000
,
0001
0000
1000
0000
0100
0000
0010
0001
0000
0001
1000
0000
0010
0000
0100
0000
,
0001
1000
0100
0010
0100
1000
0001
0100
,
0010
0000
1000
0000
0010
0000
0100
0001
0000
0001
0010
0000
0100
0000
1000
0000
,
0001
0100
0001
0000
1000
0000
0100
0010
0000
0010
0001
0000
0100
0000
0010
0000
,
1000
0001
0100
0010
0100
0001
1000
0100
,
0010
0001
0010
0000
0100
0000
1000
0000
0010
0100
0010
0000
1000
0000
0001
0000
,
0000
0100
0000
0010
1000
0100
0010
0001
,
0000
1000
0000
1000
0100
0010
0001
1000
,
0000
0010
0000
0010
0100
0001
1000
0100
,
0010
0001
0100
0010
1000
0001
0100
0000
,
0010
1000
0100
1000
0010
0100
0001
0010
,
0100
1000
0100
0010
0001
1000
0010
0100
,
0001
0010
0001
0000
0100
0000
0010
0000
1000
0000
0100
0000
1000
0000
0010
0000
,
0100
0001
0100
0010
1000
0100
0010
0001
,
1000
1000
0010
0010
0100
0100
0001
0001
,
0010
0010
0100
0100
1000
1000
0001
0000
,
0100
0100
0010
0010
1000
1000
0100
0100
,
0010
0010
0001
0001
1000
1000
0010
0000
,
0100
1000
0100
0001
0010
1000
0010
0001
,
0100
1000
0100
0001
0010
1000
0010
0001
,
0100
0010
1000
0100
0010
0001
1000
0010
,
0101
0000
0000
0000
,
1000
0100
0010
0001
0100
0010
0100
0001
,
1000
1000
0100
0010
0001
0100
0100
0100
,
0010
1000
1000
0000
0100
0010
0010
0000
,
0001
0100
0010
1000
0001
0010
0100
0000
,
1000
0010
0010
0000
0001
0010
0010
0000
,
0100
1000
1000
0001
0100
0010
1000
0000
,
0001
0100
0100
0000
0010
1000
1000
0000
,
0001
0010
0100
1000
0010
0100
0001
0000
,
1000
0100
0100
0000
0010
0001
0001
0000
,
1000
0010
1000
0100
0010
0001
0100
0001
,
0010
0000
0100
0000
1000
0000
0010
0000
0100
0001
0100
0000
0010
1000
0010
0000
,
0101
0000
0000
0000
,
2000
0000
0000
0000
3200
0000
0000
0000
0310
0000
0000
0001
0000
0000
0200
0000
,
0300
0000
0010
0000
0010
0000
0000
0000
1000
0000
0000
0001
0000
0000
0100
0000
,
0002
0000
0000
0000
2003
0000
0000
0000
3100
0000
0000
0010
0000
0000
0001
0000
,
0200
0300
0020
0030
2000
3000
0200
0300
,
0010
0000
0001
0000
0010
0000
0100
1000
0000
1000
0001
0000
0100
0000
0010
0000
,
1000
0100
1000
0000
0001
0000
0100
0010
0000
0010
1000
0000
0100
0000
0010
0000
,
0001
0000
1000
0000
0100
0000
0010
0001
0000
0001
0100
0000
0010
0000
1000
0000
,
0001
0010
1000
0010
0001
0100
0010
1000
,
0100
0000
0010
0000
0001
0000
0100
0010
0000
0010
1000
0000
0001
0000
0010
0000
,
0100
1000
0100
0000
0010
0000
0001
1000
0000
1000
0010
0000
0100
0000
0001
0000
,
1000
0100
0001
0100
1000
0010
0100
0001
,
1000
0100
1000
0000
0010
0000
0100
0000
0001
1000
0001
0000
0010
0000
0100
0000
,
0000
0000
0000
0000
;

//---------------dance-single - ----------------
#NOTEDATA:;
#CHARTNAME:;
#STEPSTYPE:dance-single;
#DESCRIPTION:;
#CHARTSTYLE:;
#DIFFICULTY:Challenge;
#METER:16;
#RADARVALUES:0.881403,0.929399,0.088934,0.044467,1.061654,555.000000,547.000000,8.000000,4.000000,0.000000,0.000000,0.000000,0.000000,0.000000,0.881403,0.929399,0.088934,0.044467,1.061654,555.000000,547.000000,8.000000,4.000000,0.000000,0.000000,0.000000,0.000000,0.000000;
#CREDIT:;
#DISPLAYBPM:150.000000;
#NOTES:
// measure 0
0000
0000
0000
0000
,  // measure 1
0000
0000
0000
0000
,  // measure 2
0000
0000
0000
0000
,  // measure 3
0000
0000
0000
0000
,  // measure 4
0000
0000
0000
0000
,  // measure 5
0000
0000
0000
0000
,  // measure 6
0100
0000
1000
0000
0010
0000
1000
0100
0000
0100
0001
0000
0010
0000
1000
0000
,  // measure 7
0100
0010
0001
0010
0100
0000
1000
0010
0000
0100
0001
0000
1000
0001
0100
0010
,  // measure 8
1000
0000
0100
0000
0001
0000
0010
0001
0000
0001
0100
0000
1000
0000
0010
0000
,  // measure 9
0100
0001
0100
0001
0000
0010
0100
1000
0010
0100
0001
1000
0100
1000
0010
0100
,  // measure 10
0001
0000
0010
0000
1000
0000
0100
0010
0000
0001
0100
0010
1000
0000
0001
0000
,  // measure 11
1000
0010
0100
0010
1000
0100
0010
0001
0000
0100
0010
0000
1000
0000
0001
0000
,  // measure 12
0010
0001
0010
0100
1000
0001
0000
0110
0000
0001
0010
1000
0100
0010
0000
0001
,  // measure 13
1000
0010
1000
0010
0001
0100
0001
0100
1000
0100
1000
0100
0010
0001
0010
0001
,  // measure 14
0100
0000
0010
0000
1000
0100
1000
0000
0010
0000
0100
0000
0001
0010
0001
0000
,  // measure 15
1000
0100
0010
0001
0010
0100
1000
0000
0001
0100
0010
1000
0100
0000
0010
0000
,  // measure 16
0001
0000
0100
0000
0010
0000
1000
0000
0100
0010
0100
0010
0001
1000
0010
0000
,  // measure 17
0100
0001
0010
0001
1000
0000
0010
0000
1000
0100
1000
0100
0010
0001
1000
0000
,  // measure 18
0001
0100
0010
0000
1000
0000
0001
0000
1000
0100
1000
0000
0010
0100
0001
0000
,  // measure 19
0010
0100
0010
0001
1000
0000
0010
0000
1000
0100
1000
0001
0010
0000
0100
0000
,  // measure 20
1000
0000
0010
0000
1000
0000
0001
0000
0100
0010
0100
0010
0100
0001
1000
0001
,  // measure 21
0020
0000
0031
0000
0200
0000
0301
0000
1000
0010
0100
0001
1000
0100
0010
0000
,  // measure 22
0011
0000
0000
0000
0100
0000
1000
0000
0010
0000
0100
0000
0001
1000
0001
0000
,  // measure 23
0010
0000
0100
0000
1000
0010
1000
0000
0101
0000
0000
0000
1100
0000
0000
0000
,  // measure 24
0110
0000
0000
0000
0001
0000
0010
0000
1000
0100
1000
0000
0010
0100
0001
0000
,  // measure 25
2000
0000
0100
0000
3100
0000
0010
0001
1000
0000
0010
0000
0001
0000
0100
0000
,  // measure 26
0010
0000
1000
0000
0100
0000
1000
0000
0001
0000
0100
0000
0010
1000
0001
0000
,  // measure 27
0010
0100
1000
0000
0001
0000
0100
0000
0010
1000
0100
0000
1000
0000
0001
0000
,  // measure 28
0010
0001
1000
0100
0001
0100
0001
0100
0010
1000
0010
1000
0001
1000
0010
0100
,  // measure 29
0001
0000
0000
0000
0001
0000
0100
0000
0010
1000
0100
1000
0010
1000
0100
1000
,  // measure 30
0001
0000
0010
0000
1000
0000
0100
0000
1000
0010
0100
0010
1000
0001
0010
0100
,  // measure 31
0000
1000
0100
0010
0000
1000
0100
0010
0000
1000
0100
0010
0001
0010
0100
1000
,  // measure 32
0001
0000
0100
0000
0001
0010
1000
0000
0100
0010
0001
0000
0100
0010
1000
0000
,  // measure 33
0001
0000
0100
0000
0010
0000
1000
0000
0010
0100
0001
0010
0001
0100
1000
0000
,  // measure 34
0010
0000
1000
0000
0001
0000
0010
0000
0100
0000
1000
0010
1000
0001
0100
0000
,  // measure 35
0110
0000
0001
0000
0100
0000
1000
0000
0001
0010
1000
0100
0010
0000
0001
0100
,  // measure 36
0010
0000
1000
0000
0100
1000
0001
0000
0010
0001
0100
0000
0001
0010
1000
0000
,  // measure 37
0200
0000
0010
0000
0310
0000
0001
0000
0100
0010
1000
0001
1000
0000
0100
0000
,  // measure 38
0010
0000
0001
0000
1000
0000
0001
0000
0100
0010
1000
0001
1000
0000
0100
0000
,  // measure 39
1001
0000
0010
0000
0100
0001
0100
0001
1000
0000
0100
1000
0001
0000
0010
0000
,  // measure 40
1100
0000
0001
0000
1000
0100
1000
0010
1000
0100
0010
0001
0100
0010
0100
0001
,  // measure 41
1000
0000
0000
0000
1000
0000
0100
0000
0010
0001
0100
0001
0010
0001
0100
0001
,  // measure 42
1000
0010
1000
0000
0100
0000
0010
0000
0001
0000
0100
0010
0000
0100
0001
0000
,  // measure 43
1000
0100
0010
0100
1000
0000
0001
0000
0100
0000
0010
1000
0000
1000
0001
0000
,  // measure 44
0010
0001
0100
0000
1000
0000
0010
0000
1000
0000
0001
0100
0000
0001
0100
0010
,  // measure 45
1000
0000
0100
1000
0001
0000
0010
0001
0100
0000
0010
1000
0001
0000
0100
0000
,  // measure 46
0010
0000
1000
0000
0001
0000
0010
1000
0000
0100
1000
0000
0001
0000
0100
0000
,  // measure 47
0010
1000
0100
1000
0100
0010
0001
1000
0000
1000
0010
0000
0100
0001
0010
0100
,  // measure 48
1000
0000
0001
0000
0010
0000
0100
0010
0000
0001
1000
0000
0100
0000
0001
0000
,  // measure 49
0010
0100
0010
0100
1000
0010
0100
0001
0100
0010
0100
0001
1000
0100
0010
0001
,  // measure 50
0100
0000
0010
0000
1000
0000
0100
0010
0000
0001
0010
0000
0100
1000
0001
0000
,  // measure 51
1000
0010
1000
0001
0010
0100
0010
0001
0000
0100
0010
0000
1000
0000
0001
0000
,  // measure 52
0010
0001
0010
0100
1000
0001
0000
1000
0010
0100
0001
1000
0100
0010
0000
0001
,  // measure 53
0010
0001
0100
0001
0100
1000
0100
0010
1000
0010
0001
0010
1000
0001
0100
1000
;

//---------------dance-double - ----------------
#NOTEDATA:;
#CHARTNAME:;
#STEPSTYPE:dance-double;
#DESCRIPTION:;
#CHARTSTYLE:;
#DIFFICULTY:Easy;
#METER:3;
#RADARVALUES:0.149283,0.209135,0.022234,0.133402,0.000000,94.000000,92.000000,2.000000,12.000000,0.000000,0.000000,0.000000,0.000000,0.000000,0.149283,0.209135,0.022234,0.133402,0.000000,94.000000,92.000000,2.000000,12.000000,0.000000,0.000000,0.000000,0.000000,0.000000;
#CREDIT:;
#DISPLAYBPM:150.000000;
#NOTES:
00000000
00000000
00000000
00000000
,
00000000
00000000
00000000
00000000
,
00000000
00000000
00000000
00000000
,
00000000
00000000
00000000
00000000
,
00000000
00000000
00000000
00000000
,
00000000
00000000
00000000
00000000
,
10000000
00000000
10000000
00000000
,
02000000
00000000
03000000
00000000
,
00010000
00000000
00010000
00000000
,
00002000
00000000
00003000
00000000
,
00000100
00000000
00000100
00000000
,
00000002
00000000
00000003
00000000
,
00000020
00000000
00000030
00000000
,
00000100
00000000
00000000
00000000
,
00010000
00000000
00001000
00000000
,
00100000
01000000
10000000
00000000
,
00010000
00000000
01000000
00000000
,
00001000
00000000
00010000
00000000
,
00000100
00000000
00000010
00000000
,
00000001
00000100
00000010
00000000
,
00001000
00000000
00000100
00000000
,
00000001
00000100
00001000
00010000
,
02000000
00000000
03000000
00000000
,
00100000
00000000
00001000
00010000
,
00000200
00000000
00000300
00000000
,
00001000
00000000
00000001
00000000
,
00000100
00000000
00000100
00000000
,
00000010
00000000
00000010
00000000
,
00010000
00000000
00001000
00000000
,
00011000
00000000
00000000
00000000
,
00100000
00000000
00100000
00000000
,
01000000
01000000
10000000
10000000
,
00010000
00000000
00010000
00000000
,
01000000
00000000
01000000
00000000
,
00001000
00000000
00001000
00000000
,
00010000
00001000
00010000
00000000
,
00000010
00000000
00000010
00000000
,
00000100
00000000
00000100
00000000
,
00000001
00000000
00000001
00000000
,
00002000
00000000
00003000
00000000
,
00000200
00000000
00000000
00000300
,
00001001
00000000
00000000
00000000
,
00000100
00000000
00000100
00000000
,
00001000
00000000
00001000
00000000
,
00010000
00000000
00010000
00000000
,
01000000
01000000
10000000
10000000
,
00010000
00000000
01000000
00000000
,
00002000
00000000
00003000
00000000
,
00010000
00000000
00000100
00000000
,
00000020
00000000
00000030
00000000
,
00000001
00000000
00000100
00000000
,
00002000
00000000
00003000
00000000
,
00020000
00000000
00030000
00000000
,
00001000
00000000
00010000
00001000
,
00000000
00000000
00000000
00000000
;

//---------------dance-double - ----------------
#NOTEDATA:;
#CHARTNAME:;
#STEPSTYPE:dance-double;
#DESCRIPTION:;
#CHARTSTYLE:;
#DIFFICULTY:Medium;
#METER:7;
#RADARVALUES:0.325563,0.448146,0.022234,0.044467,0.000000,205.000000,203.000000,2.000000,4.000000,0.000000,0.000000,0.000000,0.000000,0.000000,0.325563,0.448146,0.022234,0.044467,0.000000,205.000000,203.000000,2.000000,4.000000,0.000000,0.000000,0.000000,0.000000,0.000000;
#CREDIT:;
#DISPLAYBPM:150.000000;
#NOTES:
00000000
00000000
00000000
00000000
,
00000000
00000000
00000000
00000000
,
00000000
00000000
00000000
00000000
,
00000000
00000000
00000000
00000000
,
00000000
00000000
00000000
00000000
,
00000000
00000000
00000000
00000000
,
00010000
00100000
00001000
00010000
,
00001000
00000010
00010000
00001000
,
00100000
10000000
00100000
00010000
,
10000000
01000000
00010000
00001000
,
00010000
00100000
00001000
00010000
,
00001000
00000010
00010000
00001000
,
00100000
00100000
01000000
01000000
,
00010000
00001000
00000100
00000001
,
00002000
00000000
00000000
00000010
00003010
00000000
00000000
00000000
,
00000100
00000000
00001000
00000000
00010000
00000000
01000000
10000000
,
01000000
00100000
00010000
01000000
,
00001000
00001000
00010000
00010000
,
00000020
00000000
00000000
00001000
00001030
00000000
00000000
00000000
,
00000001
00000000
00000010
00000000
00000100
00000000
00001000
00000010
,
00000100
00001000
00010000
01000000
,
00010000
00001000
00000100
00000001
,
00001000
00000000
00000000
00000100
00000100
00000000
00000000
00000000
,
00010000
00000000
00000000
00001000
00010000
00000000
00100000
00000000
,
10000000
00000000
00000000
01000000
01000000
00000000
00000000
00000000
,
00100000
00000000
00000000
00010000
00010000
00000000
01000000
00000000
,
00001000
00001000
00010000
00010000
,
00001000
00001000
00010000
00100000
,
20000000
00000000
00000000
00010000
00020000
00000000
30030000
00000000
,
01100000
00000000
00000000
00000000
,
10000000
01000000
00010000
00001000
,
00000100
00000001
00000010
00000000
00000100
00001000
00000010
00000000
,
00000100
00000000
00000100
00000000
00001000
00010000
00001000
00000000
,
00100000
00000000
00010000
10000000
01000000
00000000
00100000
00010000
,
01000000
01000000
00100000
00010000
,
00001000
00010000
00001000
00000010
,
00000100
00000000
00000100
00000000
00001000
00000010
00001000
00000000
,
00000100
00000000
00010000
00001000
00010000
00000000
00100000
01000000
,
00010000
00010000
10000000
01000000
,
00010000
00001000
00010000
00001000
00010000
00000000
00000010
00000000
,
00001000
00000100
00001000
00000100
00001000
00000100
00001000
00000100
,
00000010
00000000
00000000
00000000
,
00000001
00000100
00001000
00010000
,
01000000
10000000
01000000
00000000
00100000
00010000
00100000
00000000
,
01000000
00010000
00001000
00000100
,
00000001
00001000
00000100
00010000
,
00001000
00000010
00010000
00001000
,
00010000
00100000
00001000
00010000
,
00000010
00001000
00000100
00000000
00000010
00000001
00000100
00000000
,
00001000
00010000
01000000
00010000
,
00001000
00000010
00010000
00001000
,
00010000
00100000
00001000
00010000
,
00000100
00000010
00000001
00000000
00000100
00000010
00001000
00000000
,
00000001
00000100
00001000
00011000
,
00000000
00000000
00000000
00000000
;

//---------------dance-double - ----------------
#NOTEDATA:;
#CHARTNAME:;
#STEPSTYPE:dance-double;
#DESCRIPTION:;
#CHARTSTYLE:;
#DIFFICULTY:Hard;
#METER:12;
#RADARVALUES:0.605071,0.569631,0.000000,0.166752,0.150077,381.000000,381.000000,0.000000,15.000000,0.000000,0.000000,0.000000,0.000000,0.000000,0.605071,0.569631,0.000000,0.166752,0.150077,381.000000,381.000000,0.000000,15.000000,0.000000,0.000000,0.000000,0.000000,0.000000;
#CREDIT:;
#DISPLAYBPM:150.000000;
#NOTES:
00000000
00000000
00000000
00000000
,
00000000
00000000
00000000
00000000
,
00000000
00000000
00000000
00000000
,
00000000
00000000
00000000
00000000
,
00000000
00000000
00000000
00000000
,
00000000
00000000
00000000
00000000
,
10000000
00000000
01000000
00000000
00100000
00000000
01000000
10000000
00000000
10000000
00100000
00000000
00010000
00000000
00001000
00000000
,
00000010
00000000
00000001
00000000
00000100
00000000
00000010
00001000
00000000
00001000
00000100
00000000
00010000
00000000
00001000
00000000
,
00100000
00000000
01000000
00000000
10000000
00000000
00100000
01000000
00000000
01000000
00010000
00000000
00100000
00000000
01000000
00000000
,
10000000
00100000
00010000
00001000
00000010
00000001
00000100
00000010
,
00001000
00000000
00000100
00000000
00000010
00000000
00000001
00000100
00000000
00000100
00000010
00000000
00001000
00000000
00000100
00000000
,
00000010
00000000
00001000
00000000
00010000
00000000
00100000
10000000
00000000
10000000
01000000
00000000
00100000
00000000
00010000
00000000
,
01000000
00100000
00010000
00001000
00010000
01000000
10000000
00100000
,
01000000
00010000
00100000
01000000
00010000
00001000
00000100
00000001
,
00000020
00000000
00000130
00001000
00000010
00000100
00001000
00010000
,
02000000
00000000
13000000
00100000
00010000
00001000
00000010
00000001
,
00000200
00000000
00000310
00001000
00000100
00000010
00001000
00010000
,
00200000
00000000
10300000
01000000
00100000
00010000
01000000
00100000
,
20000000
00000000
31000000
00010000
00001000
00000100
00000010
00001000
,
00000002
00000000
00000013
00001000
00010000
00100000
01000000
00010000
,
20000000
00000000
31000000
00100000
00010000
01000000
00100000
00010000
,
00001000
00000010
00001000
00010000
00100000
00010000
00001000
00000010
,
00000001
00000100
00000010
00000100
00000001
00000010
00000100
00001000
,
00000010
00001000
00000100
00001000
00000001
00000100
00001000
00010000
,
01000000
10000000
00100000
10000000
00010000
00100000
01000000
10000000
,
00010000
01000000
00100000
01000000
00010000
00100000
01000000
00010000
,
00001000
00000100
00000100
00000100
00000001
00000010
00000010
00000010
,
00001000
00010000
00010000
00010000
00100000
10000000
10000000
10000000
,
01000000
00010000
00001000
00000100
00001000
00010000
01000000
10000000
,
00010000
00000000
00000000
00000000
01000000
00000000
00000000
00000000
00100000
10000000
00100000
10000000
00100000
10000000
00100000
00000000
,
02000000
00000000
03010000
00000000
00100000
01000000
00010000
00001000
,
00000100
00000001
00000010
00001000
00010000
00100000
10000000
00010000
,
01000000
10000000
01000000
00010000
00100000
01000000
00010000
00001000
,
00000100
00000001
00000010
00001000
00000010
00000001
00000100
00000010
,
00001000
00000100
00010000
00001000
01000000
00100000
10000000
01000000
,
00100000
00010000
01000000
10000000
01000000
00010000
00100000
01000000
,
10000000
00010000
01000000
00001000
00010000
01000000
10000000
00100000
,
00010000
00001000
00000010
00000001
00000100
00000010
00001000
00000100
,
00000010
00000001
00001000
00000010
00000100
00001000
00010000
01000000
,
10000000
00100000
00100000
00100000
01000000
00010000
00010000
00010000
,
00100000
01000000
00010000
00001000
00000100
00000001
00000010
00000100
,
00001000
00000000
00000000
00000000
00000001
00000000
00000000
00000000
00000100
00000010
00000100
00000010
00000100
00000010
00000100
00000000
,
00000002
00000000
00001003
00000100
00000010
00000001
00000100
00000010
,
00020000
00000000
00030100
00000010
00000001
00000100
00001000
00010000
,
02000000
00000000
13000000
00010000
00100000
01000000
10000000
00100000
,
00020000
00032000
00003020
00000032
,
00001003
00000000
00000100
00000000
00010000
00000000
00001000
00100000
00000000
00100000
01000000
00000000
10000000
00000000
00010000
00000000
,
01000000
00000000
00100000
00000000
00010000
00000000
00001000
00010000
00000000
00010000
01000000
00000000
10000000
00000000
00100000
00000000
,
00010000
00000000
00001000
00000000
00000010
00000000
00000001
00001000
00000000
00001000
00000010
00000000
00000100
00000000
00000001
00000000
,
00000010
00001000
00010000
00100000
00010000
00001000
00000010
00000001
,
00000100
00000000
00001000
00000000
00010000
00000000
01000000
10000000
00000000
10000000
00100000
00000000
01000000
00000000
00001000
00000000
,
00010000
00000000
01000000
00000000
10000000
00000000
00010000
01000000
00000000
01000000
00100000
00000000
00010000
00000000
00001000
00000000
,
00000010
00000001
00001000
00000010
00000100
00000001
00000010
00000100
,
00001000
00000000
00000010
00000000
00000100
00000000
00001000
00000000
00010000
00000000
01000000
00000000
10000000
00000000
00010000
01000000
,
00000000
00000000
00000000
00000000
;
