#TITLE:DIAVOLO;
#SUBTITLE:;
#ARTIST:DOKYOU KYOUDAI;
#TITLETRANSLIT:;
#SUBTITLETRANSLIT:;
#ARTISTTRANSLIT:;
#GENRE:;
#CREDIT:;
#BANNER:DIAVOLO-bn.png;
#BACKGROUND:DIAVOLO-bg.png;
#LYRICSPATH:;
#CDTITLE:;
#MUSIC:DIAVOLO.ogg;
#OFFSET:0.000000;
#SAMPLESTART:6.000000;
#SAMPLELENGTH:20.000000;
#SELECTABLE:YES;
#DISPLAYBPM:160.000000;
#BPMS:0.000000=160.000000
;
#STOPS:
;
#BGCHANGES:;
#KEYSOUNDS:;
#ATTACKS:;

//---------------dance-single - ----------------
#NOTES:
     dance-single:
     :
     Hard:
     12:
     0.639333,0.732043,0.232253,0.303715,0.330514,501.000000,475.000000,26.000000,34.000000,0.000000,0.000000,0.639333,0.732043,0.232253,0.303715,0.330514,501.000000,475.000000,26.000000,34.000000,0.000000,0.000000:
0000
0000
0000
0000
,
0000
0000
0000
0000
,
0000
0000
0000
0000
,
0000
0000
0000
0000
,
2002
0000
0000
0000
3003
0000
0001
0000
0010
0000
0000
1000
0000
0000
0100
0000
,
0220
0000
0000
0000
0330
0000
0100
0000
0010
0000
0000
0001
0000
0000
1000
0000
,
1010
0101
0011
1100
,
0001
0100
0010
1000
0002
0000
0103
0010
,
1000
0001
0010
0001
0100
0010
1000
0001
,
1000
0000
0100
0010
0001
0100
1000
0000
,
0001
0010
0001
0100
0010
1000
0100
0010
,
0001
0000
1000
0010
0100
0001
1000
0000
,
2200
0000
0000
0000
3300
0000
1000
0001
1000
0000
0000
0010
0000
0000
0100
0000
,
0202
0000
0000
0000
0303
0000
0001
0010
0001
0000
0000
1000
0000
0000
0100
0000
,
1000
0000
0000
0010
0000
0000
0100
0000
0001
0000
0000
0010
0000
0000
1000
0000
,
0100
0000
0000
0010
0001
0000
0100
0000
2000
0000
0000
0000
3001
0000
0100
0000
,
0001
0000
1000
0000
0100
0000
0000
0010
0001
0000
0000
0100
1000
0000
0000
0000
,
0001
0000
0000
0010
1000
0000
0000
0010
1000
0000
0000
0100
0001
0000
0000
0000
,
1000
0000
0100
0000
0010
0000
0000
0001
0100
0000
0000
0001
1000
0000
0000
0000
,
0001
0010
1000
0100
0001
1000
0010
0100
,
0002
0000
0000
1000
1003
0001
0100
0000
,
0020
0000
0000
1000
1030
0100
0010
0001
,
0200
0000
0301
1000
0001
0100
0010
0000
,
2000
0000
3001
0010
0001
0100
0010
1000
,
0200
0000
0310
0001
0100
1000
0100
0001
,
2000
0000
3001
0010
1000
0010
0001
0100
,
0020
0000
1030
0001
0020
0000
0031
0100
,
1000
0000
0000
0010
0000
0000
0100
0000
0000
0001
0000
0000
0010
0000
0000
0000
0001
0000
1000
0000
0001
0000
1000
0000
,
0100
0000
0100
0010
0000
0000
0001
0000
0001
0100
0000
0000
,
0010
1000
0010
1000
0000
0001
0200
0000
0000
0000
0000
0000
,
0301
0000
0001
0100
0000
0000
0010
0000
0010
1000
0000
0000
,
0001
1000
0001
1000
0000
0010
0100
0000
0100
0000
0100
0000
,
0001
0000
1000
0010
0000
1000
0010
0000
0000
0100
0001
1000
,
0001
0000
1000
0100
0000
0010
0001
0000
0000
0100
0010
1000
,
0002
0013
2000
3010
,
0100
0010
0100
0010
0100
0010
2000
0000
0000
0000
0000
0000
,
3001
0010
1000
0010
0001
0100
1000
0100
,
0001
0010
0100
1000
0002
0000
2003
0000
,
3020
0000
0000
0000
1030
0100
1000
0100
2000
0000
0000
0000
3001
0100
0001
0100
,
0002
0000
1003
0010
0100
0010
1000
0100
,
0010
0001
0010
0000
0100
0000
0010
0000
0001
0000
0100
0000
1000
0000
0000
0000
,
0001
0100
0002
0000
0000
0000
1003
0000
0010
0000
1000
0000
0100
0000
0001
0000
,
1000
0100
2000
0000
0000
0000
3001
0000
1000
0010
1000
0000
0001
0000
0100
0000
,
0001
0010
0001
0000
0000
0000
1000
0000
0010
0000
0100
0000
0010
0000
1000
0000
,
1001
0000
0001
0010
1000
0100
1000
0001
,
0110
0000
1000
0010
0001
1000
0001
0100
,
1010
0000
0001
1000
0100
0001
0010
1000
,
0100
0010
0001
1000
1100
0000
0011
0000
,
1001
0000
0000
0000
0001
1000
0001
1000
0001
0000
0010
0000
0100
0000
0010
0000
,
0110
0000
0000
0000
0100
1000
0100
1000
0100
0000
0010
0000
0001
0000
0100
0000
,
1010
0000
0001
0100
0101
0000
1000
0001
,
0010
1000
0100
0010
1001
0000
0110
0000
,
0001
0010
1000
0100
1000
0010
0100
0001
,
1000
0001
0010
1000
0100
0001
0010
0100
,
1000
0010
0100
0010
0001
1000
0100
0001
,
1000
0000
0001
0000
0100
0000
0010
0000
1000
0100
1000
0100
1000
0000
0000
0000
,
0002
0000
0000
0000
0003
0000
0000
0000
0010
0001
0010
0001
0010
0000
0000
0000
,
0100
0000
0000
0000
1100
0000
0000
0000
0101
0000
1000
0001
1000
0000
0000
0000
,
0020
0000
0000
0000
0030
0000
0000
0000
0100
0001
0100
0001
0100
0000
0000
0000
,
0020
0000
0000
0000
1030
0001
1000
0001
1000
0000
0100
0000
1000
0000
0010
0000
,
1010
0000
0100
0001
0010
0001
1000
0010
,
0101
0000
1000
0001
0010
0001
0010
0001
,
1000
0100
1000
0100
1000
0010
0100
0001
,
0011
0000
0000
0000
1100
0000
0000
0000
0001
0000
0000
1000
0010
0000
0100
0000
,
0001
0000
0000
1000
0100
0000
0010
0000
0001
0000
0000
0100
0010
0000
1000
0000
,
0010
0000
0100
0000
0010
0000
1000
0000
0001
0000
0000
0010
0001
0000
1000
0000
,
0100
0000
0000
1000
0010
0000
0100
0000
0001
0000
0000
1000
0100
0000
0010
0000
,
0001
0100
0001
1000
0010
1000
0100
0001
,
0010
0000
0001
0000
0100
0000
1000
0000
0010
0000
0100
0000
0001
0000
1000
0100
,
1000
0010
0100
0010
1000
0100
0010
0001
,
0100
0000
0010
0000
1000
0001
1000
0001
1000
0000
0000
0000
2002
0000
0000
0000
,
0000
0000
0000
0000
,
0000
0000
0000
0000
,
0000
0000
0000
0000
,
0000
0000
3003
0000
;

//---------------dance-single - ----------------
#NOTES:
     dance-single:
     :
     Medium:
     10:
     0.488752,0.532395,0.464506,0.544901,0.089328,383.000000,331.000000,52.000000,61.000000,0.000000,0.000000,0.488752,0.532395,0.464506,0.544901,0.089328,383.000000,331.000000,52.000000,61.000000,0.000000,0.000000:
0000
0000
0000
0000
,
0000
0000
0000
0000
,
0000
0000
0000
0000
,
0000
0000
0000
0000
,
2002
3003
2020
3030
,
0220
0330
0202
0303
,
0011
1100
0101
1010
,
1000
0100
0001
0100
2000
0000
0000
3000
,
0000
0010
0100
0000
0001
0000
1000
0100
,
0001
0000
0010
0001
0100
0000
1001
0000
,
0110
0000
1000
0010
0100
0000
0001
0010
,
1000
0000
0100
0010
0001
0000
0011
0000
,
2200
0000
3300
1000
0002
0000
0103
0000
,
0202
0000
0303
0010
2000
0000
3001
0000
,
1010
1100
0011
0101
,
0011
0000
1000
0010
0002
0000
0000
0003
,
1000
0010
0100
0000
0001
0010
1000
0000
,
0100
1000
0010
0001
,
0100
0001
0010
0000
0001
1000
0100
0000
,
1000
0001
1000
0001
1000
0001
1000
0001
,
0020
0000
0000
0000
0031
0100
1000
0000
,
0020
0000
0000
0000
1030
0100
0001
0100
,
2000
0000
0000
0000
3010
1000
0100
0000
,
0002
0000
0000
0000
0013
0001
1000
0010
,
0200
0000
0300
0001
0010
0001
0100
0010
,
2000
0000
3000
0100
1000
0001
0010
0100
,
0020
0000
0030
0001
2000
0000
3000
0001
,
0100
0000
0000
0010
0000
0000
1000
0000
0000
0001
0000
0000
0100
0000
0000
0000
0100
0000
0000
0000
0100
0000
0000
0000
,
0001
0000
1000
0000
0000
0000
1000
0000
0001
0000
0000
0000
,
1000
0000
1000
0100
0000
0100
0020
0000
0000
0000
0000
0000
,
0031
0000
1000
0000
0000
0000
1000
0000
0001
0000
0000
0000
,
0100
0000
0100
0010
0000
0010
1000
0000
0001
0000
1000
0000
,
0001
0000
0010
0000
0000
0001
0000
0000
0000
1000
0000
0010
,
0100
0000
0001
0000
0000
1000
0000
0000
0000
0001
0000
0100
,
0020
0030
0200
0300
,
0001
0000
0001
1000
0000
1000
0002
0000
0000
0003
0000
0000
,
0010
0001
0100
0000
0010
1000
0100
0000
,
0010
0001
1000
0001
2000
0000
3020
0000
,
0230
0000
0301
1000
0002
0000
0013
0100
,
2000
0000
3010
1000
0010
0100
0001
1000
,
0100
0010
0001
0100
2000
0000
3001
0000
,
0010
0001
0000
0000
0100
0010
1000
0001
,
1000
0200
0000
0300
0010
0002
0000
0003
,
1000
0020
0000
0030
0100
0001
1000
0001
,
0020
0000
0031
0100
0001
0000
1100
0000
,
0201
0000
0310
1000
0001
0000
1010
0000
,
0012
0000
1003
0100
0010
0000
0110
0000
,
0001
0100
0010
1000
0002
0000
0103
0000
,
1002
0000
0013
0001
0100
0000
1010
0000
,
0102
0000
1003
0001
0010
0000
1100
0000
,
0012
0103
0120
1030
,
0001
0010
1000
0001
0100
0000
0110
0000
,
2000
3020
0230
0302
,
0023
0230
2300
3002
,
1003
0010
1000
0000
0001
0100
0001
0000
,
1000
0001
0100
0000
0010
0000
0101
0000
,
2000
3001
1000
0011
,
0200
0000
0310
0100
0001
0000
1020
0000
,
1030
0100
1000
0110
,
0001
0100
0010
1000
0001
0000
0011
0000
,
0101
0000
1000
0001
0100
0000
1010
0000
,
1100
0010
1001
0011
,
1100
0000
0101
0000
1000
0001
1000
0001
,
0100
0100
0001
1010
,
0001
1100
0010
0101
,
1000
0001
1000
0100
0010
0000
0011
0000
,
0100
0101
1000
1001
,
1000
0100
0010
0001
0100
0000
1020
0000
,
0130
0102
0013
0021
,
0130
1000
0001
1000
,
0010
0100
0010
0100
0010
0000
2002
0000
,
0000
0000
0000
0000
,
0000
0000
0000
0000
,
0000
0000
0000
0000
,
0000
0000
3003
0000
;

//---------------dance-single - ----------------
#NOTES:
     dance-single:
     :
     Easy:
     7:
     0.339446,0.432571,0.464506,0.598498,0.000000,266.000000,214.000000,52.000000,67.000000,0.000000,0.000000,0.339446,0.432571,0.464506,0.598498,0.000000,266.000000,214.000000,52.000000,67.000000,0.000000,0.000000:
0000
0000
0000
0000
,
0000
0000
0000
0000
,
0000
0000
0000
0000
,
0000
0000
0000
0000
,
2002
3003
0220
0330
,
2002
3003
0220
0330
,
1000
0001
1000
0001
,
0100
0010
0100
0000
,
0001
0010
1000
0001
,
0100
0010
0100
0001
,
1000
0010
1000
0100
,
0010
0001
1000
0010
,
2002
3003
0220
0330
,
2002
3003
0220
0330
,
1000
0010
1000
0100
,
0001
0001
0001
0000
,
1000
0010
1000
0001
,
0100
0100
0010
0100
,
0001
0010
0001
1000
,
0001
0100
0010
0010
,
2002
3000
1000
1003
,
2002
0003
0001
3001
,
0220
0030
0010
0310
,
0220
0300
0100
0130
,
0202
0300
1000
1003
,
2200
0300
0001
3001
,
2020
3030
0202
0303
,
1000
0001
1000
0000
,
0020
0030
0200
0300
,
0001
1000
0202
0303
,
2000
3000
0002
0003
,
0010
0001
2200
3300
,
1001
0000
0010
0100
,
0110
0000
1000
0001
,
0022
0033
2200
3300
,
0001
0010
2000
3000
,
0010
1000
0100
0001
,
0010
0100
1000
0001
,
1010
0100
0011
0100
,
1010
0001
1000
0100
,
1100
0010
0001
1000
,
0200
0300
0001
1000
,
0002
0003
0020
0030
,
2000
3000
0001
0100
,
1001
0010
1000
0100
,
0110
0010
0001
0100
,
1010
0001
1000
0100
,
0010
0001
0100
0100
,
0101
1000
0010
0001
,
1100
0010
0001
0100
,
0022
0033
2020
3030
,
0001
0100
1001
0010
,
1000
0010
0100
0001
,
0010
0100
1000
0001
,
0100
0010
1000
0001
,
0010
0100
0000
1100
,
0002
0000
0003
0011
,
2000
0010
3010
1010
,
0200
0000
0301
1001
,
0020
0030
0220
0330
,
2002
3003
0220
0330
,
2002
3003
1000
0010
,
1000
0001
0010
0100
,
0010
0001
0000
0101
,
0000
1100
0000
0101
,
0010
1000
0000
1010
,
0000
0011
0000
1010
,
0100
0001
0000
1100
,
0000
0110
0000
0011
,
1000
1000
0001
0001
,
1000
0001
0100
2002
,
0000
0000
0000
0000
,
0000
0000
0000
0000
,
0000
0000
0000
0000
,
0000
0000
3003
0000
;

//---------------dance-single - ----------------
#NOTES:
     dance-single:
     :
     Beginner:
     4:
     0.185037,0.284398,0.160790,0.000000,0.000000,145.000000,127.000000,18.000000,0.000000,0.000000,0.000000,0.185037,0.284398,0.160790,0.000000,0.000000,145.000000,127.000000,18.000000,0.000000,0.000000,0.000000:
// measure 0
0000
0000
0000
0000
,  // measure 1
0000
0000
0000
0000
,  // measure 2
0000
0000
0000
0000
,  // measure 3
0000
0000
0000
0000
,  // measure 4
1001
0000
0110
0000
,  // measure 5
1001
0000
0110
0000
,  // measure 6
1000
0000
1000
0000
,  // measure 7
0001
0000
0001
0000
,  // measure 8
0100
0000
0000
0000
,  // measure 9
0010
0000
0000
0100
,  // measure 10
0100
0000
0000
0000
,  // measure 11
0010
0000
0000
1000
,  // measure 12
1000
0000
0100
0000
,  // measure 13
0010
0000
0001
0000
,  // measure 14
0100
0000
0010
0000
,  // measure 15
1000
1000
1000
0000
,  // measure 16
0001
0000
0010
0000
,  // measure 17
0001
0000
0100
0000
,  // measure 18
1000
0000
0010
0000
,  // measure 19
1000
0000
0100
0000
,  // measure 20
0010
0000
0000
0000
,  // measure 21
0010
0000
0000
0000
,  // measure 22
0001
0000
0000
0000
,  // measure 23
1000
0000
0000
0000
,  // measure 24
0010
0000
1000
0000
,  // measure 25
0100
0000
1000
0000
,  // measure 26
0001
0000
0010
0000
,  // measure 27
0001
0001
0001
0000
,  // measure 28
1000
0000
1000
0000
,  // measure 29
1000
0000
1000
0000
,  // measure 30
0001
0000
0001
0000
,  // measure 31
0001
0000
0001
0000
,  // measure 32
0010
0000
0000
0001
,  // measure 33
0001
0000
0000
1000
,  // measure 34
1000
0000
0010
0000
,  // measure 35
0100
0100
0100
0000
,  // measure 36
0001
0000
0010
0000
,  // measure 37
0001
0001
0001
0000
,  // measure 38
0100
0000
0010
0000
,  // measure 39
1000
0000
0100
0000
,  // measure 40
1000
0000
0001
0000
,  // measure 41
1000
0000
0010
0000
,  // measure 42
0100
0000
0100
0000
,  // measure 43
0100
0000
0001
0000
,  // measure 44
1001
0000
0000
0000
,  // measure 45
0110
0000
0000
0000
,  // measure 46
1001
0000
0000
0000
,  // measure 47
0000
0000
0010
0010
,  // measure 48
0010
0000
0000
0000
,  // measure 49
1000
0000
0000
0000
,  // measure 50
0110
0000
1001
0000
,  // measure 51
0001
0001
0001
0000
,  // measure 52
0010
0000
0001
0000
,  // measure 53
0100
0000
0010
0000
,  // measure 54
1000
0000
0100
0000
,  // measure 55
1000
0000
0000
0001
,  // measure 56
0000
0000
0000
1000
,  // measure 57
0000
0000
0010
0010
,  // measure 58
0000
0000
1000
0000
,  // measure 59
0100
0100
0100
0000
,  // measure 60
1000
0000
0010
0000
,  // measure 61
0001
0000
1000
0000
,  // measure 62
0010
0000
0100
0100
,  // measure 63
0100
0000
0000
0110
,  // measure 64
0000
0110
0000
0110
,  // measure 65
0000
0000
0000
1001
,  // measure 66
0000
1001
0000
1001
,  // measure 67
0000
0000
0000
0110
,  // measure 68
0000
0110
0000
1000
,  // measure 69
1000
0000
0001
0000
,  // measure 70
0100
0100
0000
1001
;
