#VERSION:0.83;
#TITLE:DESIRE;
#SUBTITLE:;
#ARTIST:M-Project fw. GUHROOVY;
#TITLETRANSLIT:;
#SUBTITLETRANSLIT:;
#ARTISTTRANSLIT:;
#GENRE:;
#ORIGIN:;
#CREDIT:;
#BANNER:DESIRE-bn.png;
#BACKGROUND:DESIRE-bg.png;
#PREVIEWVID:;
#JACKET:DESIRE-jacket.png;
#CDIMAGE:;
#DISCIMAGE:;
#LYRICSPATH:;
#CDTITLE:;
#MUSIC:DESIRE.ogg;
#OFFSET:1.029000;
#SAMPLESTART:66.170998;
#SAMPLELENGTH:20.000000;
#SELECTABLE:YES;
#DISPLAYBPM:175.000000;
#BPMS:0.000=175.000;
#STOPS:;
#DELAYS:;
#WARPS:;
#TIMESIGNATURES:0.000=4=4;
#TICKCOUNTS:0.000=4;
#COMBOS:0.000=1;
#SPEEDS:0.000=1.000=0.000=0;
#SCROLLS:0.000=1.000;
#FAKES:;
#LABELS:0.000=Song Start;
#BGCHANGES:;
#KEYSOUNDS:;
#ATTACKS:
;

//---------------dance-single - ----------------
#NOTEDATA:;
#CHARTNAME:;
#STEPSTYPE:dance-single;
#DESCRIPTION:;
#CHARTSTYLE:;
#DIFFICULTY:Hard;
#METER:13;
#RADARVALUES:0.661162,0.643233,0.174318,0.052295,0.274550,531.000000,511.000000,20.000000,6.000000,0.000000,0.000000,0.000000,0.000000,0.000000,0.661162,0.643233,0.174318,0.052295,0.274550,531.000000,511.000000,20.000000,6.000000,0.000000,0.000000,0.000000,0.000000,0.000000;
#CREDIT:;
#DISPLAYBPM:175.000000;
#NOTES:
0000
0000
0000
0000
,
0000
0000
0000
0000
,
0000
0000
0000
0000
,
0000
0000
0000
0000
,
0000
0000
0000
0000
,
0001
0000
0000
0001
0000
0000
0001
0000
1000
0000
0010
0000
1001
0000
0000
0000
,
1000
0000
0000
0000
0100
0000
0000
0000
0010
0000
0000
0000
0001
1000
0001
1000
,
0001
0000
0010
0001
0100
0010
1000
0000
,
0100
1000
0001
0000
0110
0000
0000
0010
,
1000
0001
0010
0100
0000
1000
0001
0000
,
0100
0001
0010
0100
1000
0000
1100
0000
,
0001
1000
0001
0010
0000
0001
0100
0010
,
1000
0000
0001
0100
0001
0000
0010
0000
,
0100
1000
0001
1000
0000
0010
0100
0000
,
0001
0010
0100
1000
0010
0000
0101
0000
,
1000
0001
1000
0010
0000
0100
0001
0000
,
1000
0001
0100
0001
0010
0000
1001
0000
,
0010
1000
0010
0100
0001
0010
1000
0000
,
0100
0000
1000
0001
1000
0000
1010
0000
,
0001
0010
0001
0100
0010
1000
0001
0000
,
0100
0000
0000
0000
0001
0000
0010
0000
0001
0000
0000
0000
1000
0001
1000
0001
,
1000
0000
0010
1000
0001
0010
0100
0010
,
0001
0000
1000
0001
0100
0000
0020
0000
,
1030
0010
0100
0010
1000
0001
0010
0100
,
1000
0000
0000
1000
0000
0000
1000
0000
0001
0000
0000
0001
0000
0000
0001
0000
,
1000
0000
0010
0000
0100
0000
0000
0000
0001
0000
1000
0001
0000
1000
0001
0000
,
0100
0000
0010
0000
1000
0000
0000
0000
0001
0000
0100
0001
0000
0100
0001
0000
,
1000
0000
0001
0000
0100
0000
0000
0000
0010
0000
1000
0010
0000
1000
0010
0000
,
0100
0000
0001
0000
0010
0000
0000
0000
0100
0000
1000
0100
0000
1000
0100
0000
,
1000
0000
0010
0000
0001
0000
0000
0000
0100
0000
0010
0100
0000
0010
0100
0000
,
0001
0000
1000
0000
0100
0000
0000
0000
0010
0000
0001
0010
0000
0001
0010
0000
,
0001
0000
0100
0000
1000
0000
0000
0000
0010
0000
1000
0001
0000
1000
0001
0000
,
0100
0000
0001
0000
0010
0000
0000
0000
0100
0000
1000
0001
0000
1000
0001
0000
,
0100
0000
0001
0010
0000
0001
1000
0000
,
0010
0000
1000
0000
0010
0000
0100
0000
0001
0000
1000
0100
0000
1000
0100
0000
,
0010
0000
0001
1000
0000
0001
0100
0000
,
0001
0000
1000
0000
0010
0000
0100
0000
0010
0000
1000
0001
0000
1000
0001
0000
,
0010
0000
0001
0100
0000
0001
1000
0000
,
0001
0000
0010
0000
0001
0000
0100
0000
0010
0000
1000
0001
0000
1000
0001
0000
,
0100
0000
0010
1000
0000
0001
0100
0000
,
0220
0000
0000
0000
0030
0010
0310
0100
,
0010
0000
1000
0000
0100
0000
0000
0000
1000
0000
0001
0010
0000
0100
1000
0000
,
0001
0000
0100
0000
0010
0000
0000
0000
0010
0000
1000
0001
0000
1000
0100
0000
,
1000
0000
0001
0000
0100
0000
0000
0000
0001
0000
0010
0100
0000
1000
0001
0000
,
0100
0000
0001
0000
1000
0000
0000
0000
0001
0000
0100
0010
0000
1000
0010
0000
,
0100
0000
0001
0000
0010
0000
0000
0000
0001
0000
1000
0010
0000
1000
0100
0000
,
0010
0000
0100
0000
0010
0000
0000
0000
0001
0000
1000
0100
0000
1000
0001
0000
,
0100
0000
0010
0000
1000
0000
0000
0000
0010
0000
1000
0001
0000
0001
0100
0000
,
0000
0000
0000
1001
0000
0000
0000
0000
0000
0010
0000
0000
1000
0000
0000
0000
0000
0000
0001
0000
0010
0000
0100
0000
,
1000
0000
0001
0000
0010
0001
0100
0000
,
0010
1000
0100
0010
0001
0100
0001
0000
,
1000
0000
0001
0010
0100
0000
1000
0001
,
0100
0000
0001
0010
0001
0100
0010
1000
,
0001
0000
0010
0100
1000
0000
0001
0000
,
1000
0001
1000
0010
1000
0100
0001
0000
,
0010
0001
1000
0001
0100
0010
1000
0000
,
0001
0000
0100
0000
0000
0010
0000
0000
1000
0000
0000
0001
0000
0000
0010
0000
,
0011
0000
1000
0100
0001
0000
0001
0000
,
1010
0000
0001
0100
1000
0000
1000
0000
,
0101
0000
1000
0010
0001
0000
0001
0000
,
1100
0000
0001
0010
1000
0000
1000
0000
,
0110
0000
1000
0001
0110
0000
0010
0100
,
1001
0000
0100
0010
1001
0000
0001
1000
,
0001
0100
0010
1000
0001
0100
0010
1000
,
0200
0000
0000
0300
,
1000
0001
1000
0010
0100
0001
0010
0100
,
1000
0000
0000
0000
0001
0100
0001
0000
1000
0000
0000
0000
1000
0000
0000
0000
,
0010
0000
0000
0000
1000
0001
1000
0001
1000
0000
0000
0000
0010
0000
0100
0000
,
0001
0000
0000
0000
1000
0010
1000
0000
0100
0000
0000
0000
0100
0000
0000
0000
,
1000
0000
0001
0100
0001
0010
0100
1000
,
0001
0000
0000
0000
0100
0010
0100
0000
0001
0000
0000
0000
1000
0000
0000
0000
,
0010
0000
0000
0000
1000
0100
1000
0100
1000
0000
0000
0000
0001
0000
1000
0000
,
0000
0000
0010
0000
0100
0001
0100
0000
0001
0000
0000
0000
1000
0000
0000
0000
,
1002
0000
0000
0000
0203
0000
0000
0000
0301
1000
0001
1000
0001
0000
0000
0000
,
0110
0000
0001
0100
0010
0000
1000
0000
,
0100
1000
0010
0100
0001
0000
1000
0001
,
0100
0000
0000
0000
0001
0010
0001
0000
1000
0000
0000
0000
0001
0000
0000
0000
,
0100
0000
0000
0000
0001
1000
0001
0000
0010
0000
0100
0000
1000
0000
0001
0000
,
0100
0000
0000
0000
0010
1000
0010
0000
1000
0000
0000
0000
0001
0000
0000
0000
,
0010
0001
0100
0010
1000
0100
1000
0001
,
0100
0000
0000
0000
0010
0100
0010
0000
1000
0000
0000
0000
0001
0000
0000
0000
,
0011
0000
0000
0000
0001
0100
0001
0100
0001
0000
1000
0000
0100
0000
0010
0000
,
1001
0000
0000
0000
;

//---------------dance-single - ----------------
#NOTEDATA:;
#CHARTNAME:;
#STEPSTYPE:dance-single;
#DESCRIPTION:;
#CHARTSTYLE:;
#DIFFICULTY:Medium;
#METER:10;
#RADARVALUES:0.499296,0.536027,0.278908,0.087159,0.043579,401.000000,369.000000,32.000000,10.000000,0.000000,0.000000,0.000000,0.000000,0.000000,0.499296,0.536027,0.278908,0.087159,0.043579,401.000000,369.000000,32.000000,10.000000,0.000000,0.000000,0.000000,0.000000,0.000000;
#CREDIT:;
#DISPLAYBPM:175.000000;
#NOTES:
0000
0000
0000
0000
,
0000
0000
0000
0000
,
0000
0000
0000
0000
,
0000
0000
0000
0000
,
0000
0000
0000
0000
,
0001
0000
0010
0000
0001
0100
1000
0000
,
0010
1000
0100
0001
,
0100
0000
0001
1000
0000
0010
0100
0000
,
0001
0010
0001
0000
1001
0000
0000
0010
,
0000
1000
0000
0100
0000
1000
0001
0000
,
0000
0100
0000
0001
1000
0000
1010
0000
,
0000
0001
0000
0001
0000
1000
0100
0000
,
0110
0000
0000
0001
1000
0000
0000
0000
,
0000
0010
0000
1000
0000
0001
1000
0000
,
0000
0100
0000
0010
0001
0000
0011
0000
,
0000
1000
0000
0001
0000
1000
0100
0000
,
0010
0000
0001
1000
0001
0000
0000
0000
,
0101
0000
0000
0010
0000
0010
1000
0001
,
0100
0000
0000
0001
1000
0000
1100
0000
,
0011
0000
0000
0001
0000
1000
0001
0100
,
0010
0000
0000
1000
0100
0000
0000
0000
,
1001
0000
0000
0110
0000
1000
0001
0010
,
0100
0000
0000
1000
0001
0000
0200
0000
,
0310
0000
0000
1010
0000
0001
1000
0100
,
1000
0000
0000
1000
0000
0000
1000
0000
0001
0000
0000
0001
0000
0000
0001
0000
,
0010
0001
0100
0000
1000
0000
1000
0000
,
0010
1000
0001
0000
0010
0100
1000
0000
,
0001
1000
0100
0000
0010
0000
0010
0000
,
0001
0100
0010
0000
1000
0100
0001
0000
,
1000
0001
0010
0000
0100
0000
0100
0000
,
0010
0100
0010
0000
0001
0100
1000
0000
,
0010
1000
0100
0000
0001
0000
0001
0000
,
0010
0001
1000
0000
0001
0100
0010
0000
,
1000
0000
0100
1000
0000
0001
1000
0000
,
0001
0100
0000
0000
0010
1000
0000
0000
,
0100
0000
0010
0001
0000
1000
0001
0000
,
1000
0100
0000
0000
0010
0001
0000
0000
,
1000
0000
0010
0100
0000
0001
0100
0000
,
0001
1000
0000
0000
0010
0100
0000
0000
,
0001
0000
0001
0010
0000
0100
1000
0000
,
0220
0000
0000
0330
,
0001
0000
0100
0000
0001
0000
0000
0000
1000
0000
0000
1000
0000
0000
1000
0000
,
0000
0000
0001
0000
0100
0000
0000
0000
0010
0000
0000
0010
0000
0000
0010
0000
,
1000
0000
0100
0000
1000
0000
0000
0000
0001
0000
0000
0001
0000
0000
0001
0000
,
0000
0000
0010
0000
0001
0000
0000
0000
0100
0000
0000
0100
0000
0000
0100
0000
,
0001
0000
1000
0000
0001
0000
0000
0000
0100
0000
0000
0100
0000
0000
0100
0000
,
0000
0000
0010
0000
1000
0000
0000
0000
0001
0000
0000
0001
0000
0000
0001
0000
,
0100
0000
0001
0000
1000
0000
0000
0000
0010
0000
0000
0010
0000
0000
0010
0000
,
0000
1001
0000
0100
0001
0000
1000
0000
,
1000
0001
0001
1000
,
0001
0010
0100
0000
2100
0000
3001
0000
,
1000
0000
0010
1000
0100
0000
0001
0000
,
0010
0000
0001
1000
0001
0000
0100
0010
,
1000
0001
0001
1000
,
0100
0010
0001
0000
0012
0000
1003
0000
,
0001
0000
1000
0001
0010
0000
0100
1000
,
0000
0000
0010
0000
0000
0010
0000
0000
0010
0000
0000
0000
1000
0000
0000
0000
,
1100
0000
1000
0100
1000
0000
1000
0000
,
0101
0000
0001
0100
0001
0000
0001
0000
,
0011
0000
0001
0010
0001
0000
0001
0000
,
1010
0000
1000
0010
1000
0000
1000
0000
,
0110
0001
0110
1000
,
1001
0010
1001
0100
,
0001
1000
0001
0000
1000
0001
1000
0000
,
0200
0000
0000
0300
,
1000
0001
0000
1000
0100
0000
0010
0000
,
0110
0000
0001
0100
0001
0000
1000
0000
,
0010
0000
1000
0001
1000
0000
0001
0010
,
0100
0000
1000
0010
1000
0000
0001
0000
,
0100
0000
0001
0010
0001
0000
1000
0010
,
1000
0000
0100
0010
0001
0000
0001
0000
,
0100
0000
0001
1000
0010
0000
0100
0001
,
1000
0000
1000
0100
0010
0000
0001
0000
,
1002
0100
2000
3003
,
0011
0100
1010
0100
,
0001
1000
0001
0000
1200
0000
0310
0000
,
0001
0000
0001
0100
0010
0000
1000
0000
,
0100
0000
1000
0001
1000
0010
0100
0001
,
1000
0000
0001
0100
0001
0000
1000
0000
,
0010
1000
0001
0000
0201
0000
0310
0000
,
0110
0000
0001
0100
0001
0000
0011
0000
,
1100
0000
0001
0000
1000
0000
0010
0100
,
1001
0000
0000
0000
;

//---------------dance-single - ----------------
#NOTEDATA:;
#CHARTNAME:;
#STEPSTYPE:dance-single;
#DESCRIPTION:;
#CHARTSTYLE:;
#DIFFICULTY:Easy;
#METER:7;
#RADARVALUES:0.358597,0.393087,0.261477,0.095875,0.000000,288.000000,258.000000,30.000000,11.000000,0.000000,0.000000,0.000000,0.000000,0.000000,0.358597,0.393087,0.261477,0.095875,0.000000,288.000000,258.000000,30.000000,11.000000,0.000000,0.000000,0.000000,0.000000,0.000000;
#CREDIT:;
#DISPLAYBPM:175.000000;
#NOTES:
0000
0000
0000
0000
,
0000
0000
0000
0000
,
0000
0000
0000
0000
,
0000
0000
0000
0000
,
0000
0000
0000
0000
,
0001
0010
0100
1001
,
1000
0000
0001
0000
,
0010
0001
0010
0100
,
1000
0001
0110
0000
,
0010
0001
0010
0100
,
1000
0001
1000
1000
,
0001
0010
0001
0100
,
0101
0000
1010
0000
,
0000
1000
0010
0001
,
1000
0100
1000
0001
,
0010
0001
1000
0010
,
0100
0100
0100
0000
,
0110
0001
0010
1000
,
0100
0000
1000
1001
,
0001
0000
0010
0100
,
1100
0000
0011
0000
,
0101
0000
1000
0001
,
0010
0000
1100
0000
,
0001
0010
0001
0100
,
1000
1000
0001
0001
,
0010
0001
0000
0000
0100
0001
0000
0000
,
1000
0010
0000
0000
0001
0100
0000
0000
,
1000
0001
0000
0000
0010
0001
0000
0000
,
0100
1000
0000
0000
0001
0100
0000
0000
,
0010
0100
0000
0000
0010
1000
0000
0000
,
0100
0010
0000
0000
0010
0001
0000
0000
,
1000
0100
0000
0000
1000
0010
0000
0000
,
0100
0001
0000
0000
1000
0100
0000
0000
,
0010
0010
0001
1000
,
0010
0000
0100
0000
,
0001
0010
0001
0100
,
1000
0000
0001
0000
,
1000
0010
1000
0100
,
0010
0000
0001
0000
,
0100
0010
0100
0001
,
0220
0000
0000
0330
,
0001
0010
0001
0100
,
1000
0010
1000
0001
,
0010
0100
1000
0010
,
1000
0100
1000
0001
,
0010
1000
0100
0010
,
0001
0100
0001
0010
,
0100
1000
0010
0100
,
0000
1001
0000
0000
1000
0000
0001
0000
,
0100
0000
0100
0000
,
0001
1000
0001
0000
2002
0000
3003
0000
,
0010
1000
0100
0001
,
0010
0001
0100
1000
,
0010
0000
0010
0000
,
1000
0001
1000
0000
2002
0000
3003
0000
,
0001
0010
0001
0100
,
1000
0010
1000
0100
,
1100
0000
0000
0000
,
0101
0000
0000
0000
,
1010
0000
0000
0000
,
0011
0000
0000
0000
,
0110
0000
0110
0000
,
1001
0000
1001
0000
,
1000
0010
1000
0001
,
0200
0000
0000
0300
,
0001
1000
0000
0001
1000
0000
0000
0000
,
0010
1000
0100
0010
,
0001
0100
1000
0001
,
1000
0010
0100
0010
,
0100
0001
0010
1000
,
0001
0010
0001
0100
,
0010
1000
0100
0001
,
1000
0001
0010
0100
,
1000
0010
1000
0001
,
0011
0000
1100
0000
,
0001
1000
0001
0000
2002
0000
3003
0000
,
0010
0001
0100
1000
,
0010
1000
0100
0001
,
0101
0000
1010
0000
,
1000
0001
1000
0000
2002
0000
3003
0000
,
0001
0010
0001
0100
,
0110
1000
0010
0001
,
1001
0000
0000
0000
;

//---------------dance-single - ----------------
#NOTEDATA:;
#CHARTNAME:;
#STEPSTYPE:dance-single;
#DESCRIPTION:;
#CHARTSTYLE:;
#DIFFICULTY:Beginner;
#METER:3;
#RADARVALUES:0.176808,0.321616,0.113307,0.069727,0.000000,142.000000,129.000000,13.000000,8.000000,0.000000,0.000000,0.000000,0.000000,0.000000,0.176808,0.321616,0.113307,0.069727,0.000000,142.000000,129.000000,13.000000,8.000000,0.000000,0.000000,0.000000,0.000000,0.000000;
#CREDIT:;
#DISPLAYBPM:175.000000;
#NOTES:
0000
0000
0000
0000
,
0000
0000
0000
0000
,
0000
0000
0000
0000
,
0000
0000
0000
0000
,
0000
0000
0000
0000
,
0001
0000
1000
0000
,
0001
0000
0000
0000
,
0100
0000
0010
0000
,
0100
0000
1001
0000
,
0000
0001
0000
0001
,
0000
1000
0000
1000
,
0000
0010
0000
0100
,
0100
0000
0001
0000
,
0000
0010
0000
0010
,
0000
0100
0000
0100
,
0000
1000
0000
0010
,
0000
0000
0110
0000
,
0001
0000
0001
0000
,
1000
0000
1000
0000
,
0010
0000
1000
0000
,
0100
0000
0100
0000
,
0010
0000
0010
0000
,
0001
0000
0100
0000
,
0001
0000
0010
0000
,
1000
0000
0001
0000
,
0100
0000
0000
0000
,
0010
0000
0000
0000
,
1000
0000
0000
0000
,
0001
0000
0000
0000
,
0010
0000
0000
0000
,
0001
0000
0000
0000
,
0100
0000
0000
0000
,
1000
0000
0000
0000
,
0001
0001
0001
0000
,
0100
0000
0000
0000
,
0010
0010
0010
0000
,
1000
0000
0000
0000
,
0100
0100
0100
0000
,
1000
0000
0000
0000
,
0001
0000
1000
0000
,
0110
0000
0000
0000
,
0002
0000
0003
0000
,
2000
0000
3000
0000
,
0200
0000
0300
0000
,
0010
0000
0001
0001
,
0002
0000
0003
0000
,
2000
0000
3000
0000
,
0020
0000
0030
0000
,
0200
0000
0300
0000
,
0001
0000
0001
0000
,
1000
0000
0001
0000
,
0100
0000
0000
0000
,
0010
0000
0000
0000
,
0100
0000
0100
0000
,
0010
0000
0010
0000
,
1000
0000
0000
0000
,
0001
0000
0000
0000
,
1001
0000
0000
0000
,
1001
0000
0000
0000
,
0110
0000
0000
0000
,
0110
0000
0000
0000
,
1001
0000
0110
0000
,
1001
0000
0110
0000
,
1000
1000
1000
0000
,
0200
0000
0000
0300
,
0000
0000
1001
0000
,
0010
0000
0010
0000
,
1000
0000
1000
0000
,
0001
0000
0001
0000
,
0100
0000
0100
0000
,
0001
0000
0001
0000
,
0010
0000
0010
0000
,
0100
0000
0100
0000
,
1000
0000
1000
0000
,
0010
0000
1000
0000
,
0001
0000
1000
0000
,
0100
0000
0010
0000
,
0001
0000
0100
0000
,
0001
0000
1000
0000
,
0010
0000
1000
0000
,
0100
0000
0010
0000
,
0001
0000
1000
0000
,
1001
0000
0000
0000
;

//---------------dance-single - ----------------
#NOTEDATA:;
#CHARTNAME:;
#STEPSTYPE:dance-single;
#DESCRIPTION:;
#CHARTSTYLE:;
#DIFFICULTY:Challenge;
#METER:17;
#RADARVALUES:0.946296,1.036319,0.261477,0.008716,0.915168,760.000000,730.000000,30.000000,1.000000,0.000000,0.000000,0.000000,0.000000,0.000000,0.946296,1.036319,0.261477,0.008716,0.915168,760.000000,730.000000,30.000000,1.000000,0.000000,0.000000,0.000000,0.000000,0.000000;
#CREDIT:;
#DISPLAYBPM:175.000000;
#NOTES:
// measure 0
0000
0000
0000
0000
,  // measure 1
0000
0000
0000
0000
,  // measure 2
0000
0000
0000
0000
,  // measure 3
0000
0000
0000
0000
,  // measure 4
0000
0000
0000
0000
,  // measure 5
0001
0000
1000
0010
0000
1000
0010
0000
0100
0001
1000
0000
1001
0000
0000
0000
,  // measure 6
0010
1000
0010
1000
0010
0000
0000
0000
0100
0000
0000
0000
0001
1000
0001
1000
,  // measure 7
0001
0000
0010
0001
0100
0000
0010
1000
0100
0000
1000
0001
0100
0000
0000
0000
,  // measure 8
0010
1000
0001
0000
0110
0000
0000
1000
,  // measure 9
0010
0000
0001
0000
0010
0000
1000
0000
0100
0010
0001
0000
0100
0000
0000
0000
,  // measure 10
0001
1000
0010
0000
1000
0000
0100
0000
0001
0000
0010
0100
1000
0000
0001
0000
,  // measure 11
0100
0010
1000
0000
0001
1000
0100
0000
0010
0000
0001
1000
0010
0000
0100
0000
,  // measure 12
0001
0000
0010
0100
1000
0000
0001
0000
1000
0000
0010
0100
0000
0010
0100
0000
,  // measure 13
0001
0000
0010
0000
1000
0000
0010
0000
0001
0000
0100
0010
1000
0000
0001
0000
,  // measure 14
0010
0001
1000
0000
0010
0000
0100
0000
0001
0000
1000
0010
1000
0000
0001
0000
,  // measure 15
0010
0100
1000
0000
0001
0000
0100
0000
0010
0000
0001
0000
0010
0000
1000
0000
,  // measure 16
0100
0000
1000
0001
1000
0000
0010
0000
0100
0000
0001
1000
0001
0000
0000
0000
,  // measure 17
0011
0000
0010
0100
1000
0000
0001
0000
1000
0001
0100
0000
0010
0000
1000
0100
,  // measure 18
0010
0000
0001
0100
0001
0000
1000
0000
0010
0000
1000
0001
0100
0000
0010
0000
,  // measure 19
1000
0000
0100
0000
0001
0000
0100
0000
1000
0001
0010
0000
0001
0000
0100
0000
,  // measure 20
0010
0000
1000
0000
0001
1000
0100
0000
0010
0000
0001
1000
0000
0001
0010
0100
,  // measure 21
1000
0000
0010
0100
0001
0000
1000
0000
0001
1000
0010
0000
0100
0000
0001
0000
,  // measure 22
0010
0000
0100
0010
0001
0000
1000
0000
0010
0000
0100
0001
0000
0001
1000
0000
,  // measure 23
0010
1000
0010
1000
0001
0100
0001
0100
0001
0010
0001
0010
0100
1000
0100
1000
,  // measure 24
0010
0000
1000
0100
0000
0100
0001
0000
0010
0000
0001
0100
0000
0100
1000
0000
,  // measure 25
0010
0000
1000
0000
0001
0100
0001
0000
0010
0000
0100
1000
0000
0100
1000
0000
,  // measure 26
0001
0000
0100
0000
0001
1000
0001
0000
0010
0000
0100
1000
0000
0001
0100
0000
,  // measure 27
0010
0000
1000
0000
0010
0100
0010
0000
1000
0000
0001
0010
0000
0001
0100
0000
,  // measure 28
0001
0000
1000
0000
0010
1000
0010
0000
0100
0000
0001
1000
0000
0001
1000
0000
,  // measure 29
0100
0000
0010
0000
0001
1000
0001
0000
0100
0000
0010
1000
0000
0010
1000
0000
,  // measure 30
0100
0000
1000
0000
0100
0010
0100
0000
1000
0000
0001
0010
0000
0001
1000
0000
,  // measure 31
0001
0000
0100
0000
0001
0010
0001
0000
1000
0000
0010
1000
0000
0010
1000
0000
,  // measure 32
0100
0000
1000
0000
0001
1000
0001
0000
0010
0000
0100
1000
0000
0100
0010
0000
,  // measure 33
0011
0000
1000
1100
0000
0001
0101
0000
,  // measure 34
0010
0000
1000
0000
0100
0010
0001
0000
1000
0000
0001
0100
0000
0100
0010
0000
,  // measure 35
1010
0000
0001
0011
0000
0100
1100
0000
,  // measure 36
0001
0000
1000
0000
0010
1000
0100
0000
1000
0000
0001
0100
0000
0100
0010
1000
,  // measure 37
0001
0010
0001
0100
0010
1000
0001
0100
,  // measure 38
0010
0000
1000
0000
0100
0010
0001
0000
1000
0000
0001
0100
0000
0001
0010
0000
,  // measure 39
0001
0000
1000
0010
1000
0000
0100
0000
1000
0000
0010
0000
0100
0000
0001
0000
,  // measure 40
0110
0000
0000
0000
1000
0001
1000
0001
1000
0000
0010
0000
0010
0100
0001
0000
,  // measure 41
0010
0000
0100
0000
1000
0010
0000
0010
0100
0000
0100
0001
0000
0001
1000
0000
,  // measure 42
0001
0000
0010
0000
0100
1000
0000
1000
0010
0100
0001
1000
0000
0001
0100
0000
,  // measure 43
0010
0000
1000
0000
0100
0010
0000
0010
0001
0000
0001
1000
0000
1000
0001
0000
,  // measure 44
0100
0000
0010
0000
1000
0010
0000
1000
0001
0010
0100
1000
0000
0001
0100
0000
,  // measure 45
0001
0000
1000
0000
0100
0010
0000
0010
0100
0000
0100
1000
0000
1000
0001
0000
,  // measure 46
0100
0000
0001
0000
0010
0001
0000
0001
1000
0010
1000
0100
0000
1000
0001
0000
,  // measure 47
0100
0000
0001
0000
1000
0100
0000
0100
0010
0000
0010
0001
0000
0001
1000
0000
,  // measure 48
0010
0000
0000
1001
0000
0000
0000
0000
1000
0000
0100
0000
1000
0000
0010
0000
0001
0000
1000
0000
0100
0000
0001
0000
,  // measure 49
0010
0000
0001
0000
1000
0010
0000
0010
0100
0000
0100
0001
1000
0000
0000
0000
,  // measure 50
0010
0000
1000
0000
0100
1000
0001
0100
0010
0000
0000
0000
1000
0001
0100
0000
,  // measure 51
0001
0000
0000
0000
0010
0100
1000
0000
0001
0000
0100
0001
1000
0000
0010
0000
,  // measure 52
0100
0000
0000
0000
0001
0010
0001
0000
1000
0010
1000
0000
0100
0010
0100
0000
,  // measure 53
1000
0000
0001
0000
0010
0001
0100
0000
0010
0000
1000
0000
0100
0000
0000
0000
,  // measure 54
0010
0000
0001
0000
1000
0000
0010
1000
0100
0010
0000
0010
0001
0000
1000
0000
,  // measure 55
0001
0000
0000
0000
0100
0001
1000
0000
0010
0000
1000
0100
0010
0000
0001
0000
,  // measure 56
0100
0000
0010
0000
1000
0001
0000
0001
0010
0100
1000
0001
0000
0100
0010
0000
,  // measure 57
0101
0000
0000
0000
0001
0100
1000
0000
0010
0000
0000
0000
0010
0000
0000
0000
,  // measure 58
1010
0000
0000
0000
1000
0100
0001
0000
0010
0000
0000
0000
0010
0000
0000
0000
,  // measure 59
0011
0000
0000
0000
0001
0010
1000
0000
0100
0000
0000
0000
0100
0000
0000
0000
,  // measure 60
1100
0000
0000
0000
1000
0010
0001
0000
0100
0000
0000
0000
0100
0000
0000
0000
,  // measure 61
0110
0000
0000
0000
0001
0010
1000
0000
0110
0000
0000
0000
1000
0100
0001
0000
,  // measure 62
1001
0000
0000
0000
0010
0001
0100
0000
1001
0000
0000
0000
0010
1000
0100
0000
,  // measure 63
1000
0010
1000
0000
0001
0100
0001
0000
1000
0100
1000
0000
0001
0010
0001
0000
,  // measure 64
0200
0000
0000
0300
,  // measure 65
0110
0000
0001
0000
1000
0001
0100
0000
0010
1000
0100
0000
1000
0001
0100
0000
,  // measure 66
1001
0000
0000
0000
0001
0010
0100
0000
1000
0000
0001
1000
0100
0000
0000
0000
,  // measure 67
1100
0000
0000
0000
0010
0001
0010
0100
1000
0000
0000
0000
0001
0100
0001
0000
,  // measure 68
0101
0000
0000
0000
0010
1000
0100
0000
1000
0000
0001
0100
0010
0000
1000
0000
,  // measure 69
1010
0000
0000
0000
1000
0100
0010
0000
0001
0100
0010
0000
1000
0001
0100
0000
,  // measure 70
0110
0000
0000
0000
0010
1000
0001
0000
0010
0000
0100
1000
0001
0000
0000
0000
,  // measure 71
0011
0000
0000
0000
0010
0100
1000
0001
0100
0000
0000
0000
0010
1000
0010
0000
,  // measure 72
1010
0000
0000
0000
1000
0100
0010
0000
0001
0000
0100
0001
1000
0000
0000
0000
,  // measure 73
1001
0000
0100
0000
0001
0000
0000
0000
1000
0100
1000
0100
1000
0100
1000
0000
,  // measure 74
0001
0000
0010
0000
0001
0100
1000
0000
0010
0000
1000
0001
1000
0000
0100
0000
,  // measure 75
0010
0000
0001
0000
1000
0010
1000
0001
0100
0000
0001
0010
0100
0000
1000
0000
,  // measure 76
0010
0000
0100
0000
0001
0010
1000
0000
0100
0000
1000
0001
1000
0000
0010
0000
,  // measure 77
0100
0000
0001
0000
0010
0100
0010
0001
0100
0010
1000
0000
0001
1000
0100
0000
,  // measure 78
1000
0000
0010
0000
0100
0001
1000
0000
0100
0000
0010
0001
0100
0000
1000
0000
,  // measure 79
0001
0000
0010
0000
0001
0100
0010
1000
0100
0000
1000
0010
0001
0000
0100
0000
,  // measure 80
0001
0010
0001
0100
0010
1000
0001
0100
0010
0000
1000
0000
0100
0010
0001
0000
,  // measure 81
0011
0000
0001
0000
1000
0010
0100
0001
1000
0100
1000
0001
0100
0001
0010
0000
,  // measure 82
1001
0000
0000
0000
;
