#TITLE:DEAD END;
#SUBTITLE:(25th Anniversary Special);
#ARTIST:N&S;
#BANNER:DEAD END (25th Anniversary Special)-bn.png;
#BACKGROUND:DEAD END (25th Anniversary Special)-bg.png;
#JACKET:DEAD END (25th Anniversary Special)-jacket.png;
#MUSIC:DEAD END (25th Anniversary Special).ogg;
#SAMPLESTART:53.06;
#SAMPLELENGTH:20;
#DISPLAYBPM:95:380;
#BPMS:0=95.037,8=95.006,16=190.011,116=95.005,124=190.011,137=380.022,309=190.011,329=285.017,353=190.011;
#STOPS:112=0.105,112.33334=0.105,112.66666=0.105,113=0.105,113.33334=0.105,113.66666=0.105,114=0.105,114.33334=0.105,114.66666=0.105,115=0.316,136=0.948,268=0.158,269=0.316,275=0.316,279=0.158,280=0.316,286=0.316,290=0.158,291=0.316,297=0.316,301=0.158,302=0.316,308=0.316,353=0.158,353.25=0.158,353.5=0.158,355.5=0.158,355.75=0.158,356=0.108;
#BGCHANGES:;

//---------------dance-single - ----------------
#NOTES:
     dance-single:
     :
     Challenge:
     17:
     :
0000
0000
0000
0000
,
0000
0000
0000
0000
,
1010
0101
1010
0101
,
1100
0011
1100
0011
,
1002
0023
0100
0130
,
0110
0000
1000
0100
1000
0000
0001
0000
0010
0000
0100
0000
1000
0000
0001
0100
,
0001
0000
0010
0100
0010
0000
0001
0000
1000
0000
1010
0000
0000
0000
0101
0000
,
1100
0000
0001
0000
1000
0000
0010
0000
0100
0000
1000
0000
0100
0000
0001
0010
,
0001
0000
0100
0010
0100
0000
0001
0000
1000
0000
0100
0000
0010
0000
0100
0000
,
0010
0000
0001
0000
0100
0000
0001
0000
1000
0000
0010
0100
0010
0000
1000
0001
,
1000
0000
0100
0000
0010
0000
0001
0000
0100
0010
0100
0000
0000
0000
0110
0000
,
1000
0000
0001
0000
0010
0000
0100
0000
1000
0010
1000
0000
0001
0000
0100
0000
,
0010
0000
0010
0000
0010
0000
1000
0000
0100
0010
0001
0000
1000
0000
0010
0000
,
0100
0000
0001
0010
0001
0000
1000
0000
2020
0000
0000
0000
0030
0000
0000
0000
,
0001
0000
0001
0000
3001
0000
1000
0100
0010
0001
0100
0000
0000
0000
0010
0000
,
1000
0000
0001
0000
1100
0000
0010
0000
1000
0001
0100
0000
0010
0000
1000
0100
,
1000
0000
0001
0100
0001
0000
0010
0100
1000
0000
0001
0000
0100
0000
0001
0000
,
0010
0000
0100
1000
0001
0000
0100
0000
1000
0000
0100
0000
0010
0000
1000
0001
,
0010
0000
0001
1000
0100
0000
0010
0001
0100
0000
0110
0000
0000
0000
1001
0000
,
0010
1000
0100
0010
0002
0000
0203
0000
0310
0000
1000
0000
0100
0000
0010
0000
,
0001
0000
0100
0000
0010
0000
1000
0100
1000
0000
0010
0000
0100
0000
0001
0000
,
0011
0000
0100
0000
0010
0000
0001
0000
0000
0000
0101
0000
0000
1010
0000
0000
,
0000
1100
0000
0000
1001
0000
0000
0101
0000
0000
0011
0000
0000
0000
0110
0000
,
1000
0000
1001
0000
0010
0000
0100
0000
0000
0000
0110
0000
0000
1010
0000
0000
,
0000
0101
0000
0000
0011
0000
0000
0000
1000
0100
1000
0100
0010
0000
1001
0000
,
0100
0000
0101
0000
1000
0000
1100
0000
0000
0000
0011
0000
0000
0101
0000
0000
,
0000
1100
0000
0000
1010
0000
0000
0101
0000
0000
0110
0000
0000
0000
1001
0000
,
1000
0000
1100
0000
0001
0000
0011
0000
0000
0000
1001
0000
0000
0110
0000
0000
,
1010
0101
1100
0110
0011
1001
1010
0101
0011
1100
0000
0000
,
1001
0000
0101
0100
1001
0100
1100
0100
,
0010
0001
0010
0100
2000
0000
0001
0001
0001
0000
0010
0010
3010
0001
0100
0010
,
1000
0000
0100
0010
0001
0010
0001
0010
0100
0000
1000
0010
1000
0010
0100
0001
,
0010
0000
0001
1000
0010
1000
0100
0010
0001
0000
1000
0010
0100
0010
1000
0001
,
0010
0001
1000
0100
0001
0100
0001
0100
0010
1000
0001
1000
0010
1000
0010
0100
,
0002
0000
0000
0003
0110
0000
0000
0000
1000
0000
0010
0000
0100
0000
0000
0000
,
0001
0000
0010
0000
0001
0100
0010
0000
,
1000
0000
0100
0000
0010
0001
1000
0000
,
0001
0000
0100
0010
1000
0000
0010
0100
,
0001
0000
1000
0000
0010
1000
0100
0000
,
0001
0100
0010
1000
,
0010
0001
1000
0000
0010
1000
0100
0000
,
0010
0001
1000
0000
0010
1000
0001
0000
,
0100
0000
0010
0000
1000
0001
0100
0000
,
0010
0100
0001
0000
1000
0000
0100
0000
,
0001
0100
0010
0100
,
1000
0000
0010
1000
0100
0000
1000
0000
,
0001
0010
0011
0100
,
1010
0100
0011
1000
,
1100
0000
0001
0100
0010
1000
0100
0000
,
0010
0000
0001
0100
1000
0100
0001
0000
,
1000
0000
0110
0000
0000
0000
1000
0100
,
0001
0100
1000
0000
0010
0100
0001
0000
,
1000
0000
0010
0000
1000
0100
0001
0000
,
0100
1000
0010
0100
0001
0000
1000
0000
,
0100
0000
0010
0000
0001
0100
1000
0000
,
0010
0100
0010
0000
1000
0100
1000
0000
,
0001
0010
0100
0000
1000
0001
1000
0000
,
0010
0100
0001
0000
0101
0000
1000
0000
,
1010
0000
0101
0000
0010
1000
0001
0000
,
0010
0001
1000
0000
0100
0000
0010
0000
,
0100
1000
0001
0000
1000
0010
0001
0000
,
0010
0100
0010
0001
1000
0000
0010
0000
,
0100
0000
0001
0010
1000
0010
0001
0000
,
0100
0010
1000
0000
0001
0000
0100
0000
,
0010
0000
1000
0000
0100
0010
0001
0100
,
0010
0100
0001
0000
1000
0000
0010
0000
,
0100
1010
1010
1010
,
1010
0000
1010
0000
0001
0100
1000
0100
,
0001
0011
0110
1100
,
0101
0101
0101
0101
,
0101
0000
1000
0100
0001
0100
1000
0000
,
1010
0101
0011
1100
,
1100
1100
1100
1100
,
0001
0010
1000
0010
0001
0000
1001
0000
,
1010
1100
0011
0011
,
0011
0000
0011
0000
0011
0000
1000
0010
,
0001
0010
1000
0000
1100
0000
1001
0000
,
0101
0000
0000
0000
1001
0000
0010
1000
0100
0000
0010
0000
0011
0000
0000
0000
,
1010
0000
0110
0001
0100
0010
1000
0100
,
0001
0010
1000
0001
1000
0100
0001
0010
,
1000
0001
0010
0100
0010
0001
0100
1000
,
0100
0010
0100
1000
0100
0001
0010
1000
,
0001
0100
0010
1000
0100
0010
0001
0100
,
0010
1000
0100
0010
0001
0100
0010
1000
,
0100
0010
0001
0100
0010
1000
0100
0010
,
0001
0100
0001
0010
1000
0001
0100
1000
,
0001
0010
1000
0001
0100
1000
0001
0010
,
0100
1000
0001
0100
0010
1000
0100
0010
,
0001
0000
1000
0000
1100
0101
1100
0000
0011
0000
1001
0000
1010
0000
1100
0110
,
0011
1001
0000
0000
0000
0000
0000
0000
0000
0000
0000
0000
0000
0000
0000
0000
;
