#VERSION:0.83;
#TITLE:DARK LEGACY;
#SUBTITLE:;
#ARTIST:BaSTeT;
#TITLETRANSLIT:;
#SUBTITLETRANSLIT:;
#ARTISTTRANSLIT:;
#GENRE:;
#CREDIT:;
#MUSIC:DARK LEGACY.ogg;
#BANNER:;
#BACKGROUND:DARK LEGACY-bg.png;
#JACKET:;
#DISCIMAGE:;
#CDIMAGE:;
#SELECTABLE:YES;
#LYRICSPATH:;
#CDTITLE:;
#SAMPLESTART:30.862000;
#SAMPLELENGTH:20.000000;
#OFFSET:-0.25;
#BPMS:0.000000=196.000000;
#STOPS:;
#WARPS:;
#DELAYS:;
#SPEEDS:;
#SCROLLS:;
#TICKCOUNTS:;
#TIMESIGNATURES:;
#LABELS:;
#COMBOS:;
#FAKES:;
#BGCHANGES:;
#FGCHANGES:;
#ATTACKS:;
#DISPLAYBPM:196.000000;
#KEYSOUNDS:;

//---------------dance-single - ---------------
#NOTEDATA:;
#CHARTNAME:;
#CHARTSTYLE:;
#CREDIT:;
#STEPSTYPE:dance-single;
#DESCRIPTION:;
#DIFFICULTY:Beginner;
#METER:3;
#METERF:3;
#RADARVALUES:0,0,0,0,0;
#NOTES:
// measure 0
0000
0000
0000
0000
,  // measure 1
0000
0000
0000
0000
,  // measure 2
0000
0000
0000
0000
,  // measure 3
0000
0000
0000
0000
,  // measure 4
0000
0000
0000
0000
,  // measure 5
0000
0000
0000
0000
,  // measure 6
0000
0000
0000
0000
,  // measure 7
0000
0000
0000
0000
,  // measure 8
0001
0000
1000
0000
,  // measure 9
0001
0000
0000
0000
,  // measure 10
0000
0000
0000
0000
,  // measure 11
0100
0000
0000
0000
,  // measure 12
0000
0000
0000
0000
,  // measure 13
0010
0000
0000
0000
,  // measure 14
0000
0000
0000
0000
,  // measure 15
1000
0000
0000
0000
,  // measure 16
0000
0000
0000
0000
,  // measure 17
0001
0000
0000
0000
,  // measure 18
0000
0000
0000
0000
,  // measure 19
1000
0000
0000
0000
,  // measure 20
0000
0000
0000
0000
,  // measure 21
0010
0000
0000
0000
,  // measure 22
0000
0000
0000
0000
,  // measure 23
0100
0000
0000
0000
,  // measure 24
0000
0000
0110
0000
,  // measure 25
1001
0000
0100
0000
,  // measure 26
0100
0000
0001
0000
,  // measure 27
1000
1000
1000
0000
,  // measure 28
0001
0001
0001
0000
,  // measure 29
0010
0010
0000
0000
,  // measure 30
0000
0000
0100
0000
,  // measure 31
1000
1000
0000
0000
,  // measure 32
0001
0001
0001
0000
,  // measure 33
0000
0000
0100
0000
,  // measure 34
0100
0000
0010
0000
,  // measure 35
0100
0100
0100
0000
,  // measure 36
0001
0001
0001
0000
,  // measure 37
1000
1000
0000
0000
,  // measure 38
0000
0000
0000
0000
,  // measure 39
0001
0001
0000
0000
,  // measure 40
0100
0100
0100
0000
,  // measure 41
0010
0000
1000
0000
,  // measure 42
0001
0000
0000
0000
,  // measure 43
0010
0000
0100
0000
,  // measure 44
1000
0000
0000
0000
,  // measure 45
0001
0000
1000
0000
,  // measure 46
0010
0000
0000
0000
,  // measure 47
1000
0000
0001
0000
,  // measure 48
0100
0000
0000
0000
,  // measure 49
0001
0000
0010
0000
,  // measure 50
0100
0000
0000
0000
,  // measure 51
1000
0000
0010
0000
,  // measure 52
1000
0000
0000
0000
,  // measure 53
0001
0000
1000
0000
,  // measure 54
0100
0000
0000
0000
,  // measure 55
0010
0000
0001
0000
,  // measure 56
0100
0000
0000
0000
,  // measure 57
0020
0000
0000
0000
,  // measure 58
0000
0000
0000
0000
,  // measure 59
0030
0000
0000
0000
,  // measure 60
0000
0000
0000
0000
,  // measure 61
0200
0000
0000
0000
,  // measure 62
0000
0000
0000
0000
,  // measure 63
0300
0000
0000
0000
,  // measure 64
0000
0000
0000
0000
,  // measure 65
0001
0000
0001
0000
,  // measure 66
1000
0000
1000
0000
,  // measure 67
0010
0000
0010
0000
,  // measure 68
0100
0000
0100
0000
,  // measure 69
0001
0000
0010
0000
,  // measure 70
0001
0000
1000
0000
,  // measure 71
0010
0000
0100
0000
,  // measure 72
0001
0001
0001
0000
,  // measure 73
1000
0000
0010
0000
,  // measure 74
1000
0000
0000
0000
,  // measure 75
0001
0000
0010
0000
,  // measure 76
0100
0000
1000
1000
,  // measure 77
1000
0000
0010
0000
,  // measure 78
0100
0100
0100
0000
,  // measure 79
0001
0000
0000
0000
,  // measure 80
0100
0000
0010
0000
,  // measure 81
1000
0000
1000
0000
,  // measure 82
0001
0000
0001
0000
,  // measure 83
0010
0000
0001
0000
,  // measure 84
0100
0000
0001
0000
,  // measure 85
1000
0000
0010
0010
,  // measure 86
0010
0000
0100
0000
,  // measure 87
0110
0000
0000
0000
,  // measure 88
0000
0000
0000
0000
,  // measure 89
0001
0000
0000
0000
,  // measure 90
0000
0000
0100
0000
,  // measure 91
0000
0000
0000
0000
,  // measure 92
0010
0000
0000
0000
,  // measure 93
0000
0000
1000
0000
,  // measure 94
0000
0000
0000
0000
,  // measure 95
0000
0000
0000
0000
,  // measure 96
2002
0000
0000
0000
,  // measure 97
0000
0000
0000
0000
,  // measure 98
0000
0000
0000
0000
,  // measure 99
0000
0000
0000
0000
,  // measure 100
0000
0000
0000
0000
,  // measure 101
0000
0000
0000
0000
,  // measure 102
3003
0000
0000
0000
;

//---------------dance-single - ---------------
#NOTEDATA:;
#CHARTNAME:;
#CHARTSTYLE:;
#CREDIT:;
#STEPSTYPE:dance-single;
#DESCRIPTION:;
#DIFFICULTY:Easy;
#METER:7;
#METERF:7;
#RADARVALUES:0,0,0,0,0;
#NOTES:
// measure 0
0000
0000
0000
0000
,  // measure 1
0000
0000
0000
0000
,  // measure 2
0000
0000
0000
0000
,  // measure 3
0000
0000
0000
0000
,  // measure 4
0000
0000
0000
0000
,  // measure 5
0000
0000
0000
0000
,  // measure 6
0000
0000
0000
0000
,  // measure 7
0000
0000
0000
0000
,  // measure 8
0001
0001
1000
1000
,  // measure 9
0001
0000
0000
0000
,  // measure 10
0100
0000
0000
0000
,  // measure 11
0010
0000
0000
0000
,  // measure 12
1000
1000
0001
0001
,  // measure 13
0010
0000
0000
0000
,  // measure 14
0100
0000
0000
1000
,  // measure 15
0001
0000
0000
0000
,  // measure 16
0100
0100
0010
0010
,  // measure 17
1000
0000
0000
0010
0000
0000
0100
0000
,  // measure 18
0000
0001
0000
0000
0000
0000
0000
0000
,  // measure 19
0010
0000
0000
0001
0000
0000
0100
0000
,  // measure 20
0000
1000
0000
0000
0000
0000
0000
0000
,  // measure 21
0001
0000
0000
1000
0000
0000
0010
0000
,  // measure 22
0000
0100
0000
0000
0000
0000
0000
0000
,  // measure 23
0010
0000
0000
1000
0000
0000
0100
0000
,  // measure 24
0000
0001
0000
0000
0110
0000
0000
0000
,  // measure 25
1001
0000
0100
0000
,  // measure 26
0001
0000
1000
1000
,  // measure 27
0001
0010
0001
0100
,  // measure 28
1000
0010
1000
0100
,  // measure 29
0010
0010
0000
0000
,  // measure 30
0002
2003
0001
3001
,  // measure 31
0100
0010
0000
0000
,  // measure 32
1000
0001
1000
0100
,  // measure 33
1001
0110
0001
0000
,  // measure 34
1000
0000
0100
0100
,  // measure 35
0010
0001
1000
0001
,  // measure 36
0100
0010
1000
0100
,  // measure 37
0001
0001
0000
0000
,  // measure 38
0200
0020
0300
0130
,  // measure 39
0001
0010
0000
0000
,  // measure 40
1000
1000
0001
0100
,  // measure 41
0001
0000
0000
0010
0000
0000
1000
0000
,  // measure 42
0000
0100
0000
0000
2000
0000
3002
0000
,  // measure 43
1003
0000
0000
0010
0000
0000
0100
0000
,  // measure 44
0000
0001
0000
0000
0020
0000
0230
0000
,  // measure 45
1300
0000
0000
0001
0000
0000
0010
0000
,  // measure 46
0000
0100
0000
0000
2000
0000
3020
0000
,  // measure 47
0130
0000
0000
0010
0000
0000
1000
0000
,  // measure 48
0000
0001
0000
0000
0020
0000
0032
0000
,  // measure 49
1003
0000
0000
0001
0000
0000
0100
0000
,  // measure 50
0000
0010
0000
0000
0200
0000
0302
0000
,  // measure 51
0013
0000
0000
0100
0000
0000
1000
0000
,  // measure 52
0000
0001
0000
0000
2000
0000
3200
0000
,  // measure 53
0310
0000
0000
0100
0000
0000
1000
0000
,  // measure 54
0000
0001
0000
0000
2000
0000
3002
0000
,  // measure 55
1003
0000
0000
0010
0000
0000
0001
0000
,  // measure 56
0000
0100
0000
0000
0020
0000
0230
0000
,  // measure 57
0320
0000
0000
0000
,  // measure 58
0000
0000
0000
0030
,  // measure 59
2000
0000
0000
0000
,  // measure 60
0002
0000
0000
3003
,  // measure 61
2000
0000
0000
0000
,  // measure 62
0000
0000
0000
3000
,  // measure 63
0200
0000
0000
0000
,  // measure 64
0020
0030
0020
0330
,  // measure 65
0000
1000
0001
0010
,  // measure 66
0001
0100
0010
1000
,  // measure 67
0100
0010
0100
1000
,  // measure 68
0001
0010
0001
1000
,  // measure 69
0010
1000
0010
0100
,  // measure 70
0001
0010
0001
0100
,  // measure 71
0001
0010
1000
0100
,  // measure 72
1001
0110
1001
0000
,  // measure 73
0100
0000
0001
1000
,  // measure 74
0001
0000
0010
0100
,  // measure 75
1000
0000
0001
0001
,  // measure 76
0100
0000
0010
1000
,  // measure 77
0110
0000
1000
0001
,  // measure 78
0100
0100
0100
0010
,  // measure 79
2000
0000
3000
0001
,  // measure 80
0010
0000
0001
0000
,  // measure 81
0100
0010
0100
0100
,  // measure 82
0001
0000
1000
0000
,  // measure 83
0010
0000
1000
1000
,  // measure 84
0001
0000
0100
0010
,  // measure 85
0110
0001
0001
1000
,  // measure 86
0001
0000
0010
0100
,  // measure 87
2000
0000
0000
0000
,  // measure 88
0001
0001
0100
3001
,  // measure 89
0010
0000
0000
0010
0000
0000
0001
0000
,  // measure 90
0000
0001
0000
0000
1000
0000
0000
1000
,  // measure 91
0000
0000
0100
0000
0000
0100
0000
0000
,  // measure 92
1000
0000
0000
1000
0000
0000
0010
0000
,  // measure 93
0000
0010
0000
0000
0100
0000
0000
0100
,  // measure 94
0000
0000
0001
0000
0000
0001
0000
0000
,  // measure 95
0000
0000
0000
0000
,  // measure 96
2002
0000
0000
0000
,  // measure 97
0000
0000
0000
0000
,  // measure 98
0000
0000
0000
0000
,  // measure 99
0000
0000
0000
0000
,  // measure 100
0000
0000
0000
0000
,  // measure 101
0000
0000
0000
0000
,  // measure 102
3003
0000
0000
0000
;

//---------------dance-single - ---------------
#NOTEDATA:;
#CHARTNAME:;
#CHARTSTYLE:;
#CREDIT:;
#STEPSTYPE:dance-single;
#DESCRIPTION:;
#DIFFICULTY:Medium;
#METER:12;
#METERF:12;
#RADARVALUES:0,0,0,0,0;
#NOTES:
// measure 0
0000
0000
0000
0000
,  // measure 1
0000
0000
0000
0000
,  // measure 2
0000
0000
0000
0000
,  // measure 3
0000
0000
0000
0000
,  // measure 4
0000
0000
0000
0000
,  // measure 5
0000
0000
0000
0000
,  // measure 6
0000
0000
0000
0000
,  // measure 7
0000
0000
0000
0000
,  // measure 8
0001
0000
1000
0000
0001
0100
1000
0100
,  // measure 9
0001
0000
1000
0000
,  // measure 10
0001
0000
0100
0000
,  // measure 11
0010
0000
1000
0000
,  // measure 12
0100
0000
0010
0000
0001
0100
1000
0000
,  // measure 13
0001
0000
0010
0000
,  // measure 14
0001
0000
1000
0010
,  // measure 15
0100
0000
0001
0000
,  // measure 16
1000
0001
0010
0000
0001
1000
0100
0000
,  // measure 17
1000
0100
0000
0100
0001
0000
1000
0010
,  // measure 18
0000
0010
0001
0000
0220
0000
0330
0000
,  // measure 19
0001
0010
0000
0010
1000
0000
0001
0100
,  // measure 20
0000
0100
1000
0000
2020
0000
3030
0000
,  // measure 21
1000
0010
0000
0010
0001
0000
1000
0100
,  // measure 22
0000
0100
0001
0000
0022
0000
0033
0000
,  // measure 23
0001
0100
0000
0100
1000
0000
0001
0010
,  // measure 24
0000
0010
1000
0000
2200
0000
3300
0000
,  // measure 25
1001
0000
0000
0000
0000
0000
0000
0010
2000
0000
0000
0000
3000
0000
0000
0001
,  // measure 26
0200
0300
0110
1001
,  // measure 27
0010
0000
1000
0000
0100
0010
0001
0000
,  // measure 28
2000
3002
0023
0230
,  // measure 29
1300
0000
1100
0000
0001
1000
0001
0000
,  // measure 30
0020
0000
0230
0000
1300
0010
0001
0000
,  // measure 31
0101
0000
1010
0000
0100
0001
1000
0000
,  // measure 32
0001
0000
0001
0000
1000
0010
0100
0000
,  // measure 33
0110
0000
0000
0000
1001
0000
0000
0001
0200
0000
0000
0000
0300
0000
0000
0010
,  // measure 34
2000
3000
1100
0101
,  // measure 35
0010
0000
1000
0100
0001
0000
0010
0001
,  // measure 36
0100
0000
0010
1000
0001
0000
1000
0010
,  // measure 37
0100
0000
1010
0000
0001
1000
0001
0100
,  // measure 38
0020
0000
2030
0000
3100
1000
0001
0000
,  // measure 39
0011
0000
1100
0000
0010
0001
0100
0000
,  // measure 40
0002
0000
2003
0000
3001
1000
0010
0000
,  // measure 41
1000
0100
0000
0100
0001
0000
0001
0010
,  // measure 42
0000
0010
1000
0000
0100
0010
0001
0000
,  // measure 43
1000
0001
0000
0001
0010
0000
0010
0100
,  // measure 44
0000
0100
1000
0000
0010
1000
0100
0000
,  // measure 45
0010
0001
0000
0001
0100
0000
0100
1000
,  // measure 46
0000
1000
0010
0000
0110
0000
1001
0000
,  // measure 47
1000
0010
0000
1000
0001
0000
0010
0100
,  // measure 48
0000
0100
1000
0000
0001
0100
0001
0000
,  // measure 49
0010
0001
0000
1000
0010
0000
0100
0001
,  // measure 50
0000
1000
0100
0000
1000
0001
0010
0000
,  // measure 51
0100
0010
0000
0100
0010
0000
0001
1000
,  // measure 52
0000
0001
1000
0000
0010
1000
0100
0000
,  // measure 53
0010
0001
0000
0100
1000
0000
0010
1000
,  // measure 54
0000
0100
0001
0000
1000
0001
0100
0010
,  // measure 55
1000
0001
0000
0010
0100
0000
1000
0001
,  // measure 56
0000
0100
0010
0000
1000
0100
0010
0001
,  // measure 57
0200
0000
0000
0000
,  // measure 58
0000
0000
0000
0000
,  // measure 59
0320
0000
0000
0000
,  // measure 60
2030
0000
0000
0000
0000
0000
3000
0001
,  // measure 61
2000
0000
0000
0000
,  // measure 62
0100
0000
0010
0000
,  // measure 63
3002
0000
0000
0000
,  // measure 64
0103
0000
0000
0000
0001
1000
0001
1000
,  // measure 65
0001
0010
0100
1000
0000
0010
1000
0100
,  // measure 66
0000
1000
0010
1000
0000
0001
0010
0001
,  // measure 67
0000
0001
0010
0100
0000
1000
0010
0001
,  // measure 68
0000
1000
0100
1000
0001
0000
0011
0000
,  // measure 69
0000
0001
0010
0001
0000
0100
0010
1000
,  // measure 70
0000
0100
0010
0100
0000
1000
0010
0001
,  // measure 71
0000
0100
0010
1000
0000
1000
0100
0001
,  // measure 72
1000
0001
1000
0001
1000
0000
0010
0100
,  // measure 73
0002
0003
0101
1100
,  // measure 74
0020
0000
0030
0000
0110
0000
0001
0100
,  // measure 75
2000
3010
1010
1100
,  // measure 76
0002
0000
0013
0000
1001
0000
1000
0100
,  // measure 77
0020
0031
1001
0101
,  // measure 78
1010
0000
0000
0000
0001
0000
0000
0010
0100
0000
0000
0000
1000
0000
0000
0000
,  // measure 79
0020
0000
0100
0000
0001
0000
1030
0001
,  // measure 80
1000
0010
0000
0100
0001
0000
0010
0100
,  // measure 81
0020
0031
0011
1010
,  // measure 82
0110
0000
0001
0000
1000
0000
0010
1000
,  // measure 83
0100
0010
0002
2003
,  // measure 84
3002
0000
0103
0000
1001
0000
0010
1000
,  // measure 85
0002
0023
0230
2300
,  // measure 86
3020
0000
0030
1000
0001
0010
0001
1000
,  // measure 87
0100
0010
0001
0100
0000
0010
0000
1000
,  // measure 88
0000
0001
0010
0100
1000
0001
0100
0000
,  // measure 89
0010
1000
0000
0010
1000
0000
0001
0100
,  // measure 90
0000
0001
0100
0000
0001
0010
0000
0001
,  // measure 91
0010
0000
0100
1000
0000
0100
1000
0000
,  // measure 92
0001
1000
0000
0001
1000
0000
0010
0100
,  // measure 93
0000
0010
0100
0000
0001
0010
0000
0010
,  // measure 94
1000
0000
0001
0100
0000
0100
1000
0000
,  // measure 95
0000
0000
0000
0000
,  // measure 96
2002
0000
0000
0000
,  // measure 97
0000
0000
0000
0000
,  // measure 98
0000
0000
0000
0000
,  // measure 99
0000
0000
0000
0000
,  // measure 100
0000
0000
0000
0000
,  // measure 101
0000
0000
0000
0000
,  // measure 102
3003
0000
0000
0000
;

//---------------dance-single - ---------------
#NOTEDATA:;
#CHARTNAME:;
#CHARTSTYLE:;
#CREDIT:;
#STEPSTYPE:dance-single;
#DESCRIPTION:;
#DIFFICULTY:Hard;
#METER:15;
#METERF:15;
#RADARVALUES:0.746727,0.975299,0.422311,0.151394,0.318725,656.000000,603.000000,53.000000,19.000000,0.000000,0.000000,0.746727,0.975299,0.422311,0.151394,0.318725,656.000000,603.000000,53.000000,19.000000,0.000000,0.000000;
#NOTES:
// measure 0
0000
0000
0000
0000
,  // measure 1
0000
0000
0000
0000
,  // measure 2
0000
0000
0000
0000
,  // measure 3
0000
0000
0000
0000
,  // measure 4
0000
0000
0000
0000
,  // measure 5
0000
0000
0000
0000
,  // measure 6
0000
0000
0000
0000
,  // measure 7
0000
0000
0000
0000
,  // measure 8
0001
0100
0010
0100
1000
0100
0010
0100
,  // measure 9
0001
0000
1000
0000
,  // measure 10
0001
0000
0100
0000
,  // measure 11
0010
0000
1000
0000
,  // measure 12
0001
1000
0010
1000
0100
0010
0001
0000
,  // measure 13
0100
0000
0010
0000
,  // measure 14
1000
0000
0001
0100
,  // measure 15
0001
0000
0010
0000
,  // measure 16
0001
0000
1000
0000
0010
0000
0100
0000
0001
0000
0010
0000
0100
1000
0100
1000
,  // measure 17
0100
0010
0000
0001
0001
0000
1000
1000
,  // measure 18
0000
0000
0010
0000
0100
0000
0000
0001
1000
0000
1000
0000
0001
0000
0001
0000
,  // measure 19
0010
0100
0000
1000
1000
0000
0010
0100
,  // measure 20
0000
0000
0001
0000
0001
0000
1000
0100
1000
0000
0001
0100
0001
0000
1000
0100
,  // measure 21
1000
0001
0000
0010
0010
0000
0100
0100
,  // measure 22
0000
1000
0001
0000
0200
0320
0230
0320
,  // measure 23
1030
1000
0000
0001
0001
0000
0100
0100
,  // measure 24
0000
0000
0010
0000
0010
0000
0000
2000
0002
0000
0000
0000
3003
0000
0000
0000
,  // measure 25
1001
0000
0000
0000
0010
0000
1000
0100
1000
0000
0000
0000
0010
0000
0001
0100
,  // measure 26
0001
0010
0100
1000
0001
0000
0001
0000
,  // measure 27
0100
0000
0000
0000
0001
0000
0000
0000
1000
0000
0001
0100
0001
0000
0000
0000
,  // measure 28
0010
0001
0100
0010
1000
0100
0001
0000
,  // measure 29
0110
0000
0000
0000
1001
0000
0000
0000
1000
0010
1000
0010
1000
0000
0000
0000
,  // measure 30
0001
0010
0100
0010
0001
1000
0010
0000
,  // measure 31
0101
0000
1010
0000
0001
0010
1000
0000
,  // measure 32
1100
0000
0000
0000
0011
0000
0000
0000
1000
0010
1000
0000
0001
0000
0100
0010
,  // measure 33
2000
0000
0000
0000
3001
0000
0010
0100
1000
0000
0001
0100
0001
0000
1000
0010
,  // measure 34
1000
0100
0010
0001
0100
0010
1000
0000
,  // measure 35
0001
0000
0000
0000
0010
0000
0000
0000
1000
0000
0100
0000
0010
0000
0001
1000
,  // measure 36
0001
0000
0000
0000
0100
0000
0100
0000
0010
0000
1000
0000
0001
0000
0100
0010
,  // measure 37
1000
0000
0000
0000
1001
0000
0000
0000
0001
0010
0100
0010
0001
0000
0000
0000
,  // measure 38
2000
0000
3020
0100
0130
0001
1000
0000
,  // measure 39
1010
0000
0011
0000
0001
1000
0100
0000
,  // measure 40
1100
0000
0000
0000
0101
0000
0000
0000
0010
1000
0001
0000
0100
0000
0000
0010
,  // measure 41
1000
1000
0100
1000
1000
0001
0100
0100
,  // measure 42
0000
0000
0110
0000
0001
0000
1000
0000
0001
0010
0001
0100
0001
1000
0001
0000
,  // measure 43
0100
0100
0010
1000
1000
0001
0010
0010
,  // measure 44
0000
0000
0011
0000
0001
0000
1000
0000
0010
1000
0001
1000
0010
1000
0100
0000
,  // measure 45
0010
0010
0001
1000
1000
0001
0100
0100
,  // measure 46
0000
0000
0000
1010
0000
0000
0001
0000
0000
1000
0000
0000
0001
0000
0100
0000
0010
0000
1000
0000
0100
0000
0010
0000
,  // measure 47
0001
0001
1000
0010
0010
1000
0100
0100
,  // measure 48
0000
0000
1100
0000
0001
0000
1000
0000
0010
0100
0010
0100
0001
0100
0001
0100
,  // measure 49
0010
1000
1000
0001
0010
0010
0001
1000
,  // measure 50
0000
0000
1001
0000
0100
0000
0010
0000
1000
0100
1000
0100
0010
0001
0100
0000
,  // measure 51
0010
0010
0100
0010
0010
1000
0001
0001
,  // measure 52
0000
0000
1100
0000
0001
0000
0010
0000
0001
0100
0010
0100
0001
0100
0010
0000
,  // measure 53
1000
1000
0001
0010
0010
0100
1000
1000
,  // measure 54
0000
0000
0110
0000
0001
0000
1000
0000
0010
1000
0010
1000
0001
0100
0001
0100
,  // measure 55
0010
0010
1000
0100
0100
0010
0001
0001
,  // measure 56
0000
0000
0000
0011
0000
0000
0001
0000
0000
0100
0000
0000
0010
0000
1000
0000
0001
0000
1000
0000
0100
0000
0010
0000
,  // measure 57
0002
0000
0000
0000
,  // measure 58
2000
0000
0000
0003
,  // measure 59
0020
0000
0000
3000
,  // measure 60
0200
0000
0000
0000
0000
0000
0330
0000
0000
0001
0010
0100
,  // measure 61
2000
0000
0010
0000
,  // measure 62
3002
0000
0100
0000
,  // measure 63
2003
0000
0000
0000
,  // measure 64
3002
0000
0000
0000
0000
0000
0000
0000
1003
0000
0000
0000
0010
0100
0010
0100
,  // measure 65
0010
1000
0001
1000
0010
0001
0100
0100
,  // measure 66
0100
0001
0010
1000
0001
0010
0100
1000
,  // measure 67
0010
1000
0010
0100
0001
0100
1000
0001
,  // measure 68
0001
1000
0010
0001
0010
0100
0100
1000
,  // measure 69
1000
0100
0100
0010
0001
1000
0010
0001
,  // measure 70
0010
0001
0010
1000
0001
0100
1000
0100
,  // measure 71
1000
0001
0100
1000
0010
0001
0010
0100
,  // measure 72
1000
0001
1000
0001
1000
0001
1000
0001
1000
0000
0000
0000
0010
0100
0001
1000
,  // measure 73
0100
0010
0001
0100
1000
0010
0100
0000
,  // measure 74
0001
0010
0001
0100
0010
1000
0100
0001
,  // measure 75
1000
0010
1000
0001
0010
0100
1000
0000
,  // measure 76
0001
0000
0000
0010
0000
0000
0001
0000
0000
0100
0000
0000
0010
0000
0000
0000
0000
0000
1000
0000
0001
0000
1000
0000
,  // measure 77
0100
0010
0001
0100
0010
1000
0001
0000
,  // measure 78
1000
0000
0100
0000
0001
0000
0100
0000
1000
0000
0100
0000
0010
0000
0001
1000
,  // measure 79
0001
0000
0100
0000
0010
0000
1000
0100
1000
0000
0001
0000
1000
0010
0100
0001
,  // measure 80
1000
0000
0010
0000
1000
0000
0001
0000
0010
0000
0100
0000
1000
0001
0100
0010
,  // measure 81
1000
0100
0001
0100
0010
0100
1000
0001
,  // measure 82
0100
0010
0100
0001
1000
0010
0100
0001
,  // measure 83
1000
0100
0010
0100
1000
0001
0100
0010
,  // measure 84
1000
0000
0000
0100
0000
0000
0001
0000
0000
0100
0000
0000
1000
0000
0000
0000
0000
0000
0001
0000
0010
0000
0100
0000
,  // measure 85
1000
0001
1000
0010
0100
0001
0010
0100
,  // measure 86
1000
0000
0010
0000
0100
0000
0001
1000
0001
0010
0100
0010
0001
1000
0010
0100
,  // measure 87
0001
1000
0001
0000
0100
0000
0010
0000
1000
0000
0100
0000
1000
0000
0001
0000
,  // measure 88
0100
0000
0010
0000
1000
0000
0001
0010
0001
0000
1000
0010
1000
0000
0100
0000
,  // measure 89
1001
1001
0000
0110
0110
0000
1010
1010
,  // measure 90
0000
0101
0101
0000
0011
0011
0000
1100
,  // measure 91
1100
0000
0101
0101
0000
0110
0110
0000
,  // measure 92
1010
1010
0000
1001
1001
0000
1100
1100
,  // measure 93
0000
0011
0011
0000
0101
0101
0000
1010
,  // measure 94
1010
0000
1100
1100
0000
0011
0011
0000
,  // measure 95
0000
0000
0000
0000
,  // measure 96
2002
0000
0000
0000
,  // measure 97
0000
0000
0000
0000
,  // measure 98
0000
0000
0000
0000
,  // measure 99
0000
0000
0000
0000
,  // measure 100
0000
0000
0000
0000
,  // measure 101
0000
0000
0000
0000
,  // measure 102
3003
0000
0000
0000
;

//---------------dance-single - ---------------
#NOTEDATA:;
#CHARTNAME:;
#CHARTSTYLE:;
#CREDIT:;
#STEPSTYPE:dance-single;
#DESCRIPTION:;
#DIFFICULTY:Challenge;
#METER:18;
#METERF:18;
#RADARVALUES:0,0,0,0,0;
#NOTES:
// measure 0
0000
0000
0000
0000
,  // measure 1
0000
0000
0000
0000
,  // measure 2
0000
0000
0000
0000
,  // measure 3
0000
0000
0000
0000
,  // measure 4
0000
0000
0000
0000
,  // measure 5
0000
0000
0000
0000
,  // measure 6
0000
0000
0000
0000
,  // measure 7
0000
0000
0000
0000
,  // measure 8
0001
0100
1000
0100
0001
0010
1000
0010
,  // measure 9
0001
0100
1000
1000
0010
0010
0100
0001
,  // measure 10
0100
1000
0001
0010
1000
0001
0010
0100
,  // measure 11
0100
0000
0001
0000
0010
0000
0001
0000
1000
0000
0010
0000
1000
0000
0100
0010
,  // measure 12
0001
0001
0100
1000
1000
0010
0010
0100
,  // measure 13
1000
0100
1000
0001
0001
0010
0010
0100
,  // measure 14
1000
0010
0001
0010
0100
0100
0001
1000
,  // measure 15
0001
0010
0001
1000
0100
1000
0100
0010
,  // measure 16
1000
0000
0100
0000
0010
0000
0010
0000
1000
0010
0001
1000
0100
0010
0001
0100
,  // measure 17
0010
1001
0000
1010
0101
0000
0011
1100
,  // measure 18
0000
0000
0110
0000
1001
0000
1000
0100
0020
0030
0020
0030
0020
0030
0020
0030
,  // measure 19
0011
1001
0000
0110
1010
0000
1100
0101
,  // measure 20
0000
0000
0011
0000
1100
0000
1000
0001
1000
0010
0100
0001
0010
0100
1000
0001
,  // measure 21
0100
1010
0000
0101
0011
0000
1100
0101
,  // measure 22
0000
0000
1001
0000
0110
0000
0001
0100
2000
3010
0002
0103
0020
1030
0200
0301
,  // measure 23
0010
1100
0000
1001
0101
0000
1010
0011
,  // measure 24
0000
0000
0000
0000
1100
0000
0000
0000
0011
0000
0000
0000
1000
0000
0001
0000
0200
0020
0000
0000
0000
0000
0000
0000
0330
0000
0000
0000
0000
0000
0000
0000
,  // measure 25
1001
0000
0100
0000
0001
0000
0010
0001
1000
0000
0100
0000
0010
0000
0001
0100
,  // measure 26
1000
0010
0100
0001
0011
0010
0110
0100
,  // measure 27
1100
0000
1000
0000
1010
0000
0010
0000
0110
0000
0100
0001
1000
0000
0001
0000
,  // measure 28
0011
0001
1001
1000
1010
0010
0110
0001
,  // measure 29
0011
0000
0100
0000
1001
0000
0000
0000
1000
0010
0100
0001
1000
0100
0010
0001
,  // measure 30
0200
0000
0320
1000
1030
0100
0001
0010
,  // measure 31
1100
0001
0101
0000
0010
1000
0100
0001
,  // measure 32
1001
0000
0010
0000
0101
0000
1000
0000
0001
0010
0100
0000
1100
0000
0001
0100
,  // measure 33
2000
0000
0000
0000
3010
0000
0100
0001
0010
1000
0010
0100
0010
0000
0001
0100
,  // measure 34
1000
0000
0010
1000
0001
0000
0100
0000
0110
0000
0010
0000
1001
0000
0100
0000
,  // measure 35
1010
0000
0001
0000
0011
0000
0010
0000
0110
0000
0100
0000
1100
0000
0010
0100
,  // measure 36
0001
0000
0000
0000
0000
0000
0010
0000
0000
0100
0000
0000
1000
0000
0000
0000
0000
0000
0001
0000
0000
0000
0000
0000
0100
0000
0000
0000
0000
0000
0010
0000
0000
0000
0000
0000
1000
0000
0000
0000
0000
0000
0001
0000
0100
0000
0001
0000
,  // measure 37
0100
0000
0010
0000
1001
0000
0001
1000
0010
1000
0100
0010
0001
0100
0001
1000
,  // measure 38
0020
0100
0230
0001
0301
0010
1000
0001
,  // measure 39
0100
0000
0001
0010
1000
0000
0100
0000
0010
0000
0001
0000
0100
0000
0010
1000
,  // measure 40
0001
0000
0000
0000
0110
0000
0001
0000
1000
0100
0010
0000
0001
0000
0100
0001
,  // measure 41
1000
1010
1001
0011
0110
1100
0101
1100
,  // measure 42
0000
0000
1001
0000
0110
0000
0001
0000
1000
0010
0001
0100
0001
0010
0100
1000
,  // measure 43
0010
0110
0101
0011
1001
1010
0101
1100
,  // measure 44
0000
0000
1010
0000
0110
0000
0001
0000
0010
0100
0010
0001
0100
0010
1000
0001
,  // measure 45
0100
1010
1001
0011
0110
1100
1001
0011
,  // measure 46
0000
0000
0000
0000
0000
0000
0101
0000
0000
0000
0000
0000
1100
0000
0000
0000
0000
0000
0010
0000
0000
0000
0000
0000
1000
0000
0000
0010
0100
0000
0001
0000
0010
0100
0000
0000
1000
0000
0000
0001
0100
0000
0001
0000
0010
0100
0000
0000
,  // measure 47
1000
0110
1001
0011
1001
0110
1010
0101
,  // measure 48
0000
0000
0000
0000
0000
0000
0110
0000
0000
0000
0000
0000
1001
0000
0000
0000
0000
0000
0100
0000
0000
0000
0000
0000
0001
0000
0000
0100
0010
0000
1000
0000
0100
0010
0000
0000
0001
0000
0000
1000
0010
0000
1000
0000
0100
0010
0000
0000
,  // measure 49
0001
1001
1010
1100
0110
0011
0101
0110
,  // measure 50
0000
0000
1001
0000
1010
0000
0001
0000
1000
0010
0100
0001
0010
0100
1000
0001
,  // measure 51
0100
0110
1001
0011
1001
0110
1010
1100
,  // measure 52
0000
0000
0101
0000
0011
0000
1000
0000
0001
0010
0001
0100
0010
1000
0100
0001
,  // measure 53
0010
1100
0011
1001
0110
1001
1010
1100
,  // measure 54
0000
0000
0011
0000
1010
0000
0100
0000
0001
1000
0100
0010
0100
0010
0001
1000
,  // measure 55
0010
1001
0011
1010
1001
0110
1010
1100
,  // measure 56
0000
0000
0000
0000
0000
0000
1010
0000
0000
0000
0000
0000
0101
0000
0000
0000
0000
0000
0001
0000
0000
0000
0000
0000
0010
0000
0000
0001
0100
0000
0000
0000
1000
0001
0000
0000
0010
0000
0000
0001
0100
0000
1000
0000
0001
0100
0000
0000
,  // measure 57
0020
0000
0002
0003
,  // measure 58
2000
3000
0200
0300
,  // measure 59
0002
0000
0000
0003
,  // measure 60
2000
0000
0000
0000
3000
0000
0000
0000
0100
0000
0000
0000
0031
0010
0100
1000
,  // measure 61
0002
0000
0200
0300
,  // measure 62
2000
3000
0020
0030
,  // measure 63
0200
0000
0000
0300
,  // measure 64
2000
0000
0000
0000
0003
0000
0000
0000
3001
0000
1000
0010
0001
0010
1000
0100
,  // measure 65
0010
0000
0001
0000
0100
0010
1000
0000
0001
0000
1000
0000
0100
0010
0001
0000
,  // measure 66
0100
0000
0010
0000
1000
0001
0010
0000
0100
0000
0010
0000
0001
0100
1000
0000
,  // measure 67
0010
0000
1000
0000
0001
1000
0100
0000
0010
0000
0001
0000
1000
0010
0100
0000
,  // measure 68
0001
0000
0010
0000
0100
1000
0010
0000
0100
0000
0001
0000
1000
0000
0010
1000
,  // measure 69
0100
0000
0010
0000
0100
1000
0001
0000
0100
0010
1000
0000
0001
0010
0001
0000
,  // measure 70
1000
0010
1000
0000
0001
0100
0001
0000
1000
0100
1000
0000
0100
0010
0001
0000
,  // measure 71
1000
0100
0010
0001
0100
0010
0100
1000
0001
1000
0010
0001
0010
0001
1000
0100
,  // measure 72
1000
0010
0001
0100
1000
0010
0001
0100
1000
0000
0000
0000
0001
0100
1000
0010
,  // measure 73
0001
0000
0100
0000
0010
0100
1000
0000
0100
0000
0001
0000
0010
1000
0001
0000
,  // measure 74
0010
0001
0100
0000
0010
1000
0100
0000
1000
0010
0001
0000
1000
0100
0001
0100
,  // measure 75
1000
0000
0010
0000
0100
0001
0010
0000
0001
0000
0100
0000
0001
1000
0010
0000
,  // measure 76
0100
0001
0010
0000
0001
0100
0010
0000
1000
0001
0100
0000
0001
0010
0100
1000
,  // measure 77
0001
0000
1000
0000
0010
0100
0001
0000
0010
0000
1000
0000
0100
0010
0001
0000
,  // measure 78
0100
0000
0001
0000
1000
0001
0010
0000
0100
0000
1000
0000
0010
0000
1000
0001
,  // measure 79
0100
0000
0010
0000
1000
0001
0010
0001
0100
0000
0010
0000
1000
0100
0010
0100
,  // measure 80
1000
0000
1001
0000
0010
0000
0101
0000
0001
0000
1100
0000
0010
0100
0001
1000
,  // measure 81
0100
0110
1001
0100
0001
0010
0001
1000
,  // measure 82
0100
0010
0001
0000
0100
0010
1000
0000
0001
0010
1000
0000
0100
0010
0100
1000
,  // measure 83
0001
0000
1000
0000
0010
0100
0001
0000
1000
0000
0100
0000
1000
0010
0001
0000
,  // measure 84
0100
0000
0010
0000
1000
0001
1000
0000
0100
0010
0001
0000
0100
0010
1000
0001
,  // measure 85
0010
0000
0001
0000
1000
0100
0001
0000
0010
0000
0100
0000
0010
0001
1000
0000
,  // measure 86
0010
0000
0100
0000
0001
0000
1000
0010
0001
1000
0100
0001
1000
0010
0001
1000
,  // measure 87
0100
0010
0001
0000
0100
0000
0010
1000
0001
0000
0010
0000
0001
0000
1000
0000
,  // measure 88
0010
0100
0001
0000
0010
0100
1000
0000
0001
0010
1000
0000
0100
1000
0001
0000
,  // measure 89
0011
1100
0000
0101
1010
0000
1100
0101
,  // measure 90
0000
0000
1001
0000
0110
0000
0000
0000
1001
0000
1100
0000
0010
0001
0100
0000
,  // measure 91
0110
0000
0001
0010
1000
0000
1100
0000
0010
0001
0100
0000
0101
0000
0010
1000
,  // measure 92
0001
1010
0000
0110
0101
0000
0011
1010
,  // measure 93
0000
1001
1100
0000
0011
0110
0000
1100
,  // measure 94
0101
0000
0011
1100
0000
0110
1010
0000
,  // measure 95
0000
0000
0000
0000
,  // measure 96
2002
0000
0000
0000
,  // measure 97
0000
0000
0000
0000
,  // measure 98
0000
0000
0000
0000
,  // measure 99
0000
0000
0000
0000
,  // measure 100
0000
0000
0000
0000
,  // measure 101
0000
0000
0000
0000
,  // measure 102
3003
0000
0000
0000
;
