#TITLE:DANCER;
#SUBTITLE:;
#ARTIST:DE VOL;
#TITLETRANSLIT:;
#SUBTITLETRANSLIT:;
#ARTISTTRANSLIT:;
#GENRE:;
#CREDIT:;
#BANNER:DANCER-bn.png;
#BACKGROUND:DANCER-bg.png;
#LYRICSPATH:;
#CDTITLE:;
#MUSIC:DANCER.ogg;
#OFFSET:0.050000;
#SAMPLESTART:27.377001;
#SAMPLELENGTH:20.000000;
#SELECTABLE:YES;
#DISPLAYBPM:145.000000:149.000000;
#BPMS:0.000000=145.000000
,4.000000=149.000000
;
#STOPS:
;
#BGCHANGES:;
#KEYSOUNDS:;
#ATTACKS:;

//---------------dance-single - ----------------
#NOTES:
     dance-single:
     :
     Hard:
     15:
     0.810156,0.831202,0.585038,0.132105,0.306673,601.000000,539.000000,62.000000,14.000000,0.000000,0.000000,0.810156,0.831202,0.585038,0.132105,0.306673,601.000000,539.000000,62.000000,14.000000,0.000000,0.000000:
0000
0000
0000
0000
,
1000
0010
0101
0000
0001
0010
1100
0000
,
0100
0010
1001
0000
1000
1000
0001
0001
,
0010
0001
1100
0000
0010
1000
0101
0000
,
0010
1000
0010
0000
0100
0001
0000
0000
1000
0001
1000
0001
1000
0001
1000
0001
,
1000
0100
0011
0000
0001
0100
1010
0000
,
0001
1000
0110
0000
1000
1000
0001
0001
,
0010
0100
0011
0000
1000
0001
1010
0000
,
0100
0010
1001
0000
0100
0110
1001
0110
,
1000
1000
0001
0001
0010
0010
0100
0100
,
1000
1000
0010
0010
0100
0100
0001
0001
,
0010
0010
0001
0001
0100
0100
0010
1000
,
0100
0010
0011
0000
1100
0000
1010
0000
,
0001
0000
0001
0000
0010
0000
0010
0000
0100
0000
0100
0000
1000
0000
1000
0010
,
0100
0100
0001
0001
0010
0010
0001
0001
,
1000
0000
1000
0000
0010
0000
0010
0000
1000
0000
0100
0000
0001
0000
0010
0100
,
1000
0000
1000
0000
0001
0000
0100
0010
1000
0000
1000
0000
1000
0000
1000
0001
,
0100
0010
0100
1000
0100
0001
0001
0010
,
0100
0000
1000
0000
0010
0000
1000
0000
0001
0000
0100
0000
0100
0000
0010
1000
,
0001
0100
0001
0010
0100
1000
0010
1000
,
0001
0000
0100
0000
0001
0000
1000
0000
0010
0100
0010
0100
0010
0000
0000
0000
,
0100
0001
0001
0010
0001
0100
1000
0010
,
0100
0000
0010
0000
1000
0000
0001
0000
0010
0000
0100
0000
0100
0000
1000
0001
,
1000
0010
0100
0001
0010
0100
0010
0001
,
1000
0100
1000
0000
0001
0000
0001
0000
0100
0000
0001
0000
0100
0000
0010
0000
,
2000
0000
0001
0000
3001
0000
1000
0100
0020
0000
0001
0000
0031
0000
0100
0010
,
1000
0000
0001
0000
0010
0000
0001
0000
0100
0010
1000
0000
0001
0000
1000
0000
,
0020
0000
1000
0000
1030
0000
0001
0010
0200
0000
1000
0000
1300
0000
0010
1000
,
0001
0000
0100
0000
0010
0000
0100
0001
1000
0100
0010
0100
1000
0000
0001
0000
,
0200
0000
0010
0000
0310
0000
0100
0001
2000
0000
0010
0000
3010
0000
1000
0001
,
0010
0000
0100
0000
1000
0000
0010
0000
0100
0001
0010
0000
0001
0000
1000
0000
,
0002
0000
0010
0000
0013
0000
0100
1000
0020
0000
0100
0000
0130
0000
0001
1000
,
0001
0000
0100
0000
0010
1000
0100
0010
0001
0000
0100
0000
0100
0010
0100
0001
,
2000
0000
0000
0000
3010
0100
0001
0000
0000
0000
0011
0000
1100
0000
0000
0000
,
0002
0000
0000
0000
0103
0010
1000
0000
0000
0000
1010
0000
0101
0000
0000
0000
,
0020
0000
0000
0000
0031
1000
0100
0000
0000
0000
1001
0000
0110
0000
0000
0000
,
0200
0000
0000
0000
0310
1000
0001
0000
0000
0000
1000
0100
0010
0000
0000
0000
,
0011
0000
0000
0000
0100
0001
1000
0000
0000
0000
0010
1000
0100
0000
0000
0000
,
1010
0000
0000
0000
0001
0100
0010
0000
0000
0000
1100
0000
0101
0000
0000
0000
,
0020
0000
0000
0000
0031
1000
0010
0000
0000
0000
0110
0000
1001
0000
0000
0000
,
0200
0000
0000
0000
0301
0000
1000
0000
0000
0000
0001
0010
0100
0000
1000
0000
,
0001
0000
0100
0000
0001
0000
0010
0000
0001
0000
0100
0000
0010
0000
1000
0100
,
1000
0001
0001
0001
0010
0010
0001
0100
,
0010
1000
0100
0010
0001
0100
0001
1000
,
0010
0100
0100
0010
0010
1000
1000
0001
,
0100
0001
0010
0100
1000
0010
0001
1000
,
0001
0100
0100
0100
0010
0010
1000
0100
,
0001
0000
0010
0000
0001
0000
0100
0010
1000
0000
0001
0000
1000
0000
0100
0000
,
0010
0011
0110
1100
1010
1001
0101
0011
,
0110
0000
1000
0000
0010
0000
0100
0000
0001
0000
0010
0000
0001
0000
1000
0100
,
0010
0011
0110
1100
1001
0101
0011
0110
,
1100
0000
0001
0000
0100
0000
0001
0010
1000
0000
0100
0000
1000
0000
0010
0000
,
0001
0101
1010
1001
0110
1010
1100
0110
,
0011
0000
0100
0000
0001
0000
0010
0000
0100
0000
1000
0000
0010
0000
1000
0001
,
0100
0000
0010
0000
1000
0100
0001
0000
0010
0000
0010
0000
0010
0000
0001
0000
,
1000
0001
0100
0010
1000
0100
0010
0001
,
0100
0010
0100
0001
1000
0100
0010
0001
1000
0010
1000
0010
1000
0001
0100
0001
,
0010
0100
1100
0101
0010
0001
0100
1000
,
0001
0010
0001
0100
1000
0001
1000
0010
,
0100
0000
0001
0010
0100
0000
1000
0000
0010
0000
1000
0000
0001
0000
0010
0000
,
0110
0000
0000
0000
1000
0100
0010
0001
0100
0000
1010
0000
0001
0000
1100
0000
,
0011
0000
0000
0000
0100
0000
0001
0000
0010
0000
0100
0000
1000
0000
0001
0100
,
0001
0000
0010
0000
0100
0000
1000
0000
0010
0000
0100
0000
0001
0000
1000
0010
,
1000
0000
0001
0010
0100
0000
1000
0000
0001
0000
0100
0000
0010
0000
1000
0000
,
0100
0010
0001
0010
0100
0000
1000
0001
1000
0000
0010
0000
0100
0000
0001
0000
,
1001
0110
1001
0000
0000
0000
0000
0000
;

//---------------dance-single - ----------------
#NOTES:
     dance-single:
     :
     Medium:
     12:
     0.582342,0.554135,0.358572,0.226466,0.004718,432.000000,394.000000,38.000000,24.000000,0.000000,0.000000,0.582342,0.554135,0.358572,0.226466,0.004718,432.000000,394.000000,38.000000,24.000000,0.000000,0.000000:
0000
0000
0000
0000
,
1000
0101
0001
1100
,
0010
0000
1001
0000
0100
0010
0100
0010
,
1000
1010
0001
0011
,
0100
1000
1001
0000
0100
0100
0100
0010
,
0100
0001
0101
0000
0010
0000
1010
0000
,
0001
0000
0110
0000
1000
0001
1000
0001
,
0010
0100
1100
0000
0001
0000
0101
0000
,
0100
0000
0110
0000
0001
1000
1000
1000
,
0001
0100
0001
0000
1000
0100
1000
0000
,
0001
0010
0100
1000
0010
0100
0001
0000
,
1000
0010
1000
0010
0100
0001
0100
0001
,
0010
0100
1100
0000
0001
0000
0011
0000
,
0100
0010
0100
0000
0001
1000
0001
0000
,
0010
0001
1000
0001
0010
0100
1000
0000
,
0010
1000
0010
1000
0001
0100
0001
0100
,
0001
1000
0010
0000
0100
0100
0100
0010
,
1000
0100
0010
0000
0001
1000
0001
0000
,
0010
0001
0010
0100
0000
1000
1000
0001
,
1000
0100
0010
0000
0001
0100
0010
0000
,
1000
0001
1000
0100
0010
0000
0110
0000
,
0001
0100
0001
0100
0001
1000
0100
0000
,
0010
0001
0100
0000
0010
1000
0100
0000
,
1000
0001
0010
0001
1000
0100
0010
0000
,
0001
0100
0001
0100
0001
1000
0001
0000
,
0021
0130
1020
0130
,
0001
1000
0001
0010
0100
1000
0010
0100
,
0201
0310
1020
1030
,
0001
1000
0100
0010
0001
0100
0010
1000
,
0102
0013
2001
3100
,
0010
0001
0010
0100
1000
0001
1000
0100
,
1200
1300
0012
0103
,
0001
1000
0001
0100
0010
0010
0010
1000
,
0200
0000
1300
1000
0000
0001
0100
0000
,
0020
0000
0130
0100
0000
0001
1000
0000
,
0002
0000
0013
0010
0000
0001
1000
0000
,
0020
0000
0130
0100
0000
0001
1000
0000
,
1100
0000
0101
0010
0000
1000
0001
0000
,
0110
0000
0001
1000
0000
0100
0100
0000
,
2000
0000
3010
1000
0000
0001
0001
0000
,
0200
0000
0310
1000
0000
0001
0001
0000
,
0011
1100
0101
1010
,
1000
0100
1000
0010
1000
0100
1000
0001
,
0100
0010
0100
0001
1000
0000
0001
0010
,
0000
0001
1000
0010
1000
0100
0010
0001
,
0100
0010
0100
0001
1000
0000
0001
0010
,
0000
0100
1000
0010
1000
0100
1000
0001
,
0100
0010
1000
0010
1000
0000
0001
0100
,
0000
0001
0001
1000
1000
0001
0001
1000
,
1000
0010
0200
0000
0302
0000
2003
0000
,
3002
0010
0013
0001
1000
0010
0100
0010
,
1000
0001
2000
0000
3200
0000
0320
0000
,
0032
1000
1003
0001
1000
0010
0100
0010
,
0100
0001
2000
0000
3002
0000
0013
0001
,
0100
0010
0100
0001
1000
0100
0010
0001
,
0100
0010
1000
0001
1000
0000
0100
0010
,
0001
1000
0101
0000
0010
1000
0010
0100
,
0001
0000
0011
1000
0000
0010
0000
0100
,
0001
0000
1000
0001
1000
0010
0000
0100
,
0001
0000
0010
0100
1000
0010
0000
1000
,
0001
0000
0000
0000
0011
0000
0000
0110
0000
0000
1100
0000
0000
0000
0001
0000
,
0001
0000
0100
0001
0000
1000
0000
1000
,
0010
0000
0100
0001
0010
0001
0000
1000
,
0001
0000
0100
0010
1000
0100
0000
1000
,
0001
0000
0010
0001
0010
0100
1000
0001
,
1001
1001
1001
0000
0000
0000
0000
0000
;

//---------------dance-single - ----------------
#NOTES:
     dance-single:
     :
     Easy:
     8:
     0.438105,0.430994,0.358572,0.415188,0.000000,325.000000,287.000000,38.000000,44.000000,0.000000,0.000000,0.438105,0.430994,0.358572,0.415188,0.000000,325.000000,287.000000,38.000000,44.000000,0.000000,0.000000:
0000
0000
0000
0000
,
1000
0101
0001
1100
,
0010
0000
1001
0000
0000
0100
0000
0100
,
0010
1010
0001
0011
,
1000
0000
0110
0000
0001
1000
0001
0000
,
0100
1010
0001
0101
,
0010
0000
0110
0000
0000
1000
0000
1000
,
0001
0011
1000
1100
,
0010
0000
1001
0000
0000
0100
0001
0100
,
0001
0010
0001
0100
,
1000
0010
1000
0001
,
1000
0100
0010
0001
,
0100
0101
0010
1100
,
0001
1000
0001
0010
,
0001
0100
0010
1000
,
0100
0010
0100
1000
,
1001
0000
0110
0000
0001
1000
0001
1000
,
0001
0010
0001
0100
,
1000
0020
0100
0000
0001
0000
1030
0000
,
0100
0020
0001
0000
1000
0000
0031
0000
,
1000
0002
0100
0000
0000
0000
0103
0000
,
0010
1000
0100
0001
,
1000
0200
1000
0000
0001
0000
0310
0000
,
0100
2000
0010
0000
0001
0000
3100
0000
,
1100
0000
0101
0000
1000
0001
0100
0000
,
0220
0330
2002
3003
,
0010
0000
1000
0000
0100
0010
0001
0000
,
0022
0033
2020
3030
,
0100
0000
0001
0000
1000
0010
0100
0000
,
0202
0303
2200
3300
,
0010
0000
0001
0000
0100
0001
1000
0000
,
2020
3030
0202
0303
,
0010
0000
0100
0000
1000
0001
1000
0001
,
0200
0000
0000
0310
0000
1000
0001
0000
,
0020
0000
0000
0031
0000
1000
0001
0000
,
2000
0000
0000
3010
0000
1000
0100
0000
,
0020
0000
0000
0031
0000
0100
0001
0000
,
0011
0000
1100
0000
0000
1000
0001
0000
,
2000
0000
0000
3010
0000
0100
0001
0000
,
0200
0000
0000
0301
0000
0010
0100
0000
,
0020
0000
0000
0031
0000
0001
1000
0000
,
1100
0110
0011
1001
,
0000
0100
0010
0000
1000
0100
0001
0000
,
0010
0000
0001
0000
0100
0000
0010
1000
,
0000
1000
0100
0000
0010
0001
1000
0000
,
0001
0000
1000
0000
0010
0000
1000
0100
,
0000
0100
0010
0000
0001
0100
1000
0000
,
0010
0000
1000
0000
0001
0000
1000
0100
,
0000
0110
0000
1001
0000
0110
0000
0001
,
2000
3002
0023
0230
,
1300
0010
1000
0000
0001
0010
0001
0000
,
0200
0320
2030
3002
,
0013
0100
0010
0000
0001
1000
0001
0000
,
0200
0302
2003
3020
,
1030
0001
1000
0000
0100
0010
0100
0000
,
0020
0032
2003
3200
,
1300
0000
0101
0000
0001
0010
0001
0100
,
0001
0000
0010
0001
0000
1000
0000
0010
,
0100
0000
0001
0000
1000
0100
0000
0010
,
0001
0000
0100
0000
0010
1000
0000
1000
,
0001
0000
1010
0000
0001
1000
0000
0100
,
0010
0000
0001
1000
0000
1000
0000
0010
,
0100
0000
0001
0000
0010
0100
0000
1000
,
0100
0000
1000
0000
0001
0100
0000
0010
,
0100
0000
0001
0000
0010
0100
0000
1000
,
0001
1000
1001
0000
0000
0000
0000
0000
;

//---------------dance-single - ----------------
#NOTES:
     dance-single:
     :
     Beginner:
     3:
     0.176590,0.246282,0.132105,0.141541,0.000000,131.000000,117.000000,14.000000,15.000000,0.000000,0.000000,0.176590,0.246282,0.132105,0.141541,0.000000,131.000000,117.000000,14.000000,15.000000,0.000000,0.000000:
// measure 0
0000
0000
0000
0000
,  // measure 1
1000
0000
0001
0000
,  // measure 2
0100
0000
0000
0000
,  // measure 3
0010
0000
1000
0000
,  // measure 4
0001
0001
0001
0001
,  // measure 5
0001
0000
0010
0000
,  // measure 6
0100
0000
0000
0000
,  // measure 7
1000
0000
0001
0000
,  // measure 8
1000
0000
0000
0000
,  // measure 9
0010
0000
0010
0000
,  // measure 10
0100
0000
0100
0000
,  // measure 11
0010
0000
1000
0000
,  // measure 12
0001
0000
0000
0000
,  // measure 13
1000
0000
1000
0000
,  // measure 14
0001
0000
0001
0000
,  // measure 15
1000
0000
0100
0000
,  // measure 16
0010
0010
0000
0000
,  // measure 17
0002
0000
0003
0000
,  // measure 18
2000
0000
3000
0000
,  // measure 19
0020
0000
0030
0000
,  // measure 20
0200
0000
0300
0000
,  // measure 21
0020
0000
0030
0000
,  // measure 22
2000
0000
3000
0000
,  // measure 23
0002
0000
0003
0000
,  // measure 24
0200
0000
0300
0000
,  // measure 25
0110
0000
0110
0000
,  // measure 26
1000
0000
0001
0000
,  // measure 27
1001
0000
1001
0000
,  // measure 28
0010
0000
0100
0000
,  // measure 29
0110
0000
0110
0000
,  // measure 30
0010
0000
0001
0000
,  // measure 31
1001
0000
1001
0000
,  // measure 32
1000
0000
0100
0000
,  // measure 33
2000
0000
3000
0000
,  // measure 34
0020
0000
0030
0000
,  // measure 35
0200
0000
0300
0000
,  // measure 36
0002
0000
0003
0000
,  // measure 37
1001
1001
0000
0000
,  // measure 38
0200
0000
0300
0000
,  // measure 39
0020
0000
0030
0000
,  // measure 40
2000
0000
3000
0000
,  // measure 41
0001
0000
0010
0000
,  // measure 42
0001
0000
0100
0000
,  // measure 43
0010
0000
1000
0000
,  // measure 44
0100
0000
0010
0000
,  // measure 45
0001
0000
0001
0000
,  // measure 46
1000
0000
1000
0000
,  // measure 47
0001
0000
0100
0000
,  // measure 48
0001
0000
0010
0000
,  // measure 49
0100
0000
1000
0000
,  // measure 50
1000
0000
0001
0000
,  // measure 51
0100
0000
0010
0000
,  // measure 52
0010
0000
0100
0000
,  // measure 53
0001
0000
0100
0000
,  // measure 54
0100
0000
0010
0000
,  // measure 55
1000
0000
0001
0000
,  // measure 56
0001
0000
0100
0000
,  // measure 57
0110
0000
1000
0000
,  // measure 58
0001
0001
0001
0000
,  // measure 59
0010
0000
0100
0000
,  // measure 60
1000
1000
1000
0000
,  // measure 61
0110
0000
0001
0000
,  // measure 62
0100
0100
0100
0000
,  // measure 63
0001
0000
1000
0000
,  // measure 64
0010
0010
0010
0000
,  // measure 65
1001
1001
0000
0000
;
