#TITLE:DAM DARIRAM;
#ARTIST:JOGA;
#BANNER:DAM DARIRAM.png;
#BACKGROUND:DAM DARIRAM-bg.png;
#JACKET:DAM DARIRAM-jacket.png;
#MUSIC:DAM DARIRAM.ogg;
#SAMPLESTART:56.69;
#SAMPLELENGTH:20;
#DISPLAYBPM:142;
#BPMS:0=142.352;
#BGCHANGES:;

//---------------dance-single - ----------------
#NOTES:
     dance-single:
     :
     Beginner:
     3:
     :
0000
0000
0000
0000
,
0000
0000
0000
0000
,
0000
0000
0000
0000
,
0000
0000
0000
0000
,
0000
0000
0000
0000
,
0000
0000
0000
0000
,
0000
1000
0000
1000
,
0000
1000
0000
1000
,
0000
0001
0000
0001
,
0001
0000
0000
0000
,
0001
0001
0001
0000
,
0001
0001
0000
0000
,
0001
0000
0000
0000
,
0100
0000
0000
0000
,
1000
1000
1000
0000
,
1000
1000
0000
0000
,
1000
0000
0000
0000
,
0100
0000
0000
0000
,
1001
0000
0000
0000
,
1000
0000
0001
0000
,
1001
0000
0000
0000
,
1000
0000
0001
0000
,
1001
0000
0000
0000
,
1000
0000
0001
0000
,
1001
0000
0000
0000
,
1000
0000
0001
0000
,
0110
0000
0000
0000
,
0110
0000
0000
0000
,
0110
0000
0000
0000
,
0010
0000
0100
0000
,
0110
0000
0000
0000
,
0110
0000
0000
0000
,
0110
0000
0000
0000
,
1001
0000
0000
0000
,
1000
0000
0001
0000
,
1000
0000
0001
0000
,
1000
1000
1000
0000
,
0001
0000
1000
0000
,
0001
0000
1000
0000
,
0001
0000
1000
0000
,
0001
0001
0001
0000
,
1000
0000
0001
0000
,
0001
0001
0001
0000
,
0001
0001
0000
0000
,
0001
0000
0000
0000
,
0100
0000
0000
0000
,
1000
1000
1000
0000
,
1000
1000
0000
0000
,
1000
0000
0000
0000
,
0100
0000
0000
0000
,
1000
0000
0000
0000
,
0100
0000
0000
0000
,
0010
0000
0000
0000
,
0001
0000
0000
0000
;

//---------------dance-single - ----------------
#NOTES:
     dance-single:
     :
     Easy:
     6:
     :
0000
0000
0000
0000
,
0000
0000
0000
0000
,
0000
0000
0000
0000
,
0000
0000
0000
0000
,
0000
0000
0000
0000
,
0000
0000
0000
0000
,
0000
0100
0000
0100
,
0000
0010
0000
0010
,
0000
0100
0000
0100
,
0000
0000
0000
0000
,
1000
0001
1000
0001
,
0100
1000
0100
1000
,
0001
1000
0001
1000
,
0100
0001
0100
0001
,
1000
0001
1000
0001
,
0100
1000
0100
1000
,
0001
1000
0001
1000
,
0100
0001
0100
0001
,
0110
0000
0000
0000
,
1000
0100
0010
0001
,
1000
0100
0001
0100
,
0010
1000
0100
0001
,
1001
0000
0000
0000
,
0100
0010
0001
1000
,
0010
0001
1000
0100
,
0010
0001
0100
1000
,
1001
0000
0000
0000
,
1001
0000
0000
0000
,
1001
0000
0000
0000
,
0010
0010
0100
0100
,
1001
0000
0000
0000
,
1001
0000
0000
0000
,
1001
0000
0000
0000
,
0110
0000
0000
0000
,
1001
1001
1100
1100
,
0001
0100
1000
0100
,
1001
0000
1001
0000
,
0110
0000
0000
0000
,
1001
1001
0101
0101
,
1000
0100
0010
0001
,
1001
0000
1001
0000
,
0110
0000
0000
0000
,
1000
0001
1000
0001
,
0100
1000
0100
1000
,
0001
1000
0001
1000
,
0100
0001
0100
0001
,
1000
0001
1000
0001
,
0100
1000
0100
1000
,
0001
1000
0001
1000
,
0100
0001
0100
0001
,
1000
0000
0000
0000
,
0100
0000
0000
0000
,
0010
0000
0000
0000
,
0001
0000
0000
0000
;

//---------------dance-single - ----------------
#NOTES:
     dance-single:
     :
     Medium:
     8:
     :
0000
0000
0000
0000
,
0000
0000
0000
0000
,
0000
0000
0000
0000
,
0000
0000
0000
0000
,
0000
0000
0000
0000
,
0000
0000
0000
0000
,
1000
1000
1000
1000
,
0001
0001
0001
0001
,
1000
1000
1000
1000
,
0110
0000
0000
0000
,
1001
0000
1001
0000
0100
0010
0100
0000
,
1001
0000
1001
0000
0010
0100
0010
0000
,
1100
0000
1100
0000
0001
0010
0001
0000
,
1100
0000
1100
0000
0010
0001
0010
0000
,
0110
0000
0110
0000
1000
0001
1000
0000
,
0110
0000
0110
0000
0001
1000
0001
0000
,
0101
0000
0101
0000
1000
0010
1000
0000
,
0101
0000
0101
0000
0010
1000
0010
0000
,
1000
0000
0000
0100
0010
0100
0000
0000
,
1000
0000
0000
0010
0100
0010
0000
0000
,
1000
0000
0000
0001
0100
0010
0000
0000
,
1000
0000
0000
0100
0010
0001
0000
0000
,
0001
0000
0000
0100
0010
0100
0000
0000
,
0001
0000
0000
0010
0100
0010
0000
0000
,
0001
0000
0000
1000
0100
0010
0000
0000
,
0001
0000
0000
0100
0010
1000
0000
0000
,
1000
0000
0100
0010
0001
0100
0010
0000
,
1000
0000
0100
0010
0001
0100
0010
0000
,
1000
0000
0100
0010
0001
0100
0010
0000
,
1000
0100
0001
0100
,
0010
0000
1000
0100
0010
0001
0100
0000
,
0010
0000
1000
0100
0010
0001
0100
0000
,
0010
0000
1000
0100
0010
0001
0100
0000
,
1010
0000
0000
0000
,
0110
0000
0001
1000
0001
0000
0001
1000
,
0001
0000
0001
1000
0100
0010
0001
1000
,
0100
0000
1000
0001
0100
0010
0000
1001
,
0000
0000
0000
0000
,
0110
0000
1000
0001
1000
0000
1000
0001
,
1000
0000
1000
0001
0100
0010
1000
0001
,
0100
0000
0001
1000
0100
0010
0000
1001
,
0000
0000
0000
0000
,
1001
0000
1001
0000
0100
0010
0100
0000
,
1001
0000
1001
0000
0010
0100
0010
0000
,
1001
0000
1100
0000
0001
0010
0001
0000
,
1001
0000
1100
0000
0010
0001
0010
0000
,
1001
0000
0110
0000
1000
0001
1000
0000
,
0110
0000
1001
0000
0010
0100
0010
0000
,
0101
0000
1001
0000
0010
0100
0010
0000
,
1001
0000
1100
0000
0010
0001
0010
0000
,
0001
0001
0001
0001
,
0100
0100
0100
0100
,
0010
0010
0010
0010
,
1000
1000
1000
0000
;

//---------------dance-single - ----------------
#NOTES:
     dance-single:
     :
     Hard:
     12:
     :
0000
0000
0000
0000
,
0000
0000
0000
0000
,
0000
0000
0000
0000
,
0000
0000
0000
0000
,
0000
0000
0000
0000
,
0000
0000
0000
0000
,
1000
0001
0000
1000
0001
0000
1000
0001
0000
1000
0001
0000
1000
0000
0001
0000
,
1000
0001
0000
1000
0001
0000
0010
0100
0000
0010
0100
0000
1000
0000
0001
0000
,
1000
0100
0000
0010
0001
0000
0100
0010
0000
1000
0100
0000
0010
0000
0001
0000
,
1001
0000
0000
0100
0100
0100
0000
0000
,
1000
0000
0000
0001
0000
0000
1000
0000
0000
0001
0000
0000
0010
0000
0100
0000
,
1000
0000
0000
0001
0000
0000
1000
0000
0000
0001
0000
0000
0100
0000
0010
0000
,
1000
0000
0000
0001
0000
0000
1000
0000
0000
0001
0000
0000
0010
0000
0100
0000
,
1000
0000
0000
0001
0000
0000
1000
0000
0000
0001
0000
0000
0100
0000
0010
0000
,
1000
0000
0000
0100
0000
0000
0010
0000
0000
0001
0000
0000
0100
0000
0010
0000
,
1000
0000
0000
0100
0000
0000
0010
0000
0000
0001
0000
0000
0100
0000
0010
0000
,
1000
0000
0000
0100
0000
0000
0010
0000
0000
0001
0000
0000
0100
0000
0010
0000
,
1000
0000
0000
0100
0000
0000
0010
0000
0000
0001
0000
0000
0100
0000
0010
0000
,
1000
0100
0001
0100
1000
0100
0001
0100
,
1000
0010
0001
0100
1000
0010
0001
0100
,
0010
0100
0001
0100
0010
0100
0001
0100
,
1000
0010
0100
0001
1000
0010
0100
0001
,
1000
0100
0010
0001
0100
0010
1000
0001
,
0100
0010
1000
0100
0010
0001
0100
0010
,
1000
0001
0100
0010
1000
0001
0100
0010
,
1000
0100
0010
0001
1000
0100
0010
0000
,
1001
0000
0100
0001
1000
0100
0010
1001
,
0000
0000
0100
0001
1000
0100
0010
1001
,
0000
0000
0010
0100
0000
1000
0000
0001
,
0000
0100
0010
0000
0000
0000
0000
0000
,
1001
0000
0100
0001
1000
0100
0010
1001
,
0000
0000
0100
0001
1000
0100
0010
1001
,
0000
0010
0000
0100
0000
0001
0000
1000
,
0000
0001
0100
0000
0000
0010
1000
0100
,
0110
0000
0001
0100
0110
0000
1000
0100
,
0110
0000
0001
0100
0010
1000
0100
0010
,
0011
0000
1000
0100
0010
0001
0000
1100
,
0000
0000
0000
0000
0000
0001
0100
0010
,
1001
0000
0100
0010
1001
0000
0100
0010
,
1001
0000
0100
0010
1000
0100
0010
0001
,
1001
0000
0100
0010
1000
0001
0000
0110
,
0000
0000
0000
0000
,
1000
0000
0000
0001
0000
0000
1000
0000
0000
0001
0000
0000
0010
0000
0100
0000
,
1000
0000
0000
0001
0000
0000
1000
0000
0000
0001
0000
0000
0100
0000
0010
0000
,
1000
0000
0000
0001
0000
0000
1000
0000
0000
0001
0000
0000
0010
0000
0100
0000
,
1000
0000
0000
0001
0000
0000
1000
0000
0000
0001
0000
0000
0100
0000
0010
0000
,
1000
0000
0000
0100
0000
0000
0010
0000
0000
0001
0000
0000
0100
0000
0010
0000
,
1000
0000
0000
0001
0000
0000
0100
0000
0000
0010
0000
0000
1000
0000
0100
0000
,
0010
0000
0000
0001
0000
0000
0100
0000
0000
0010
0000
0000
1000
0000
0100
0000
,
0010
0000
0000
0001
0000
0000
1000
0000
0000
0010
0000
0000
0100
0000
0001
0000
,
1000
0100
0000
0010
0001
0000
0100
0010
0000
1000
0100
0000
0010
0000
0001
0000
,
1000
0001
0000
0000
0000
0000
0010
0100
0000
0000
0000
0000
1000
0000
0001
0000
,
1000
0001
0000
0000
0000
0000
1000
0000
0000
0000
0000
0000
1000
0000
0001
0000
,
1000
0000
0000
1000
;

//---------------dance-single - ----------------
#NOTES:
     dance-single:
     :
     Challenge:
     15:
     :
0000
0000
0000
0000
,
0000
0000
0000
0000
,
0000
0000
0000
0000
,
0000
0000
0000
0000
,
0000
0000
0000
0000
,
0000
0000
0000
0000
,
1000
0010
0000
0010
0001
0000
0100
0010
0000
0010
1000
0000
0001
0000
1000
0100
,
0000
0010
0000
0010
0001
0000
0100
0010
0000
0010
1000
0000
0001
0000
1000
0010
,
0000
0100
0000
0100
0001
0000
0010
0100
0000
0100
1000
0000
0001
0000
1000
0010
,
0100
0001
0000
0100
0001
0000
0100
0001
0000
0100
0001
0000
0100
0000
0000
0000
,
0010
0000
1000
0100
0000
0010
0001
0000
0100
0010
0000
1000
0001
0000
0100
0000
,
0001
0000
0010
0001
0000
1000
0100
0000
1000
0010
0000
0100
0001
0000
0010
0000
,
0100
0000
0010
0100
0000
1000
0010
0000
0100
0001
0000
0001
1000
0000
0100
0000
,
0010
0000
0001
1000
0000
0001
0100
0000
0001
0010
0000
0100
1000
0000
0010
0000
,
0100
0000
0010
1000
0000
1000
0100
0000
0010
0001
0000
0001
0100
0000
0001
0000
,
1000
0000
0001
0010
0000
0001
0010
0000
0100
1000
0000
0100
1000
0000
0010
0000
,
0100
0000
0001
0010
0000
0010
1000
0000
0001
0100
0000
0100
1000
0000
0010
0000
,
1000
0000
0001
0100
0000
0010
1000
0000
0100
1000
0000
0001
0010
0000
0100
0000
,
1000
0000
0001
0000
0100
0000
0010
0000
1000
0100
1000
0000
0001
0000
0100
0000
,
1000
0000
0100
0000
0001
0000
0010
0000
0001
1000
0001
0000
0100
0000
0010
0000
,
1000
0000
0100
0000
0010
0000
1000
0000
0010
0001
0010
0000
0001
0000
0100
0000
,
0010
0000
0001
0000
0010
0000
1000
0000
0001
0100
0001
0000
0010
0000
1000
0000
,
0010
0000
0100
0000
0010
0000
1000
0000
0010
0100
0010
0000
0001
0000
1000
0000
,
0010
0000
0001
0000
0010
0000
0100
0000
0001
1000
0001
0000
1000
0000
0100
0000
,
0010
0000
0001
0000
0100
0000
1000
0000
0100
0001
0100
0000
0010
0000
1000
0000
,
0001
0000
0100
0000
0010
0000
1000
0000
0100
0010
0100
1000
0001
0000
0000
0000
,
0011
0000
0000
0000
0100
0000
1000
0000
0010
0000
1000
0000
0001
0000
0010
0100
,
1000
0000
0000
0000
0001
0000
1000
0000
0010
0000
0100
0000
0010
0000
1000
0100
,
0010
0000
0000
0000
0001
0000
0100
0000
0010
0000
1000
0000
0100
0000
0010
0001
,
1000
0000
0100
0000
0001
0000
0100
0000
0010
0100
1000
0000
0001
0000
0100
0000
,
0110
0000
0000
0000
1000
0000
0010
0000
0100
0000
0010
0000
1000
0000
0001
0010
,
0100
0000
0000
0000
0010
0000
0001
0000
0100
0000
0001
0000
1000
0000
0010
0100
,
0001
0010
1000
0010
0001
0100
1000
0100
,
0001
0000
1000
0001
0100
0000
0010
0000
0010
0000
0010
0000
1000
0000
0001
0000
,
0010
0000
0001
0100
0001
0000
1000
0000
0100
0000
0010
0100
1000
0000
0001
0000
,
0100
0000
0001
0010
0001
0000
0100
0000
0010
1000
0010
0100
0001
0000
1000
0000
,
0100
0000
0010
0001
0010
0000
0100
0000
1000
0000
0001
0000
0100
0000
0010
0000
,
1000
0100
1000
0000
0001
0000
0100
0000
0010
1000
0010
0000
0100
0000
0001
0000
,
0010
0000
0100
1000
0001
0000
0100
0000
0010
0000
1000
0001
1000
0000
0100
0000
,
0001
0000
0100
1000
0100
0000
0010
0000
0001
1000
0010
1000
0001
0000
0100
0000
,
0010
0000
0100
0001
1000
0000
0001
0000
0010
0000
1000
0000
0010
0000
0100
0000
,
1000
0000
0001
0100
0010
1000
0100
0001
,
0010
0000
0001
0100
0010
0000
1000
0000
0100
1000
0000
1000
0001
0000
0100
0000
,
0010
0000
1000
0001
0000
0001
0010
0000
0100
0010
0000
0010
0100
0000
1000
0000
,
0001
0000
1000
0010
0000
1000
0010
0000
1000
0100
0000
0010
0001
0000
0100
0000
,
0001
0000
0010
0100
0000
1000
0010
0000
1000
0001
0000
1000
0100
0000
0010
0000
,
0001
0000
1000
0001
0000
1000
0010
0000
0100
0001
0000
0001
1000
0000
0100
0000
,
0010
0000
0001
0100
0000
0001
0010
0000
0100
1000
0000
1000
0001
0000
1000
0000
,
0010
0000
1000
0100
0000
0100
0001
0000
1000
0010
0000
0010
0001
0000
0100
0000
,
0001
0000
0010
0100
0000
1000
0010
0000
0100
0000
0001
0000
1000
0000
0100
0000
,
0010
0001
0000
0001
0100
0000
0010
1000
0000
1000
0100
0000
0010
0000
0100
1000
,
0000
0001
0000
1000
0010
0000
0100
0001
0000
0010
0001
0000
1000
0000
0010
1000
,
0000
1000
0000
1000
0100
0000
1000
0001
0000
0010
0001
0000
0100
0000
0010
1000
,
0000
0001
0000
0001
1000
0000
0100
0010
0000
0001
0100
0000
1010
0000
1010
0000
;

//---------------dance-double - ----------------
#NOTES:
     dance-double:
     :
     Easy:
     7:
     :
00000000
00000000
00000000
00000000
,
00000000
00000000
00000000
00000000
,
00000000
00000000
00000000
00000000
,
00000000
00000000
00000000
00000000
,
00000000
00000000
00000000
00000000
,
00000000
00000000
00000000
00000000
,
10000000
10000000
10000000
10000000
,
01000000
01000000
10000000
01000000
,
00010000
00010000
00010000
00010000
,
01000000
01000000
00010000
01000000
,
10010000
01000000
00010000
01000000
,
00010000
10000000
00100000
00010000
,
00001000
00001000
00000100
00000010
,
00000100
00001000
00000001
00000100
,
00001001
00000100
00001000
00000100
,
00001000
00000001
00000010
00001000
,
00010000
00010000
01000000
00100000
,
01000000
00010000
10000000
01000000
,
10010000
00100000
00010000
01000000
,
10000000
01000000
00010000
00001000
,
00000100
00000001
00000100
00001000
,
00000010
00001000
00000010
00000001
,
00000110
00001000
00000010
00000001
,
00000100
00001000
00010000
01000000
,
01100000
00010000
01100000
10000000
,
00010000
01000000
10000000
10000000
,
10010000
00100000
00100000
00100000
,
01100000
00100000
00100000
00100000
,
00010000
00001000
00000100
00010000
,
01000000
00001000
00000100
00010000
,
00010100
00001000
01000000
00001000
,
01001000
00010000
00000100
00010000
,
00000100
00000100
00000001
00000010
,
00000100
00000100
00000100
00000100
,
00001001
00000100
00000001
00000001
,
00000100
00001001
00000100
00000100
,
00001000
00010000
01000000
10000000
,
00100000
00100000
00100000
00100000
,
10010000
01000000
10000000
10000000
,
01000000
10010000
01000000
01000000
,
00010000
00001000
00000100
00000001
,
00000100
00000100
00000100
00000100
,
00000010
00000001
00000100
00001000
,
00010000
01000000
10000000
10010000
,
10000000
10010000
10000000
10000000
,
01100000
10000000
01000000
00010000
,
00100000
10000000
01000000
00010000
,
00001000
00000100
00000001
00001001
,
00000001
00001001
00000001
00000001
,
00000110
00000001
00000100
00001000
,
00000001
00000001
00000001
00000100
,
00001000
00001000
00001000
00010000
,
01000000
01000000
01000000
10000000
,
00100000
00100000
00100000
00100000
;

//---------------dance-double - ----------------
#NOTES:
     dance-double:
     :
     Medium:
     7:
     :
00000000
00000000
00000000
00000000
,
00000000
00000000
00000000
00000000
,
00000000
00000000
00000000
00000000
,
00000000
00000000
00000000
00000000
,
00000000
00000000
00000000
00000000
,
00000000
00000000
00000000
00000000
,
00000010
00000001
00000100
00000100
,
00001000
00010000
00000100
00000100
,
00010000
00010000
01000000
00010000
,
00001000
00000100
00010000
00000100
,
00000110
00001000
00000101
00001000
,
01000000
10000000
10000000
00010000
,
00001000
00000100
00000001
00000001
,
00001000
01000000
10000000
00100000
,
01010000
10000000
11000000
00100000
,
00010000
00001000
00000100
00000100
,
00010000
01000000
00001000
00000100
,
00000001
00001100
00000101
00001000
,
00000010
00001000
00010000
00001000
,
00000100
00000001
00001100
00000001
,
00000010
00001000
00000010
00001000
,
00000110
00001000
00010000
01100000
,
00010000
01000000
10000000
00010000
,
10100000
00010000
01000000
10100000
,
01000000
00010000
00100000
10000000
,
01100000
00010000
00001000
00000110
,
00000101
00001000
00000100
00001000
,
00001100
00000001
00000100
00001000
,
01000000
10000000
00010000
01000000
,
00100000
10000000
01000000
00010000
,
11000000
00010000
01000000
00010000
,
01010000
10000000
01000000
00010000
,
00000100
00000001
00001000
00000100
,
00000010
00000001
00000100
00001000
,
00001001
00000100
00001001
00000100
,
00001001
01000000
00010000
00001000
,
01000000
10000000
00010000
00010000
,
00100000
00010000
01000000
10000000
,
10010000
01000000
10010000
01000000
,
10010000
00000100
00001000
00010000
,
00000100
00000001
00001000
00001000
,
00000010
00001000
00000100
00000001
,
00000110
00000001
00000110
00001000
,
00001001
01000000
10000000
00010000
,
00100000
00010000
00100000
10000000
,
10010000
00000100
00000001
00001000
,
00001100
00000001
00000110
00000001
,
00001001
01000000
10000000
00010000
,
01000000
10000000
01000000
00010000
,
10010000
00000100
00000001
00001000
,
00000001
00000000
00000100
00000000
00001000
00000000
00000010
00001000
,
00010000
00000000
01000000
00000000
10000000
00000000
00010000
10000000
,
01000000
00000000
00100000
00000000
00010000
00000000
00001000
00000100
,
00001000
00010000
01000000
10000000
;

//---------------dance-double - ----------------
#NOTES:
     dance-double:
     :
     Hard:
     11:
     :
00000000
00000000
00000000
00000000
,
00000000
00000000
00000000
00000000
,
00000000
00000000
00000000
00000000
,
00000000
00000000
00000000
00000000
,
00000000
00000000
00000000
00000000
,
00000000
00000000
00000000
00000000
,
00001000
00000000
00001000
00000000
00001000
00000000
00001000
00000100
,
00000001
00001000
00010000
01000000
,
00010000
00000000
00010000
00000000
00010000
00000000
10000000
00010000
,
01000000
00010000
00000100
00000001
,
00000100
00000001
00000000
00001000
00000100
00000000
00000001
00001000
,
01000000
10000000
00000000
00010000
01000000
00000000
10000000
00010000
,
00000100
00000001
00000000
00001000
00000100
00000000
00000001
00001000
,
01000000
10000000
00000000
00010000
01000000
00000000
10000000
00010000
,
00000100
00000010
00000000
00001000
00000100
00000000
00000001
00001000
,
01000000
00100000
00000000
00010000
01000000
00000000
10000000
00010000
,
00000100
00000010
00000000
00001000
00000100
00000000
00000001
00001000
,
01000000
00100000
00000000
00010000
01000000
00000000
10000000
00010000
,
10000000
00010000
01000000
00000000
00000100
00000000
00000001
00000000
,
00000010
00001000
00001000
00000000
00000001
00000001
00000100
00000000
,
00000010
00000001
00001000
00000000
01000000
00000000
10000000
00000000
,
00100000
00010000
01000000
00000000
00100000
10000000
01000000
00000000
,
00100000
00010000
01000000
00000000
00000100
00000000
00000001
00000000
,
00000010
00000100
00000010
00000000
00000100
00001000
00000100
00000000
,
00000100
00001000
00000001
00000000
01000000
00000000
10000000
00000000
,
00100000
01000000
00010000
00000000
10000000
00100000
01000000
00000000
,
10000000
01000000
00010000
01000000
00010000
00001000
00000100
00001000
,
00000100
00000001
00000010
00000001
00000010
00001000
00001000
00000000
,
00000001
00000100
00001000
00000100
00001000
00010000
01000000
00010000
,
01000000
10000000
00100000
10000000
00100000
00010000
00010000
00000000
,
10000000
00100000
00010000
00100000
00010000
00001000
00000010
00001000
,
00000010
00000001
00000100
00000001
00000100
00001000
00001000
00000000
,
00000001
00000010
00001000
00000010
00001000
00010000
00100000
00010000
,
00100000
10000000
01000000
10000000
01000000
00010000
00010000
00000000
,
10000000
00010000
01000000
00000000
00010000
10000000
01000000
00000000
,
00010000
00001000
00000100
00001000
00000100
00000001
00000100
00000000
,
00001000
01000000
10000000
00010000
,
00000100
00000001
00001000
00000100
,
00000001
00001000
00000100
00000000
00001000
00000001
00000100
00000000
,
00001000
00010000
01000000
00010000
01000000
10000000
01000000
00000000
,
00010000
00000100
00000001
00001000
,
01000000
10000000
00010000
01000000
,
00100000
10000000
01000000
00000000
00010000
01000000
10000000
00000000
,
00010000
00001000
00000100
00000001
00000010
00000100
00001000
00000000
,
00000010
00010000
10000000
01000000
,
00010000
00000100
00000001
00000010
,
00000010
00000001
00000100
00000000
00001000
00000100
00000001
00000000
,
00001000
00010000
01000000
10000000
00100000
01000000
00010000
00000000
,
00100000
00001000
00000001
00000100
,
00001000
01000000
10000000
00100000
,
10000000
01000000
00010000
01000000
00010000
00001000
00000100
00000000
,
00000001
00000100
00001000
00000100
00001000
00010000
01000000
00000000
,
10000000
01000000
00010000
01000000
00010000
00001000
00000100
00000000
,
00000001
00000100
00001000
00000100
00001000
00010000
01000000
00000000
;

//---------------dance-couple - ----------------
#NOTES:
     dance-couple:
     :
     Medium:
     8:
     :
00000000
00000000
00000000
00000000
,
00000000
00000000
00000000
00000000
,
00000000
00000000
00000000
00000000
,
00000000
00000000
00000000
00000000
,
00000000
00000000
00000000
00000000
,
00000000
00000000
00000000
00000000
,
10000000
10000000
10000000
00010000
,
00000010
00000010
00000010
00001000
,
01000000
01000000
01000000
00010000
,
00000001
00000001
00000001
00001000
,
10010000
01000001
10000000
01000001
,
00010000
01000001
10000000
01000001
,
00001001
10000100
00001000
10000100
,
00000001
10000100
00001000
10000100
,
10011001
01000100
10001000
01000100
,
00010001
00010001
10001000
01000100
,
00010001
10001000
00010001
01000100
,
10001000
00010001
10001000
01000100
,
10000000
01000000
00010001
01000000
10000000
01000000
00010001
01000000
,
10000000
00100000
00010001
01000000
10000000
00100000
00010001
01000000
,
00100000
01000000
00010001
01000000
00100000
01000000
00010001
01000000
,
10000000
00100000
01000001
00010000
10000000
00100000
01000001
00000000
,
00001000
00000100
10000001
00000100
00001000
00000100
10000001
00000100
,
00001000
00000010
10000001
00000100
00001000
00000010
10000001
00000100
,
00000010
00000100
10000001
00000100
00000010
00000100
10000001
00000100
,
00001000
00000010
10000100
00000001
00001000
00000010
10000100
00000000
,
10000000
00000000
01000001
00100000
00010000
01000000
00100001
00000000
,
10000000
00000000
01000001
00100000
00010000
01000000
00100001
00000000
,
10000000
00000000
01000001
00100000
00010000
01000000
00100001
00000000
,
10000000
01000001
00010000
01000001
,
00001000
00000000
10000100
00000010
00000001
00000100
10000010
00000000
,
00001000
00000000
10000100
00000010
00000001
00000100
10000010
00000000
,
00001000
00000000
10000100
00000010
00000001
00000100
10000010
00000000
,
00001000
10000100
00000001
10000100
,
01100000
00000000
00010001
10000000
00010000
00000000
00010001
10000000
,
00010000
00000000
00010001
10000000
01000000
00100000
00010001
10000000
,
01000000
00000000
10000001
00010000
01000000
00100000
00000001
10010000
,
00000000
00000001
00000000
00000001
,
00000110
00000000
10000001
00001000
00000001
00000000
10000001
00001000
,
00000001
00000000
10000001
00001000
00000100
00000010
10000001
00001000
,
00000100
00000000
10001000
00000001
00000100
00000010
10000000
00001001
,
00000000
10000000
00000000
10000000
,
10010000
00000000
10010001
00000000
01000000
00100000
01000001
00000000
,
10010000
00000000
10010001
00000000
00100000
01000000
00100001
00000000
,
00001001
00000000
10001001
00000000
00000100
00000010
10000100
00000000
,
00001001
00000000
10001001
00000000
00000010
00000100
10000010
00000000
,
10010000
00000000
11000001
00000000
00010000
00100000
00010001
00000000
,
10010000
00000000
11000001
00000000
00100000
00010000
00100001
00000000
,
00001001
00000000
10001100
00000000
00000001
00000010
10000001
00000000
,
00001001
00000000
10001100
00000000
00000010
00000001
10000010
00000000
,
10000000
10000000
10000000
00010000
,
00000010
00000010
00000010
00001000
,
01000000
01000000
01000000
00010000
,
00000001
00000001
00000001
00001000
;

//---------------dance-solo - ----------------
#NOTES:
     dance-solo:
     :
     Easy:
     4:
     :
000000
000000
000000
000000
,
000000
000000
000000
000000
,
000000
000000
000000
000000
,
000000
000000
000000
000000
,
000000
000000
000000
000000
,
000000
000000
000000
000000
,
000000
001000
000000
001000
,
000000
000100
000000
000100
,
000000
001000
000000
001000
,
000000
000000
000000
000000
,
100000
000000
100000
000000
,
000001
000000
000001
000000
,
010000
000000
010000
000000
,
000010
000000
000010
000000
,
001000
001000
001000
001000
,
000100
000100
000100
000100
,
100000
100000
000001
000001
,
100000
000100
001000
000001
,
001000
000000
000000
000000
,
100000
000001
001000
000100
,
010000
000000
000010
000000
,
100000
000000
000001
000000
,
001000
000000
001000
000000
,
000100
100000
000001
001000
,
000010
000000
000010
000000
,
010000
000000
010000
010000
,
100001
000000
000000
000000
,
100001
000000
000000
000000
,
100001
000000
000000
000000
,
000010
000010
000010
010000
,
001100
000000
000000
000000
,
001100
000000
000000
000000
,
001100
000000
000000
000000
,
100001
000000
000000
000000
,
100001
100001
001100
001100
,
000001
001000
100000
001000
,
100000
000000
100000
000000
,
000001
000000
000000
000000
,
100010
100010
010001
010001
,
000010
000000
000010
000000
,
010000
000000
010000
000000
,
000001
000000
000000
000000
,
100000
000001
100000
000001
,
001000
000100
001000
000100
,
100000
000010
100000
000010
,
010000
000001
010000
000001
,
100000
000001
100000
000001
,
001000
000100
001000
000100
,
100000
000010
100000
000010
,
010000
000001
010000
000001
,
100000
000000
000000
000000
,
001000
000000
000000
000000
,
000100
000000
000000
000000
,
000001
000000
000000
000000
;

//---------------dance-solo - ----------------
#NOTES:
     dance-solo:
     :
     Medium:
     5:
     :
000000
000000
000000
000000
,
000000
000000
000000
000000
,
000000
000000
000000
000000
,
000000
000000
000000
000000
,
000000
000000
000000
000000
,
000000
000000
000000
000000
,
100000
100000
100000
100000
,
000001
000001
000001
000001
,
100000
100000
100000
100000
,
100010
000000
000000
000000
,
100001
010001
000100
000100
,
100001
100010
000100
000100
,
110000
110000
000001
000001
,
000011
000011
100000
100000
,
001100
001100
011000
011000
,
001100
001100
001010
001010
,
100100
100100
000001
000001
,
000101
000101
100000
100000
,
000010
100000
000100
010000
,
000001
010000
000010
100001
,
001000
000001
010000
000010
,
001000
000001
100000
010010
,
000100
001000
000010
010000
,
000001
100000
000100
001100
,
100000
100000
000001
000001
,
001000
001000
000100
000100
,
100001
001000
001000
001000
,
010010
001000
001000
001000
,
100000
000010
001000
000001
,
100000
001000
000001
000000
000001
001000
100000
000000
,
001100
100001
001000
001000
,
010010
001100
100000
000001
,
100000
000000
100000
000000
,
000001
000000
000000
000000
,
000001
000000
000001
100000
000001
000000
000001
100000
,
000001
000001
010000
000010
,
001000
000001
100000
000100
,
001000
001000
001000
001000
,
100010
000000
100000
000001
100000
000000
100000
000001
,
100000
100000
000010
001000
,
000001
010000
000100
100000
,
001000
000000
000000
000000
,
100001
100001
010000
000010
,
100001
100001
000010
010000
,
100001
000000
010001
000000
000001
000100
000001
000000
,
100001
000000
100010
000000
100000
000100
100000
000000
,
100001
000000
001100
000000
000100
010000
000100
000000
,
001100
000000
100001
000000
100000
000010
100000
000000
,
000011
000101
100000
001000
,
110000
100100
000001
001000
,
000001
000001
000001
000001
,
001000
001000
001000
001000
,
000010
000010
000010
000010
,
100000
100000
100000
000000
;

//---------------dance-solo - ----------------
#NOTES:
     dance-solo:
     :
     Hard:
     8:
     :
000000
000000
000000
000000
,
000000
000000
000000
000000
,
000000
000000
000000
000000
,
000000
000000
000000
000000
,
000000
000000
000000
000000
,
000000
000000
000000
000000
,
100000
000001
000000
100000
000001
000000
100000
000001
000000
100000
000001
000000
100000
000000
000001
000000
,
100000
000001
000000
100000
000001
000000
000100
001000
000000
000100
001000
000000
100000
000000
000001
000000
,
001000
000100
000000
100000
000001
000000
010000
010000
000000
000010
000010
000000
001000
000000
000001
000000
,
100001
000000
000000
010000
010000
010000
000000
000000
,
000010
000000
000000
100000
000000
000000
000001
000000
000000
000000
000000
000000
010000
000000
000100
000000
,
100000
000000
000000
000001
000000
000000
001000
000000
000000
000000
000000
000000
000100
000000
100000
000000
,
000010
000000
000000
010000
000000
000000
000001
000000
000000
000000
000000
000000
001000
000000
000100
000000
,
100000
000000
000000
000010
000000
000000
010000
000000
000000
000000
000000
000000
000100
000000
100000
000000
,
000001
000000
000000
001000
000000
000000
000010
000000
000000
000000
000000
000000
100000
000000
000001
000000
,
001000
000000
000000
000100
000000
000000
100000
000000
000000
000000
000000
000000
000010
000000
010000
000000
,
000100
000000
000000
100000
000000
000000
000001
000000
000000
000000
000000
000000
010000
000000
000010
000000
,
000100
000000
000000
000001
000000
000000
001000
000000
000000
000000
000000
000000
000010
000000
010000
000000
,
000100
001000
000010
001000
010000
001000
000010
001000
,
010000
000100
000010
001000
010000
000100
000010
001000
,
000001
001000
000010
001000
000001
001000
000010
001000
,
000001
010000
000010
100000
000001
010000
000010
100000
,
100000
001000
000100
000010
001000
000001
100000
000100
,
001000
000100
100000
000010
000100
000000
000100
001000
,
010000
000010
001000
000100
010000
000010
001000
000100
,
010000
001000
000100
000010
010000
001000
000100
000000
,
100001
000000
001000
000010
010000
001000
000100
100001
,
000000
000000
001000
000010
010000
001000
000100
100001
,
000000
000000
000100
010000
000000
000010
000000
100000
,
000000
001000
000100
000000
000000
000000
000000
000000
,
001100
000000
100000
000010
010000
001000
000100
100001
,
000000
000000
100000
000001
100000
000100
001000
010010
,
000000
000100
000000
100000
000000
000001
000000
001000
,
000000
000100
100000
000000
000000
000001
100000
000000
,
001100
000001
001100
100000
,
001100
000001
000100
001000
,
001010
000000
010000
001000
000100
100000
000000
110000
,
000000
000000
000000
000000
000000
000100
001000
000100
,
010000
000000
001000
000100
000010
000000
001000
000100
,
010000
000000
001000
000100
000010
001000
000100
000000
,
100001
000000
001000
000100
010000
000010
000000
001100
,
000000
000000
000000
000000
,
100000
000000
000000
000100
000000
000000
001000
000000
000000
000000
000000
000000
000001
000000
100000
000000
,
000010
000000
000000
010000
000000
000000
000100
000000
000000
000000
000000
000000
100000
000000
000001
000000
,
010000
000000
000000
000010
000000
000000
001000
000000
000000
000000
000000
000000
000001
000000
100000
000000
,
000100
000000
000000
001000
000000
000000
000010
000000
000000
000000
000000
000000
010000
000000
001000
000000
,
100000
000000
000000
000001
000000
000000
001000
000000
000000
000000
000000
000000
000001
000000
010000
000000
,
000010
000000
000000
001000
000000
000000
000100
000000
000000
000000
000000
000000
100000
000000
001000
000000
,
000100
000000
000000
000001
000000
000000
010000
000000
000000
000000
000000
000000
000010
000000
000100
000000
,
000001
000000
000000
100000
000000
000000
000010
000000
000000
000000
000000
000000
000010
000000
010000
000000
,
000001
100000
000000
000001
100000
000000
000001
100000
000000
000001
100000
000000
000001
000000
100000
000000
,
000001
100000
000000
000000
000000
000000
000100
001000
000000
000000
000000
000000
000001
000000
100000
000000
,
000001
100000
000000
000000
000000
000000
000001
000000
000000
000000
000000
000000
100000
000000
000001
000000
,
100000
000000
000000
001000
;
