#TITLE:Csikos Post;
#SUBTITLE:-Seishun SKA punk mix-;
#ARTIST:TASUKI BOYZ;
#BANNER:Csikos Post -Seishun SKA punk mix--bn.png;
#BACKGROUND:Csikos Post -Seishun SKA punk mix--bg.png;
#JACKET:Csikos Post -Seishun SKA punk mix--jacket.png;
#MUSIC:Csikos Post -seishun SKA punk mix-.ogg;
#SAMPLESTART:8.889;
#SAMPLELENGTH:20;
#DISPLAYBPM:190;
#BPMS:0=190;
#BGCHANGES:;

//---------------dance-single - ----------------
#NOTES:
     dance-single:
     :
     Beginner:
     5:
     :
0000
0000
0000
0000
,
0000
0000
0000
0000
,
0000
0000
0000
0000
,
0010
0000
0000
0000
,
0001
0000
0000
0000
,
0200
0000
0300
0000
,
2000
0000
3000
0000
,
0001
0000
0001
0000
,
1000
0000
0010
0000
,
1000
0000
1000
0000
,
1000
0000
0001
0000
,
0010
0000
0001
0000
,
0100
0000
0100
0000
,
0010
0000
1000
0000
,
0001
0001
0001
0000
,
0100
0000
0001
0000
,
0010
0000
0010
0000
,
0001
0000
0001
0000
,
0001
0000
1000
0000
,
0010
0000
1000
0000
,
0010
0000
0100
0000
,
0001
0000
0010
0000
,
1000
1000
1000
0000
,
0020
0000
0030
0000
,
0200
0000
0300
0000
,
0110
0000
0001
0000
,
1001
0000
1000
0000
,
0002
0000
0003
0000
,
2000
0000
3000
0000
,
0110
0000
1000
0000
,
0001
0001
0001
0000
,
0100
0000
0100
0000
,
0100
0100
0100
0100
,
0200
0000
0300
0000
,
0020
0000
0030
0000
,
0001
0001
0001
0000
,
0100
0100
0100
0000
,
0001
0000
0001
0000
,
1000
0000
1000
0000
,
0010
0000
1000
0000
,
0001
0001
0001
0000
,
1001
0000
0000
0000
,
0010
0010
0010
0010
,
0010
0000
1000
0000
,
0100
0000
0001
0000
,
1000
1000
1000
0000
,
0001
0001
0001
0000
,
0010
0000
0001
0000
,
1000
1000
1000
0000
,
0010
0000
0010
0000
,
0010
0010
0010
0000
,
0100
0000
0100
0000
,
0100
0100
0100
0000
,
0001
0000
0010
0000
,
0001
1000
0001
0000
,
0100
0000
0100
0000
,
0100
0000
0010
0000
,
1000
0000
0100
0000
,
1000
0001
1000
0000
,
0001
0010
0001
0000
,
1000
0010
1000
0000
,
0200
0000
0300
0000
,
0020
0000
0030
0000
,
0001
0100
0001
0000
,
1000
0100
1000
0000
,
0002
0000
0003
0000
,
2000
0000
3000
0000
,
0001
0000
1000
0000
,
0100
1000
0001
0000
,
0100
0000
0010
0000
,
1000
0010
0100
0000
,
0110
0000
1001
0000
,
0001
0001
1000
1000
,
0001
0000
0000
0000
,
0010
0100
0010
0000
;

//---------------dance-single - ----------------
#NOTES:
     dance-single:
     :
     Easy:
     8:
     :
0000
0000
0000
0000
,
0000
0000
0000
0000
,
0000
0000
0000
0000
,
0010
1000
0000
0001
,
0000
0010
0000
0001
,
0000
0100
0000
0010
,
1000
0100
1000
0001
,
0010
0000
0001
1000
0001
0000
0100
0000
,
0010
0010
0020
0030
,
2000
3100
0002
0103
,
2000
0000
3100
0000
0001
1000
0001
0000
,
0100
0000
0010
1000
0010
0000
0100
0000
,
0001
0001
0002
0003
,
0010
0001
0100
1000
,
0001
0000
0001
0100
0001
0000
0000
0000
,
0010
0000
0001
0100
0001
0000
0010
0000
,
1000
1000
2000
3000
,
0002
0013
2000
3010
,
0002
0000
0013
0000
1000
0001
1000
0000
,
0100
0000
0010
0001
0010
0000
1000
0000
,
0100
0100
0200
0300
,
1000
0010
0001
0100
,
0010
0000
0010
1000
0010
0000
1001
0000
,
0002
0100
2000
3003
,
0020
1000
0200
0330
,
0110
0000
0001
0100
0001
0000
1000
0000
,
1001
0000
1000
0100
1000
0000
0001
0000
,
0020
0001
2000
3030
,
0002
0010
0200
0303
,
1000
0001
0100
0000
0010
0000
1000
0000
,
0100
0010
0100
0010
0100
0000
0110
0000
,
0002
2003
3002
2003
,
3020
0230
0320
0230
,
0301
0010
0001
1000
,
0100
0010
0100
1000
,
1001
1001
1001
1001
,
0110
0110
0110
0110
,
0100
0010
0100
0001
,
0010
1000
0100
1000
,
0001
1000
0100
0000
0010
0000
0001
0000
,
1000
0001
0100
0110
,
1001
0010
0001
0100
,
0110
1000
0010
0001
,
1001
0000
1000
0100
1000
0000
0001
0000
,
0010
0000
0100
0010
0100
0000
1000
0000
,
0001
0001
0001
0001
,
1000
1000
1000
1000
,
0001
0100
0010
0000
1000
0000
0100
0000
,
1000
0001
0001
0000
,
0010
0010
0100
0100
,
0110
1001
0110
0000
,
1000
1000
0001
0001
,
1001
0110
1001
0000
,
0010
0000
1000
0001
0010
0000
0100
0000
,
1000
0001
2000
3000
,
0020
1030
0200
0301
,
2000
0000
3100
0000
0010
0001
0100
0000
,
0001
0000
0010
0100
1000
0000
0010
0000
,
1000
0100
0002
0003
,
0010
0001
0010
0000
0001
0000
0100
0000
,
1000
0000
0010
0100
0010
0000
0000
0000
,
2000
0100
0002
3003
,
0200
1000
0020
0330
,
1001
0000
0001
0010
0001
0000
1000
0000
,
0110
0000
1000
0010
1000
0000
0001
0000
,
0200
1000
0002
0303
,
2000
0100
0020
3030
,
0001
1000
0010
0000
1000
0000
0100
0000
,
0010
0001
0010
0001
0010
0000
1001
0000
,
0010
1000
0100
0000
1000
0000
0001
0000
,
0100
0010
0100
0010
0100
0000
0110
0000
,
0001
0100
0001
0000
1000
0100
1000
0000
,
0001
0001
1000
1000
,
0220
0000
0000
0330
,
1001
0110
1001
0000
;

//---------------dance-single - ----------------
#NOTES:
     dance-single:
     :
     Medium:
     13:
     :
0000
0000
0000
0000
,
0000
0000
0000
0000
,
0000
0000
0000
0000
,
0010
1000
0000
0100
0000
1000
0000
0001
,
0000
0010
0000
0001
0000
0100
0000
0010
,
0000
1000
0000
0100
0000
1000
0000
0001
,
0000
0010
0000
0001
0000
1000
0010
0100
,
0001
0000
0010
0100
1000
0001
0100
0000
,
0010
1000
0010
0100
0002
0000
0003
0000
,
0010
0001
2000
0000
3010
1000
0002
0000
,
0013
0001
2000
0000
3010
0100
0010
0000
,
1000
0000
0100
0010
0100
1000
0001
0000
,
0010
0001
1000
0001
0200
0000
0300
0000
,
0001
0010
0001
0010
1000
0010
1000
0010
,
0001
0000
0001
0100
1000
0000
1001
0000
,
0110
0000
1000
0001
0100
0010
1000
0000
,
0100
0010
0100
1000
0002
0000
0003
0000
,
0010
0001
0200
0000
0310
1000
0200
0000
,
0310
0001
0200
0000
0310
0100
0010
0000
,
1000
0000
0001
1000
0010
0100
0001
0000
,
0010
0100
0010
0001
2000
0000
3000
0000
,
0001
0100
0001
0100
1000
0100
1000
0100
,
0001
0000
0001
0010
1000
0000
1001
0000
,
2000
3020
0230
0301
,
0020
0000
0032
0000
2003
0000
3010
0100
,
1001
0000
0001
0100
0010
0100
0001
0000
,
0110
0000
1000
0010
1000
0001
0100
0000
,
0002
2003
3200
0310
,
0200
0000
2300
0000
3002
0000
0103
0010
,
1000
0100
0001
0000
1000
0100
0010
0001
,
0100
0010
1000
0001
0100
0000
0110
0000
,
0101
0101
1100
1100
,
1010
0101
0011
1100
,
1000
0010
1000
0000
0100
0010
0001
0000
,
0100
0010
0100
0000
0001
1000
0001
0000
,
0010
0001
0010
0100
1000
0010
0001
0000
,
1000
0010
1000
0100
0010
0001
1000
0000
,
0001
1000
0001
0000
0010
0100
1000
0000
,
0010
1000
0001
0000
1000
0100
1000
0000
,
0001
0100
1000
0000
0010
0100
0001
0000
,
1000
0010
0100
0001
1000
0000
0101
0000
,
2100
3002
0203
0310
,
1001
0010
1000
0100
0001
0100
1000
0000
,
0011
0000
0100
0001
0010
0001
0010
0100
,
1000
0000
0010
1000
0010
0100
0001
1000
,
0200
0320
0032
2003
,
3010
1000
0010
0100
0010
1000
0001
0000
,
0010
0001
0010
0001
1000
0100
1000
0100
,
0020
0032
2003
3010
,
1000
0100
0001
0000
1000
0100
0001
0000
,
1010
0000
0101
0000
1010
0000
0001
0100
,
0001
0010
1000
0000
0001
0010
1000
0000
,
1100
0000
0011
0000
1100
0000
0010
0100
,
0001
0000
0010
0100
0010
0001
1000
0010
,
1000
0100
0001
0100
2000
0000
3000
0000
,
0010
1000
0200
0000
1300
0010
0002
0000
,
0103
0010
2000
0000
3001
0100
0001
0000
,
0010
0000
0001
1000
0010
0100
0010
1000
,
0001
0100
1000
0100
0002
0000
0003
0000
,
0010
0001
0010
0001
1000
0100
1000
0100
,
0010
0000
0100
1000
0001
0100
0010
0000
,
2000
3002
0023
0130
,
2000
0000
3020
0000
0230
0000
0301
1000
,
0110
0000
0001
0010
0001
1000
0100
0000
,
1001
0000
0001
0010
0100
1000
0001
0000
,
0200
0302
2003
3010
,
0002
0000
0203
0000
0320
0000
1030
0001
,
1000
0100
0001
0000
1000
0100
0010
0001
,
0100
0010
1000
0001
0100
0000
1010
0000
,
0001
0100
0010
0000
0001
0100
0010
1000
,
0001
0100
1000
0100
0001
1000
0100
0000
,
1000
0010
0001
0000
1000
0100
0010
0001
,
1000
0100
1000
0100
0001
0100
0001
0100
,
2000
0000
0001
0000
0100
0000
3001
1000
,
1010
0110
0101
0000
;

//---------------dance-single - ----------------
#NOTES:
     dance-single:
     :
     Hard:
     16:
     :
0000
0000
0000
0000
,
0000
0000
0000
0000
,
0000
0000
0000
0000
,
0010
1000
0100
0001
0000
0011
0000
1010
,
0000
0101
0000
0011
0000
0110
0000
1100
,
0000
1001
0000
0011
0000
1010
0000
0101
,
0000
0000
0011
0000
0000
0000
1100
0000
0000
0000
0001
1000
0001
1000
0001
1000
,
0001
0000
0010
0001
0100
0010
1000
0100
,
0001
0100
0010
0100
2000
0001
3001
0000
,
0010
1000
0010
1000
0020
0000
0000
0000
0130
0001
0100
0001
0200
0000
0000
0000
,
0301
1000
0001
1000
0002
0000
0000
0000
0013
0000
0100
0000
1001
0000
0000
0000
,
0110
0001
0100
0010
0100
1000
0100
0000
,
0100
0000
0001
0000
0010
0000
0100
0000
2000
0000
0000
0000
3001
0100
0001
0100
,
0001
0000
0010
0000
1000
0000
0010
0000
0001
0000
0010
0000
0100
1000
0100
1000
,
0100
0000
0000
0000
0100
0010
0100
0010
0100
0000
1000
0000
0001
0000
0000
0010
,
0001
0000
1000
0001
0010
1000
0100
0010
,
1000
0010
0100
0010
0002
1000
1003
0010
,
0100
0001
1000
0001
0200
0000
0000
0000
0310
1000
0001
1000
0020
0000
0000
0000
,
1030
0100
0010
0100
2000
0000
0000
0000
3001
0000
0001
0000
1000
0000
0010
0100
,
0001
0000
0010
0001
0100
0010
0100
1000
,
0100
0000
0001
0000
1000
0000
0001
0000
0020
0000
0100
0000
0130
0000
1000
0001
,
0100
0000
0010
0000
0001
0000
0010
0000
0100
0000
0010
0000
0001
0000
0010
1000
,
0001
0000
0000
0000
1000
0001
0100
0001
1000
0000
0000
0000
0101
0000
0000
0000
,
2000
0010
0000
0000
3020
0100
0000
0000
0230
0001
0000
0000
0301
1000
0000
0000
,
0002
1000
0000
0000
2003
0010
0000
0000
3020
0100
0000
0000
0130
0000
0001
0000
,
1010
0000
0001
0100
0010
1000
0001
1000
,
0011
0000
0000
0000
0010
0000
0001
0000
1000
0000
0010
0000
0100
0001
0000
0000
,
0200
0010
0000
0000
0302
0010
0000
0000
2003
0001
0000
0000
3100
1000
0000
0000
,
0002
1000
0000
0000
0023
0001
0000
0000
0230
0010
0000
0000
1300
0100
0000
0000
,
0110
0001
1000
0010
0100
1000
0100
0001
,
1000
0000
0010
0000
0001
0000
0010
1000
0100
0000
0000
0000
1000
0001
0000
0000
,
0011
0110
1100
0101
,
0010
0001
0010
0000
0100
1000
0100
0000
0010
0001
0010
0000
0001
1000
0001
1000
,
0001
0100
0010
1000
0010
1000
0001
0100
,
0001
0010
1000
0010
0100
0001
1000
0100
,
0001
0010
0001
0000
1000
0010
1000
0000
0001
0100
0001
0000
1000
0100
1000
0000
,
0010
0100
0010
0000
1000
0001
1000
0000
0001
0100
0010
0000
1000
0100
0010
0000
,
0001
0100
1000
0100
0010
1000
0010
0001
,
1000
0100
0010
0001
0100
1000
0001
0010
,
1000
0100
0001
1000
0010
0100
0001
0010
,
1000
0000
0001
0000
0100
0010
1000
0001
0010
0000
0000
1000
0001
1000
0010
0100
,
0001
0010
0000
0000
0001
0100
0000
0000
0010
1000
0000
0000
0100
0010
0000
0000
,
0001
1000
0001
0000
0100
0010
0100
0000
0001
0000
1000
0100
1000
0100
1000
0100
,
1000
0010
0001
0100
0010
0001
0100
0010
,
0100
1000
0001
0010
1000
0001
1000
0100
,
0001
0010
0001
0010
0200
0000
0000
0000
1300
0010
1000
0010
0200
0000
0000
0000
,
0301
1000
0010
1000
0001
1000
0000
0000
0010
0100
0010
0100
0001
1000
0001
1000
,
0100
0010
0001
0100
1000
0010
0001
1000
,
0100
0000
0000
0000
1000
0010
0100
0001
1000
0000
0000
0000
1100
0000
0000
0000
,
1001
0000
0010
0000
1000
0001
0100
0010
1000
0000
0100
0000
0001
0000
0000
0000
,
0010
0000
0001
0000
0100
0000
0010
0000
1000
0000
0100
0000
0001
0000
1000
0010
,
0100
0000
0001
0000
0010
0000
0001
1000
0010
0000
0100
0000
0001
1000
0001
1000
,
0001
0010
0100
0000
1000
0001
1000
0010
0200
0000
0000
0000
0301
0010
0100
1000
,
0001
0000
0000
0010
0001
0000
0100
0010
1000
0000
0001
0000
0100
0000
0010
0000
,
0100
0000
1000
0000
0100
0000
0001
0000
2000
0000
0010
0000
3010
0000
0100
0001
,
0010
0100
1000
0100
0020
0000
0000
0000
0031
0100
0010
0100
0002
0000
0000
0000
,
1003
0001
0100
0010
1000
0000
0000
0000
1100
0000
0110
0000
0011
0000
0000
0100
,
0001
0000
0000
1000
0100
0000
0001
0000
0100
0000
0010
0000
0001
0000
1000
0000
,
0010
0100
0010
1000
0002
0100
0103
0010
,
1000
0001
0010
1000
0001
0100
0010
1000
,
0101
0000
0000
0000
0001
0010
0100
1000
0010
0000
0100
0001
1000
0000
0000
0000
,
2000
0001
0000
0000
3002
0010
0000
0000
0023
0100
0000
0000
0130
1000
0000
0000
,
0020
1000
0000
0000
2030
0100
0000
0000
3200
0010
0000
0000
0301
0000
0001
0000
,
0110
1000
0010
0100
0001
0010
1000
0000
,
0101
0010
1000
0001
0010
0100
1000
0000
,
0020
0100
0000
0000
2030
0010
0000
0000
3002
0100
0000
0000
1003
0001
0000
0000
,
0020
0100
0000
0000
0032
0100
0000
0000
2003
0001
0000
0000
3010
0000
1000
0000
,
0001
0100
0010
0001
0010
1000
0100
0001
,
1000
0000
0010
0000
1000
0001
0100
0010
1000
0000
0000
0000
0011
0000
0000
0000
,
0001
0100
1000
0010
1000
0100
0010
0001
,
0100
0010
1000
0000
0001
0000
0100
0000
1000
0000
0010
0100
0001
0000
1000
0000
,
1010
0001
0100
0010
0101
0010
0001
1000
,
0010
1000
0001
0000
0100
0000
0010
0000
1000
0100
0010
0000
0001
0000
1000
0000
,
2100
0000
0000
0000
0001
0000
0000
0000
0100
0000
0000
0000
3001
1000
0010
0100
,
0010
1000
0001
0000
0010
0100
1000
0001
0100
0000
0000
0000
0000
0000
0000
0000
;
