#VERSION:0.83;
#TITLE:Crystal Toybox;
#SUBTITLE:;
#ARTIST:OJ ENSEMBLE;
#TITLETRANSLIT:;
#SUBTITLETRANSLIT:;
#ARTISTTRANSLIT:;
#GENRE:;
#ORIGIN:;
#CREDIT:;
#BANNER:Crystal Toybox-bn.png;
#BACKGROUND:Crystal Toybox-bg.png;
#PREVIEWVID:;
#JACKET:Crystal Toybox-jacket.png;
#CDIMAGE:;
#DISCIMAGE:;
#LYRICSPATH:;
#CDTITLE:;
#MUSIC:Crystal Toybox.ogg;
#OFFSET:-0.063000;
#SAMPLESTART:25.554001;
#SAMPLELENGTH:20.000000;
#SELECTABLE:YES;
#DISPLAYBPM:90.000000:220.000000;
#BPMS:0.000=150.000,
12.000=140.000,
14.000=108.000,
15.000=85.000,
16.000=170.000,
60.000=165.000,
60.500=160.000,
61.000=155.000,
61.500=153.000,
62.000=151.000,
63.000=140.000,
64.000=145.000,
65.000=140.000,
66.000=180.000,
101.000=90.000,
113.000=135.000,
116.000=180.000,
132.000=160.000,
152.000=181.000,
156.000=180.000,
164.000=182.000,
168.000=183.000,
170.000=185.000,
172.000=186.000,
176.000=189.000,
183.000=191.000,
184.000=192.000,
185.000=193.000,
188.000=198.000,
192.000=203.000,
196.000=204.000,
200.000=206.000,
203.000=204.000,
204.000=211.000,
205.000=212.000,
206.000=213.000,
207.000=214.000,
208.000=215.000,
209.000=216.000,
210.000=217.000,
211.000=218.000,
212.000=219.000,
213.000=220.000,
220.000=180.000,
254.000=187.000,
261.000=199.000;
#STOPS:;
#DELAYS:;
#WARPS:;
#TIMESIGNATURES:0.000=4=4,
16.000=5=4,
26.000=6=4,
32.000=4=4,
40.000=5=4,
50.000=6=4,
56.000=4=4,
96.000=5=4,
101.000=4=4,
113.000=3=4,
116.000=4=4,
220.000=2=4,
222.000=4=4;
#TICKCOUNTS:0.000=4;
#COMBOS:0.000=1;
#SPEEDS:0.000=1.000=0.000=0;
#SCROLLS:0.000=1.000,
186.000=0.000,
187.000=1.000,
202.000=0.000,
203.000=1.000;
#FAKES:;
#LABELS:0.000=Song Start,
8.000=Ben patterns,
16.000=Rhythms by 10acious_D pattern changes by Ben,
32.000=Gallop/skip idea from 10acious_D pattern tweaks by Ben,
40.000=Original rhythms by 10acious_D additional steps and patt. by Ben,
56.000=Mirror of 10acious_D's original rhythms and patterns,
60.000=Stream by Ben,
68.000=Ben,
75.000=Ben_ taking inspiration from 10acious D's harder sections,
101.000=Freeze idea from 10acious_D patterning from Ben,
113.000=3/4 BPM section idea from 10acious_D pattern tweaks by ben,
132.000=Primarily 10acious_D tweaks from Ben,
156.000=Ben (whole speed-up),
222.000=10acious_D pattern and rhythm (2 measures_ all repeats),
230.000=10acious_D's idea with slight consistency tweaks from Ben,
236.000=16th burst by Ben,
238.000=Mirror of 10acious_D's crossover pattern,
245.000=The rest is essentially 10acious_D with only minor tweaks;
#BGCHANGES:;
#KEYSOUNDS:;
#ATTACKS:
;

//---------------dance-single - ----------------
#NOTEDATA:;
#CHARTNAME:;
#STEPSTYPE:dance-single;
#DESCRIPTION:;
#CHARTSTYLE:;
#DIFFICULTY:Beginner;
#METER:4;
#RADARVALUES:0.211543,0.267721,0.039226,0.029420,0.000000,151.000000,147.000000,4.000000,3.000000,0.000000,0.000000,0.000000,0.000000,0.000000,0.211543,0.267721,0.039226,0.029420,0.000000,151.000000,147.000000,4.000000,3.000000,0.000000,0.000000,0.000000,0.000000,0.000000;
#CREDIT:nobarben;
#DISPLAYBPM:85.000000:220.000000;
#NOTES:
// measure 0
0000
0000
0000
0000
,  // measure 1
0000
0000
0000
0000
,  // measure 2
0000
0000
0000
0000
,  // measure 3
1001
0000
0000
0000
,  // measure 4
0001
0000
0001
0000
,  // measure 5
0001
1000
0000
1000
,  // measure 6
0000
1000
0001
0000
,  // measure 7
0001
0000
0001
0000
,  // measure 8
1000
1000
0000
1000
,  // measure 9
0001
0001
0000
0001
,  // measure 10
0010
0000
0010
0000
,  // measure 11
0010
0100
0000
0100
,  // measure 12
0000
0100
0010
0000
,  // measure 13
0010
0000
0010
0000
,  // measure 14
0001
0001
0000
0001
,  // measure 15
1000
0001
1000
0001
,  // measure 16
0000
0000
0000
0000
,  // measure 17
0100
0000
0100
0000
,  // measure 18
0010
0010
0010
0000
,  // measure 19
1000
0000
0001
0000
,  // measure 20
1000
0000
0100
0100
,  // measure 21
0010
0000
0010
0000
,  // measure 22
0001
0001
0001
0000
,  // measure 23
1000
0000
0001
0000
,  // measure 24
0100
0100
0100
0000
,  // measure 25
0000
0010
0000
1000
,  // measure 26
0000
0001
0000
1000
,  // measure 27
0000
0100
0000
0010
,  // measure 28
0000
0002
0000
0000
,  // measure 29
0013
0000
0010
0000
,  // measure 30
0100
0100
0100
0000
,  // measure 31
1000
0000
0001
0000
,  // measure 32
0100
0100
0100
0000
,  // measure 33
0001
0000
0000
0000
,  // measure 34
1000
0000
0000
0000
,  // measure 35
0100
0000
0000
0000
,  // measure 36
0010
0000
0010
0000
,  // measure 37
0002
0000
0000
0000
,  // measure 38
1003
0000
0000
0000
,  // measure 39
0001
0000
0001
0000
,  // measure 40
0100
0001
0100
0000
,  // measure 41
0001
0000
1000
0000
,  // measure 42
0001
1000
0001
0000
,  // measure 43
1000
0000
1000
0000
,  // measure 44
0100
0000
0100
0000
,  // measure 45
0010
0000
0010
0000
,  // measure 46
0001
0000
1001
0000
,  // measure 47
0001
0000
0001
0000
,  // measure 48
0100
0000
0100
0000
,  // measure 49
0010
0000
0010
0000
,  // measure 50
1000
0000
1001
0000
,  // measure 51
1000
0000
0100
0000
,  // measure 52
0010
0000
0001
0000
,  // measure 53
1000
0000
0100
0000
,  // measure 54
0010
0000
0110
0000
,  // measure 55
0000
0000
0100
0010
,  // measure 56
0100
0000
0010
0010
,  // measure 57
0010
0000
0001
0001
,  // measure 58
1000
0000
0001
0000
,  // measure 59
0100
0100
0010
0100
,  // measure 60
0010
0000
1000
1000
,  // measure 61
1000
0000
0001
0001
,  // measure 62
1000
0000
0100
0100
,  // measure 63
0100
0000
1000
1000
,  // measure 64
0001
0000
0100
0100
,  // measure 65
0100
0000
0001
0001
,  // measure 66
1000
0000
0010
0010
,  // measure 67
0010
0020
0000
0000
,  // measure 68
0000
0030
0000
0000
;

//---------------dance-single - ----------------
#NOTEDATA:;
#CHARTNAME:;
#STEPSTYPE:dance-single;
#DESCRIPTION:;
#CHARTSTYLE:;
#DIFFICULTY:Easy;
#METER:9;
#RADARVALUES:0.371250,0.407465,0.176519,0.215745,0.000000,265.000000,247.000000,18.000000,22.000000,0.000000,0.000000,0.000000,0.000000,0.000000,0.371250,0.407465,0.176519,0.215745,0.000000,265.000000,247.000000,18.000000,22.000000,0.000000,0.000000,0.000000,0.000000,0.000000;
#CREDIT:nobarben;
#DISPLAYBPM:85.000000:220.000000;
#NOTES:
// measure 0
0000
0000
0000
0000
,  // measure 1
0000
0000
0000
0000
,  // measure 2
0001
0010
0100
1000
,  // measure 3
2002
0000
0000
3003
,  // measure 4
2000
0000
3002
0000
,  // measure 5
0103
0020
0000
2030
,  // measure 6
0000
3001
0020
0000
,  // measure 7
0130
1000
0001
0001
,  // measure 8
1000
0000
0000
1000
0000
0000
1000
0000
,  // measure 9
0001
0000
0000
0001
0000
0000
0001
0000
,  // measure 10
0200
0310
1000
0100
,  // measure 11
1100
0200
0310
0001
,  // measure 12
0100
0101
0002
0103
,  // measure 13
0010
1000
0100
0100
,  // measure 14
0010
0000
0000
0010
0000
0000
0010
0000
,  // measure 15
0001
0010
0100
1000
,  // measure 16
0000
0000
0000
0000
,  // measure 17
0001
0001
0100
0001
,  // measure 18
1000
0100
0110
0000
,  // measure 19
0001
0100
1000
0100
,  // measure 20
0001
1000
0001
0001
,  // measure 21
1000
1000
0010
1000
,  // measure 22
0001
0010
0110
0000
,  // measure 23
1000
0010
0001
0010
,  // measure 24
1000
0001
2000
3001
,  // measure 25
0000
1000
1000
0001
,  // measure 26
0100
0010
1000
1001
,  // measure 27
0000
0001
0100
1000
,  // measure 28
0100
0000
0002
0000
0000
2003
0000
0000
,  // measure 29
3001
0001
1000
0100
,  // measure 30
0010
0001
1001
0000
,  // measure 31
1000
0100
0001
0100
,  // measure 32
1000
0001
2000
3001
,  // measure 33
0100
0100
0010
1000
,  // measure 34
0100
0100
0010
0000
,  // measure 35
0001
1001
0001
0100
,  // measure 36
0010
1000
0100
0100
,  // measure 37
0020
0000
0000
0000
,  // measure 38
0032
0000
1003
1001
,  // measure 39
1000
0100
0001
0100
,  // measure 40
1000
0000
0001
0000
1000
0001
1000
0000
,  // measure 41
0001
0100
1000
0100
,  // measure 42
0001
0000
1000
0000
0001
1000
0001
0000
,  // measure 43
1000
0100
1000
0000
0100
0000
0010
0000
,  // measure 44
0001
1000
0001
0010
,  // measure 45
0001
0100
0001
0000
0100
0000
0010
0000
,  // measure 46
1000
0001
1001
0000
,  // measure 47
0001
0010
0001
0000
0010
0000
0100
0000
,  // measure 48
1000
0001
1000
0100
,  // measure 49
1000
0010
1000
0000
0010
0000
0100
0000
,  // measure 50
0001
1000
1001
0000
,  // measure 51
0001
1000
0100
0000
0010
0000
0001
0000
,  // measure 52
1000
0001
0100
0010
,  // measure 53
1000
0001
0010
0000
0100
0000
1000
0000
,  // measure 54
0001
0100
0110
0000
,  // measure 55
0000
0000
0000
0000
1000
0010
1000
0000
,  // measure 56
0100
0000
1000
0000
0001
0010
0100
0000
,  // measure 57
0110
0000
0000
0000
1000
0100
0010
0000
,  // measure 58
0001
0000
1000
0000
0001
0100
0010
0000
,  // measure 59
1000
0000
1000
0000
0001
0010
0001
0000
,  // measure 60
0010
0000
0001
0000
1000
0010
0100
0000
,  // measure 61
0110
0000
0000
0000
0001
0010
0100
0000
,  // measure 62
1000
0000
0001
0000
1000
0010
0100
0000
,  // measure 63
2002
0000
3003
0000
1000
0100
0010
0000
,  // measure 64
0001
0000
1000
0000
0001
0100
0010
0000
,  // measure 65
2002
0000
3003
0000
0001
0100
0010
0000
,  // measure 66
1000
0000
0001
0000
1000
0100
0010
0000
,  // measure 67
1001
0220
0000
0000
,  // measure 68
0000
0000
0000
0000
,  // measure 69
0000
0330
0000
0000
;

//---------------dance-single - ----------------
#NOTEDATA:;
#CHARTNAME:;
#STEPSTYPE:dance-single;
#DESCRIPTION:;
#CHARTSTYLE:;
#DIFFICULTY:Medium;
#METER:13;
#RADARVALUES:0.577189,0.654469,0.215745,0.706076,0.102969,412.000000,390.000000,22.000000,72.000000,0.000000,0.000000,0.000000,0.000000,0.000000,0.577189,0.654469,0.215745,0.706076,0.102969,412.000000,390.000000,22.000000,72.000000,0.000000,0.000000,0.000000,0.000000,0.000000;
#CREDIT:10acious_D;
#DISPLAYBPM:85.000000:220.000000;
#NOTES:
// measure 0
0000
0000
0000
0000
,  // measure 1
0000
0000
0000
0000
,  // measure 2
0001
1000
0010
0100
0001
1000
0010
0100
,  // measure 3
2020
0000
0000
3030
,  // measure 4
0202
0000
0303
0001
1000
0100
1000
0010
,  // measure 5
0100
0000
0220
0000
0330
0001
1000
0100
,  // measure 6
1000
0001
0010
0000
0022
0000
0033
0100
,  // measure 7
1000
0010
1000
0001
0010
0100
1000
0001
,  // measure 8
1000
0000
0000
0100
0000
0000
0010
0000
0000
0001
0000
0000
0101
0000
0000
0000
,  // measure 9
0010
0000
0000
1000
0000
0000
0001
0000
0000
0100
0000
0000
1001
0000
0000
0000
,  // measure 10
2200
0000
3300
0100
0010
0001
0100
0001
,  // measure 11
1000
0000
2002
0000
3003
0001
0010
0001
,  // measure 12
1000
0100
0010
0000
0022
0000
0033
0010
,  // measure 13
0001
0100
0010
1000
0001
1000
0100
0010
,  // measure 14
0001
0000
0000
1000
0000
0000
0010
0000
0000
0100
0000
0000
0110
0000
0000
0000
,  // measure 15
0001
0010
0100
1000
0010
0100
0001
1000
,  // measure 16
0000
0000
0000
0000
,  // measure 17
0001
0100
0002
0000
0013
0100
2000
0000
,  // measure 18
3010
1000
0001
1000
0020
0000
0130
0001
,  // measure 19
0010
0001
0200
0000
0301
1000
0020
0000
,  // measure 20
1030
0100
1000
0100
0010
0001
0010
0001
,  // measure 21
0100
0001
2000
0000
3001
1000
0020
0000
,  // measure 22
1030
0010
0100
0010
2000
0000
3001
0100
,  // measure 23
0001
0010
0200
0000
1300
0010
2000
0000
,  // measure 24
3100
0010
0001
0100
0020
0000
0030
0000
,  // measure 25
1000
0001
0100
0010
0100
0010
1000
0001
,  // measure 26
1000
0001
1000
0100
0001
0100
2000
0000
,  // measure 27
3010
0100
0001
0010
0001
0010
0100
1000
,  // measure 28
0100
0000
1000
0000
1010
0000
0000
0101
0000
0000
0011
0000
0000
1100
0000
0000
,  // measure 29
0010
1000
0002
0000
0013
0100
2000
0000
,  // measure 30
3100
0010
0100
0010
0002
0000
1003
0010
,  // measure 31
0100
0010
2000
0000
3001
1000
0200
0000
,  // measure 32
1300
0010
1000
0100
0020
0000
0030
0000
,  // measure 33
0000
0000
0000
0000
0000
0000
0000
0000
1001
0000
0000
0000
0000
0000
0000
0000
0000
0000
0000
0000
0220
0000
0000
0000
0000
0000
0000
0000
0000
0000
0000
0000
0000
0330
0000
0000
0000
0000
0000
0000
0000
0000
0000
0000
0010
0000
0000
0000
,  // measure 34
1000
0000
1000
0100
0000
0100
1000
0000
0002
0000
0000
0000
,  // measure 35
0013
0012
2000
3003
,  // measure 36
0000
0000
0010
1000
0000
1000
0100
0000
0100
0010
0000
0010
,  // measure 37
0002
0000
0000
0003
0000
0202
0000
0000
0000
0303
0000
0000
,  // measure 38
2200
3300
0010
1001
,  // measure 39
1000
0100
0010
0000
0001
0100
0010
0000
,  // measure 40
1000
0001
0100
0000
0001
0010
0100
1000
,  // measure 41
0010
1000
0001
0000
1000
0100
0010
0000
,  // measure 42
0001
0100
0001
0100
0010
1000
0010
1000
,  // measure 43
0200
0000
1300
0010
0200
0000
0301
0010
,  // measure 44
0200
0000
1300
0001
0100
0010
1000
0010
,  // measure 45
2000
0000
3100
0010
0002
0000
0103
0001
,  // measure 46
0010
0100
1000
0001
0200
0000
0300
0000
,  // measure 47
0020
0000
1030
0001
2000
0000
3001
0100
,  // measure 48
0002
0000
0013
0100
1000
0010
1000
0001
,  // measure 49
2000
0000
3100
0010
0002
0000
0103
0010
,  // measure 50
1000
0001
1000
0100
0020
0000
0030
0000
,  // measure 51
0002
0000
0013
0100
2000
0000
3100
1000
,  // measure 52
0020
0000
1030
0010
1000
0100
0010
0001
,  // measure 53
0200
0000
0301
0010
0002
0000
0013
0100
,  // measure 54
1000
0001
0100
0001
2000
0000
3000
0000
,  // measure 55
0000
0000
0000
0000
1000
0001
0000
1000
0001
0000
0010
0000
0200
0000
0000
0000
,  // measure 56
1300
0010
0200
0000
0301
0010
0001
0100
,  // measure 57
2000
0000
3100
0001
1000
0100
2000
0000
,  // measure 58
3001
0010
0200
0000
1300
0010
1000
0010
,  // measure 59
1000
0100
0010
0001
0010
0100
2000
0000
,  // measure 60
3010
1000
0002
0000
0013
0001
0100
0010
,  // measure 61
2000
0000
3100
0010
0001
0100
0001
0100
,  // measure 62
0010
1000
0100
0010
0001
0100
1000
0100
,  // measure 63
0002
0000
0003
0000
0010
0001
0010
0100
,  // measure 64
0010
0001
0010
1000
0010
0100
0010
0001
,  // measure 65
0200
0000
0300
0000
0001
1000
0001
0010
,  // measure 66
0100
1000
0010
0100
0010
1000
0001
0100
,  // measure 67
0110
2002
0000
0000
,  // measure 68
0000
0000
0000
0000
,  // measure 69
0000
0000
0000
0000
,  // measure 70
0000
3003
0000
0000
;

//---------------dance-single - ----------------
#NOTEDATA:;
#CHARTNAME:;
#STEPSTYPE:dance-single;
#DESCRIPTION:;
#CHARTSTYLE:;
#DIFFICULTY:Hard;
#METER:16;
#RADARVALUES:0.766317,0.930035,0.176519,0.539364,0.441298,547.000000,529.000000,18.000000,55.000000,0.000000,0.000000,0.000000,0.000000,0.000000,0.766317,0.930035,0.176519,0.539364,0.441298,547.000000,529.000000,18.000000,55.000000,0.000000,0.000000,0.000000,0.000000,0.000000;
#CREDIT:10acious_D + nobarben;
#DISPLAYBPM:85.000000:220.000000;
#NOTES:
// measure 0
0000
0000
0000
0000
,  // measure 1
0000
0000
0000
0000
,  // measure 2
0001
0001
1000
1000
0010
0010
0100
0100
,  // measure 3
2002
0000
0000
3003
,  // measure 4
0201
0000
0000
0000
0000
0000
0310
1000
0001
0000
0010
0000
0100
1000
0100
1000
,  // measure 5
0100
0000
0000
0000
1200
0000
0000
0000
0000
0000
0310
0001
1000
0000
0010
0000
,  // measure 6
0100
0001
0100
0001
0100
0000
0000
0000
0201
0000
0000
0000
0000
0000
0310
1000
,  // measure 7
0001
0000
0010
0000
0100
1000
0100
1000
0001
0000
1000
0000
0010
0000
0100
0000
,  // measure 8
0010
1000
0000
1000
0001
0000
0001
0010
0000
0010
0100
0000
0010
0000
0110
0000
,  // measure 9
0010
0001
0000
0001
1000
0000
1000
0010
0000
0010
0100
0000
0010
0000
0110
0000
,  // measure 10
2010
0000
0000
0000
3100
0000
0010
0001
1000
0000
0010
0000
0100
0001
0100
0001
,  // measure 11
1000
0000
0100
0000
0012
0000
0000
0000
0103
0000
0010
1000
0001
0000
0010
0000
,  // measure 12
0100
1000
0100
1000
0001
0000
0100
0000
1020
0000
0000
0000
0130
0000
0001
0010
,  // measure 13
0100
0000
1000
0000
0010
1000
0010
1000
0100
0000
0001
0000
0100
0000
1000
0000
,  // measure 14
0100
0010
0000
0010
0001
0000
0001
0100
0000
0100
0010
0000
1000
0000
1010
0000
,  // measure 15
0001
0010
0001
0010
0100
1000
0100
1000
0001
0100
0001
0100
0010
1000
0010
1000
,  // measure 16
0000
0000
0000
0000
,  // measure 17
0001
0100
0010
0100
1000
0100
0010
0100
,  // measure 18
0001
0010
1000
0010
0002
0000
1003
0010
,  // measure 19
0001
0000
0010
0100
0001
0000
0010
0000
1000
0000
0010
0100
1000
0000
0010
0000
,  // measure 20
0001
0000
0010
1000
0001
0000
0010
0000
0100
1000
0100
1000
0001
1000
0001
0000
,  // measure 21
1000
0100
0010
0100
0001
0100
0010
0100
,  // measure 22
1000
0010
0001
0010
2000
0000
3001
0100
,  // measure 23
1000
0000
0100
0010
1000
0000
0100
0000
0001
0000
0100
0010
0001
0000
0100
0000
,  // measure 24
1000
0000
0100
0001
1000
0000
0100
0000
0020
0000
0000
0000
0031
0000
0000
0000
,  // measure 25
0100
0000
0100
0000
0002
0000
0020
0003
0200
0030
0020
0300
2000
0030
0020
3000
,  // measure 26
0200
0030
0020
0300
0002
0030
0200
0003
2000
0300
0200
3000
0002
0300
0000
0000
,  // measure 27
2003
0000
0200
3000
0002
0300
0103
1000
0002
0000
0200
0003
2000
0300
3100
0001
,  // measure 28
2000
0000
0200
3000
0310
0001
0010
0100
1000
0100
1000
0010
1000
0001
0100
0010
,  // measure 29
1000
0010
0100
0010
0001
0010
0100
0010
,  // measure 30
1000
0100
0001
0100
2000
0000
3001
0010
,  // measure 31
1000
0000
0010
0001
1000
0000
0010
0000
0001
0000
0010
1000
0001
0000
0010
0000
,  // measure 32
1000
0000
0010
0001
0100
0000
0010
0000
2000
0000
0000
0000
3001
0000
0000
0000
,  // measure 33
0010
0000
0000
0011
0000
0000
0000
0000
0000
0210
0000
0000
0000
0000
0000
0000
0000
0000
1300
0000
0000
0000
0001
0000
,  // measure 34
0100
0000
0100
0010
0000
1000
0100
0000
0020
0000
0000
0031
,  // measure 35
0100
0000
0000
0000
0000
0000
0202
0000
0000
0003
0000
0000
0310
0000
0000
0000
1000
0000
0001
0000
0000
0000
0000
0000
,  // measure 36
1000
0000
0010
1000
0000
0100
0010
0000
0001
0100
0000
0001
,  // measure 37
2000
0000
0000
3010
0000
0200
0000
0001
0001
0000
0301
0000
,  // measure 38
0220
0000
0000
0000
0330
0000
0000
0000
0002
0000
0000
1003
0200
0000
0310
0000
,  // measure 39
1000
1000
0010
0010
0001
0001
0100
0100
,  // measure 40
1000
1000
0001
0001
0010
0100
0010
1000
,  // measure 41
0100
0100
0010
0010
1000
1000
0001
0001
,  // measure 42
0100
0100
0010
0010
0001
0100
0010
1000
,  // measure 43
0002
0100
1003
0001
0010
0100
1000
0010
,  // measure 44
0100
1000
0001
0010
1000
0100
0010
0001
,  // measure 45
2000
0100
3001
1000
0010
0100
0001
0010
,  // measure 46
0100
1000
0001
0100
0120
0000
0000
0000
,  // measure 47
0031
0010
0100
0001
0010
0100
1000
0010
,  // measure 48
0100
1000
0001
0010
0100
0001
0100
0100
,  // measure 49
1000
0100
0010
1000
0100
0010
0001
0100
,  // measure 50
0010
0001
1000
0100
0210
0000
0000
0000
,  // measure 51
0301
0010
1000
0001
0100
0010
1000
0001
,  // measure 52
0100
1000
0001
0100
0010
1000
0100
0100
,  // measure 53
1000
0010
0001
1000
0100
0010
0001
1000
,  // measure 54
0100
0001
0010
0100
0120
0000
0000
0000
,  // measure 55
0030
0000
0000
0001
1000
0000
0001
0100
0001
0000
0010
0000
1000
0000
0010
0000
,  // measure 56
0001
0100
1000
0100
0001
0010
0100
1000
,  // measure 57
0020
0000
0000
0000
0130
0000
0010
0000
0001
0000
0010
1000
0100
0000
0010
0000
,  // measure 58
1000
0000
0010
0001
0100
0000
0010
0000
0001
0000
0010
1000
0001
0000
0010
0000
,  // measure 59
0100
1000
0100
1000
0001
1000
0001
0000
1000
0000
0100
0000
0001
0000
0100
0000
,  // measure 60
1000
0010
0001
0010
1000
0100
0010
0001
,  // measure 61
0200
0000
0000
0000
0310
0000
0100
0000
1000
0000
0100
0001
0010
0000
0100
0000
,  // measure 62
0001
0000
0100
1000
0010
0000
0100
0000
1000
0000
0100
0001
1000
0000
0100
0000
,  // measure 63
0020
0000
0000
0000
0031
0000
0000
0000
0010
0000
0001
0100
1000
0000
0100
0000
,  // measure 64
0010
0000
1000
0100
0001
0000
0100
0000
0010
0000
1000
0010
0001
0000
1000
0000
,  // measure 65
0020
0000
0000
0000
1030
0000
0000
0000
0100
0000
1000
0010
0001
0000
0010
0000
,  // measure 66
0100
0000
0001
0010
1000
0000
0010
0000
0100
0000
0001
0100
1000
0000
0010
0000
,  // measure 67
0110
2000
0002
0000
0000
0000
0000
0000
,  // measure 68
0000
0000
0000
0000
,  // measure 69
0000
0000
0000
0000
,  // measure 70
0000
3003
0000
0000
;

//---------------dance-double - ----------------
#NOTEDATA:;
#CHARTNAME:;
#STEPSTYPE:dance-double;
#DESCRIPTION:;
#CHARTSTYLE:;
#DIFFICULTY:Hard;
#METER:16;
#RADARVALUES:0.742501,0.895589,0.117679,0.431491,0.416781,530.000000,518.000000,12.000000,44.000000,0.000000,0.000000,0.000000,0.000000,0.000000,0.742501,0.895589,0.117679,0.431491,0.416781,530.000000,518.000000,12.000000,44.000000,0.000000,0.000000,0.000000,0.000000,0.000000;
#CREDIT:nobarben;
#DISPLAYBPM:85.000000:220.000000;
#NOTES:
00000000
00000000
00000000
00000000
,
00000000
00000000
00000000
00000000
,
00000001
00000100
00000010
00001000
00010000
01000000
00100000
10000000
,
20020000
00000000
00000000
30030000
,
20000000
00000000
00000000
00000000
00000000
00000000
31000000
00100000
01000000
00000000
00100000
00000000
00010000
00100000
00010000
00100000
,
00010000
00000000
00000000
00000000
02000000
00000000
00000000
00000000
00000000
00000000
03100000
00010000
00100000
00000000
00010000
00000000
,
00001000
00010000
00001000
00010000
00001000
00000000
00000000
00000000
00020000
00000000
00000000
00000000
00000000
00000000
00030100
00001000
,
00000100
00000000
00000010
00000000
00000001
00000100
00000001
00000100
00000001
00000000
00000010
00000000
00000100
00000000
00001000
00000000
,
00000001
00000100
00000000
00000001
00000100
00000000
00000010
00001000
00000000
00000010
00001000
00000000
00000100
00000000
00000100
00000000
,
00010000
00001000
00000000
00010000
00001000
00000000
01000000
00010000
00000000
01000000
00010000
00000000
10000000
00000000
10000000
00000000
,
02000000
00000000
00000000
00000000
03100000
00000000
00010000
00100000
00001000
00000000
00010000
00000000
00000100
00010000
00000100
00010000
,
00000100
00000000
00001000
00000000
00000020
00000000
00000000
00000000
00000130
00000000
00000010
00001000
00000001
00000000
00000010
00000000
,
00000100
00001000
00000100
00001000
00000100
00000000
00010000
00000000
00002000
00000000
00000000
00000000
01003000
00000000
00010000
01000000
,
00100000
00000000
10000000
00000000
01000000
00100000
01000000
00100000
00010000
00000000
10000000
00000000
00100000
00000000
01000000
00000000
,
00010000
00100000
00000000
00010000
00100000
00000000
00001000
00010000
00000000
00001000
00010000
00000000
00000100
00000000
00000100
00000000
,
00000010
00000001
00000010
00000001
00001000
00000100
00001000
00000100
00010000
00001000
00010000
00001000
01000000
00010000
01000000
00010000
,
00000000
00000000
00000000
00000000
,
10000000
01000000
00010000
01000000
00100000
00001000
00010000
00100000
,
00010000
00001000
00000100
00000001
00000020
00000000
00000130
00000010
,
00000001
00000000
00000100
00000010
00000100
00000000
00001000
00000000
00010000
00000000
00001000
00010000
00001000
00000000
00010000
00000000
,
01000000
00000000
00100000
01000000
00100000
00000000
00010000
00000000
10000000
00000000
00010000
01000000
00010000
01000000
00100000
00000000
,
10000000
01000000
00010000
01000000
00100000
00001000
00010000
00100000
,
00010000
00001000
00000100
00000001
00000020
00000000
00000130
00000010
,
00000001
00000000
00000100
00000010
00000100
00000000
00001000
00000000
00010000
00000000
00001000
00010000
00001000
00000000
00010000
00000000
,
01000000
00000000
00100000
01000000
00100000
00000000
00010000
00000000
00002000
00000000
00000000
00000000
00003100
00000000
00000000
00000000
,
00000010
00000010
00000002
00000203
00002300
00003200
00000320
00020030
,
00032000
00003020
00002030
00023000
02030000
23000000
30200000
00000000
,
02300000
00000000
03200000
00000000
20300000
00000000
31000000
00100000
02000000
00000000
03020000
00000000
00032000
00000000
00013000
00001000
,
00010000
00000000
00010000
00000000
00001000
00010000
00000100
00001000
00000100
00010000
00001000
00010000
00000100
00001000
00000100
00000010
,
00000001
00000100
00001000
00000100
00000010
00010000
00001000
00000010
,
00001000
00010000
01000000
10000000
00200000
00000000
01300000
00100000
,
10000000
00000000
01000000
00100000
01000000
00000000
00010000
00000000
00001000
00000000
00010000
00001000
00010000
00000000
00001000
00000000
,
00000100
00000000
00000010
00000100
00000010
00000000
00001000
00000000
00000002
00000000
00000000
00000000
00001003
00000000
00000000
00000000
,
00000001
00000000
00000000
00000010
00000000
00000000
00000000
00000000
00000000
00000210
00000000
00000000
00000000
00000000
00000000
00000000
00000000
00000000
00001300
00000000
00000000
00000000
00000001
00000000
,
00000100
00000000
00000100
00000010
00000000
00001000
00000100
00000000
00020000
00000000
00000000
01030000
,
00100000
00000000
00000000
00102000
00000000
00000000
00013000
00000000
00001000
00010000
00000000
00000000
,
00000100
00000000
00001000
00000001
00000000
00000100
00000010
00000000
00000001
00000010
00000000
00001000
,
00000200
00000000
00000000
00010300
00000000
00002000
00000000
00010000
00010000
00000000
00013000
00000000
,
00022000
00033000
00101000
00110000
,
01000000
01000000
00100000
00100000
00010000
00010000
01000000
01000000
,
10000000
10000000
00010000
00010000
00100000
01000000
00100000
10000000
,
01000000
01000000
00100000
00100000
00001000
00001000
00010000
00010000
,
00000100
00000100
00000010
00000010
00000001
00000010
00000100
00001000
,
00000001
00000100
00000010
00001000
00000100
00000010
00001000
00010000
,
00000010
00001000
00010000
01000000
00001000
00010000
01000000
01000000
,
10000000
00100000
01000000
00010000
00100000
01000000
00010000
00001000
,
01000000
00010000
00001000
00000020
00000100
00000000
00000000
00000000
,
00000031
00000010
00000100
00000001
00000010
00000100
00001000
00000010
,
00000100
00001000
00010000
00000100
00001000
00010000
00100000
00100000
,
10000000
00100000
01000000
10000000
00100000
01000000
00010000
00100000
,
01000000
00010000
00001000
00000010
00000110
00000000
00000000
00000000
,
00000001
00000100
00000010
00001000
00010000
01000000
00100000
10000000
,
01000000
00100000
00010000
00001000
00000100
00000010
00000001
00001000
,
00000001
00000100
00000010
00001000
00010000
01000000
00100000
10000000
,
01000000
00100000
00001000
00010000
00011000
00000000
00000000
00000000
,
00000000
00000000
00000000
00000000
00001000
00010000
01000000
00100000
,
00001000
00000100
00000010
00010000
00001000
00100000
01000000
00010000
,
00002000
00000000
00000000
00000000
00003100
00000000
00000001
00000000
00000010
00000000
00000100
00001000
00000001
00000000
00000100
00000000
,
00001000
00000000
00010000
00001000
00100000
00000000
00010000
00000000
01000000
00000000
00100000
10000000
00010000
00000000
00100000
00000000
,
01000000
00000000
00100000
00001000
00100000
00001000
00010000
00000000
00001000
00000000
00010000
00000000
01000000
00000000
00100000
00000000
,
00001000
00000100
00000010
00010000
00001000
00100000
01000000
00010000
,
00002000
00000000
00000000
00000000
00003100
00000000
00000001
00000000
00000010
00000000
00000100
00001000
00000001
00000000
00000100
00000000
,
00001000
00000000
00010000
00001000
00100000
00000000
00010000
00000000
01000000
00000000
00100000
10000000
00010000
00000000
00100000
00000000
,
01100000
00000000
00000000
00000000
00000000
00000000
00000000
00000000
01000000
00000000
00100000
00010000
10000000
00000000
00100000
00000000
,
00010000
00000000
00001000
00010000
00000100
00000000
00001000
00000000
00000010
00000000
00000100
00000001
00001000
00000000
00000100
00000000
,
00000110
00000000
00000000
00000000
00000000
00000000
00000000
00000000
00000010
00000000
00000100
00001000
00000001
00000000
00000100
00000000
,
00001000
00000000
00010000
00001000
00100000
00000000
00010000
00000000
01000000
00000000
00100000
10000000
00010000
00000000
00100000
00000000
,
01100000
20020000
00000000
00000000
,
00000000
00000000
00000000
00000000
,
00000000
00000000
00000000
00000000
,
00000000
30030000
00000000
00000000
;
