#TITLE:Crazy Shuffle;
#ARTIST:Yooh;
#BANNER:Crazy Shuffle-bn.png;
#BACKGROUND:Crazy Shuffle-bg.png;
#JACKET:Crazy Shuffle-jacket.png;
#MUSIC:Crazy Shuffle.ogg;
#SAMPLESTART:95.591;
#SAMPLELENGTH:20;
#DISPLAYBPM:128;
#BPMS:0=128;
#BGCHANGES:;

//---------------dance-single - ----------------
#NOTES:
     dance-single:
     :
     Beginner:
     2:
     :
0000
0000
0000
0000
,
0000
0000
0000
0000
,
0000
0000
0000
0000
,
0000
0000
0000
0000
,
0000
0000
0000
0000
,
0001
0000
0001
0000
,
0001
0000
0000
0000
,
1000
0000
1000
0000
,
1000
0000
0000
0000
,
2000
0000
0000
0000
,
3000
0000
0000
0000
,
0002
0000
0000
0000
,
0003
0000
0000
0000
,
0001
0000
0001
0000
,
0010
0000
1000
0000
,
1000
0000
1000
0000
,
1001
0000
0000
0000
,
1000
0000
0100
0000
,
0010
0000
0010
0000
,
0001
0000
0100
0000
,
0010
0000
0010
0000
,
1000
0000
0010
0000
,
0100
0000
0100
0000
,
0001
0000
0010
0000
,
0200
0000
0000
0000
,
0300
0000
0000
0000
,
1001
0000
0000
0000
,
0001
0000
0001
0000
,
0010
0000
0010
0000
,
0100
0000
0100
0000
,
1000
1000
1000
0000
,
0010
0000
1000
0000
,
1001
0000
0000
0000
,
0000
0000
0000
0000
,
0001
0000
0100
0000
,
0010
0000
0100
0000
,
1000
1000
1000
0000
,
1000
0000
0100
0000
,
0010
0000
0100
0000
,
1000
0000
0010
0000
,
0001
0001
0001
0000
,
0002
0000
0000
0000
,
0003
0000
0000
0000
,
2000
0000
0000
0000
,
3000
0000
0000
0000
,
1001
0000
0000
0000
,
1001
0000
0000
0000
,
1001
0000
0000
0000
,
0000
0000
0000
0000
,
0010
0000
0010
0000
,
0010
0010
0010
0000
,
0010
0000
0001
0000
,
0100
0000
0100
0000
,
0001
0000
0100
0000
,
1000
0000
1000
0000
,
0100
0000
1000
0000
,
0010
0000
0010
0000
,
1000
1000
1000
0000
,
0100
0000
0000
0000
,
0001
0001
0001
0000
,
0100
0000
0000
0000
,
0001
0000
0010
0000
,
0100
0100
0100
0000
,
1000
0000
0010
0000
,
0100
0100
0100
0000
,
1001
0000
0000
0000
,
0000
0000
0000
0000
;

//---------------dance-single - ----------------
#NOTES:
     dance-single:
     :
     Easy:
     5:
     :
0000
0000
0000
0000
,
0000
0000
0000
0000
,
0000
0000
0000
0000
,
0000
0000
0000
0000
,
0000
0000
0000
0000
,
1000
0000
0001
0000
,
1000
0000
1000
0000
,
0001
0000
1000
0000
,
0001
0001
0001
1000
,
0001
0100
1000
0100
,
0001
0100
1000
0100
,
0001
0010
1000
0010
,
0100
0100
0100
0000
,
1000
0000
0100
0000
,
0010
0000
0001
0000
,
0100
0001
1000
0010
,
1001
0000
0110
1001
,
0001
0100
0010
0100
,
0001
0000
1000
1001
,
1000
0100
0010
0100
,
1000
0000
0001
1001
,
0010
0100
1000
0000
,
0010
0100
0001
0000
,
1000
0001
0100
0010
,
0100
0100
0010
0010
,
2000
3100
0002
0103
,
2000
3100
0001
1000
,
0002
0013
2000
3010
,
0002
0013
1000
0001
,
1000
0100
0001
1001
,
0001
0100
1000
1001
,
0002
0013
2000
3100
,
0001
1000
0001
1001
,
2000
0000
3010
0000
,
0002
0000
0013
0000
,
2000
0000
3100
0000
,
0001
0001
0001
0100
,
0001
0100
1000
0100
,
0001
0010
1000
0010
,
0001
0000
1000
0001
,
0010
0010
0100
1000
,
2000
0000
3000
0000
,
0002
0000
0003
0000
,
2000
0000
0000
0000
,
3002
0000
0000
0000
,
2003
0000
3002
0000
,
2003
0000
3002
0000
,
0103
0010
0100
0010
,
0200
0300
0010
0110
,
1001
1001
0100
1001
,
0010
0010
1000
0100
,
0001
0100
0010
0100
,
0001
0000
1000
1001
,
0002
0003
2000
3000
,
0001
1000
0001
0001
,
1000
0100
0010
0100
,
1000
1000
1000
0001
,
2000
3001
0100
0010
,
0002
1003
0100
0010
,
0001
0100
0001
0100
,
0001
0000
1000
1001
,
0002
1003
2000
3001
,
0010
0100
0010
0110
,
1000
1001
0001
1001
,
0100
0010
0100
0010
,
0110
0000
0000
0000
,
0000
0000
0000
0000
;

//---------------dance-single - ----------------
#NOTES:
     dance-single:
     :
     Medium:
     10:
     :
0000
0000
0000
0000
,
0000
0000
0000
0000
,
0000
0000
0000
0000
,
0000
0000
0000
0000
,
0000
0000
0000
0000
,
0001
0010
0100
1000
,
0001
0010
0100
1000
,
0010
0001
0100
1000
,
0002
0010
0100
1003
,
0001
0100
0010
0100
0001
0000
0010
0000
,
0001
0100
0010
0100
0001
0000
0010
0000
,
1002
0010
0100
1000
,
2003
0100
0010
3001
,
0002
0100
2003
0100
,
3002
0100
2003
0100
,
3001
0100
1000
0100
0001
0100
1000
0100
,
0002
1000
2003
0000
3001
0000
1001
0000
,
0001
0100
0010
0100
0001
0100
0010
1000
,
0001
0100
0010
0100
0001
0100
0001
0000
,
1000
0100
0010
0100
1000
0100
0010
0001
,
1000
0100
1000
0100
1000
0000
0110
0000
,
0010
1000
0010
1000
0001
0100
0001
0100
,
0010
1000
0010
0100
0001
0100
0001
0000
,
1000
0100
1000
0100
0010
0001
0010
0000
,
2001
0100
3001
1001
,
0001
0001
0200
0000
1300
0100
0001
0100
,
0010
0001
1000
0100
0010
0100
2000
0000
,
3001
0100
0001
0100
0001
0010
1000
0010
,
0001
0100
0010
1000
0020
0000
0001
0000
,
0100
1000
0230
0010
,
0001
1000
0001
0302
,
0103
0010
1000
0100
0010
0001
1000
0100
,
0020
0001
1000
0031
,
1001
0000
0000
0110
,
0002
2003
3002
2003
,
3001
0100
2000
0000
3100
0010
0002
0000
,
0023
0100
0100
2030
,
3200
2300
3002
0023
,
0001
0001
1000
0031
,
1000
0100
1000
0100
0010
0001
0010
0001
,
0020
0001
1000
0031
,
1001
0001
0100
0010
,
0100
1000
0010
0100
,
0110
0100
0010
0100
,
1001
0001
1000
1000
,
0020
0001
0230
1000
,
0320
0001
0230
1000
,
0320
0230
0320
0230
,
0002
0000
0000
0303
,
1001
0000
0110
0000
,
1001
0110
1001
1001
,
0001
0100
0010
1000
0001
0100
0010
0100
,
0001
0100
0001
0100
0010
0100
0001
0000
,
1000
0100
0010
0001
1000
0100
0010
0100
,
1000
0100
1000
0100
1000
0100
0110
0000
,
0010
1000
0010
1000
0001
0100
0001
0100
,
0002
0010
0103
1001
,
0001
0010
0001
0000
0001
0100
0010
1000
,
0001
0100
0001
0000
1000
0010
1000
0000
,
0001
0010
0001
0000
0001
0100
0010
0100
,
0001
0010
0001
0000
1000
0100
1000
0000
,
0001
0010
0001
0000
0010
0100
0010
1000
,
0001
0010
0001
0000
2002
0000
3003
0000
,
0020
0230
0320
0230
,
0320
0100
0001
1030
,
1001
0000
0000
0000
,
0000
0000
0000
0000
;

//---------------dance-single - ----------------
#NOTES:
     dance-single:
     :
     Hard:
     13:
     :
0000
0000
0000
0000
,
0000
0000
0000
0000
,
0000
0000
0000
0000
,
0000
0000
0000
0000
,
0000
0000
0000
0000
,
0000
0001
0000
1000
,
0000
0001
0000
1000
,
0000
0001
0000
1000
,
0000
0001
0000
1000
,
0001
0000
0000
0100
0000
0000
0010
0000
0000
1000
0000
0000
1001
0000
1000
0100
,
0010
0000
0000
0001
0000
0000
0100
0000
0000
0010
0000
0000
0110
0000
0001
0000
,
1000
0000
0000
0010
0000
0000
0100
0000
0000
0001
0000
0000
1001
0000
0000
0000
,
0010
0000
0010
0000
0010
0000
0100
0100
,
0001
0010
0001
0010
0100
1000
0100
1000
,
0010
1000
0010
1000
0001
0100
0001
0100
,
0010
0010
0010
0010
0010
0010
0010
0010
,
0010
0000
1000
0100
0000
0000
1000
0000
0000
0001
0000
0100
0000
0000
0000
0010
0000
0000
1001
0000
0000
0000
0000
0000
,
1000
0000
0010
0100
0000
0000
0001
0000
0000
1000
0000
0000
0100
0000
0000
0001
0000
0000
0100
0000
0000
1000
0000
0000
,
0001
0000
0100
0010
0000
0000
1000
0000
0000
0001
0000
0000
0010
0000
0000
0100
0000
0000
0110
0000
0000
0000
0000
0000
,
0001
0000
0010
0100
0000
0000
1000
0000
0000
0001
0000
0000
0100
0000
0000
1000
0000
0000
0100
0000
0000
0001
0000
0000
,
1000
0000
0100
0010
0000
0000
0001
0000
0000
1000
0000
0000
0010
0000
0000
0100
0000
0000
0110
0000
0000
0000
0000
0000
,
1000
0000
0001
0100
0000
0000
0010
0000
0000
0100
0000
0000
0001
0000
1000
0100
0000
0000
0010
0000
0000
0100
0000
0000
,
1000
0000
0001
0100
0000
0000
0010
0000
0000
0100
0000
0000
0001
0000
1000
0100
0000
0000
0110
0000
0000
0000
0000
0000
,
1000
0010
0001
0010
0000
0000
0010
1000
,
0002
0000
0000
0203
0000
0000
0320
0000
0000
1030
0000
0000
1001
0000
0000
0000
,
1000
0000
0000
1000
0000
0000
1001
0000
0000
0000
0000
0000
0001
0000
0010
0001
0000
0010
0000
0000
0100
0000
0000
0100
,
0000
0000
0000
1000
0000
0000
1001
0000
0000
0000
0000
0000
1000
0000
0010
1000
0000
0010
0000
0000
0100
0010
0000
0000
,
0100
0000
0000
0001
0000
0000
1001
0000
0000
0000
0000
0000
0001
0000
0100
0001
0000
0100
0000
0000
0010
0000
0000
0010
,
0000
0000
0000
0100
0000
0000
0110
0000
0000
0000
0000
0000
1000
0000
0100
1000
0000
0100
0020
0000
0000
0000
0000
0000
,
0031
0000
0000
1000
0000
0000
0110
0000
0000
0000
0000
0000
0001
0000
0100
0010
0000
0100
0000
0000
0010
0000
0000
0010
,
1000
0000
0001
0100
0000
0000
0001
0000
1000
0100
0000
0000
1000
0000
0001
0100
0000
0000
0010
0000
0000
0010
0000
0000
,
0100
0000
0000
0100
0000
0000
0100
0000
0000
0000
0000
0000
0001
0000
1000
0001
0000
1000
0000
0000
0010
0000
0000
0010
,
0200
0000
0000
0302
0000
0000
2003
0000
0000
3001
0000
0000
1001
0000
0000
0000
,
2002
0000
0000
3003
,
0001
0000
0100
0000
0001
0000
1000
0100
0000
0000
0100
0000
0110
0000
0000
0000
,
1000
0000
0100
0000
1000
0000
0001
0100
0000
0000
0100
0000
0110
0000
0000
0000
,
0010
0000
1000
0000
0010
0000
0100
0001
0000
0010
0001
0000
0200
0000
0000
0000
,
0301
0000
0100
0000
1000
0000
0100
0001
0000
0000
1000
0000
1001
0000
0000
0000
,
1000
0000
0100
0000
0001
0000
0100
1000
0000
0000
0001
0000
1001
0000
1000
0000
,
0010
0000
1000
0000
0100
0000
0010
0100
0000
0000
0010
0000
0110
0000
0010
0000
,
0001
0101
1100
0101
,
2000
0100
0100
0100
,
3002
0100
0100
0100
,
2003
0010
0010
0010
,
3002
0010
0010
0010
,
1003
0010
1000
0010
0100
0001
0100
0001
,
1000
0010
1000
0010
0100
0001
0100
0001
,
1000
0000
0001
0100
0000
0000
0001
0000
1000
0100
0000
0000
1000
0000
0001
0010
0000
0000
0001
0000
1000
0010
0000
0000
,
0100
0100
0100
0110
,
0010
1001
0010
1001
,
0010
0010
0010
1001
,
0001
0000
0000
1000
0000
0000
0100
0000
0000
0010
0000
0000
0001
0000
0010
0100
0000
1000
0100
0000
0010
0001
0000
1000
,
0001
0100
0010
1000
0001
1000
0002
0000
,
1003
0000
0000
0001
0000
0000
0100
0000
0000
0010
0000
0000
1000
0000
0010
0100
0000
0001
1000
0000
0001
0100
0000
0010
,
1000
0100
0010
0001
0100
0010
0200
0000
,
0301
0000
0000
0100
0000
0000
0010
0000
0000
0100
0000
0000
0010
0000
1000
0010
0000
0100
0001
0000
1000
0001
0000
0100
,
0020
0000
0000
2030
0000
0000
3200
0000
0000
0310
0000
0000
0110
0000
0000
0000
,
0001
0101
0000
1100
0000
1010
0000
0011
,
0001
0000
0000
1000
0000
0000
0100
0000
0000
0010
0000
0000
0001
0000
0100
0010
0000
0100
0020
0000
0000
0130
0000
0000
,
0000
0101
0000
0011
0000
1010
0000
1100
,
1000
0000
0000
0100
0000
0000
0010
0000
0000
0001
0000
0000
1000
0000
0010
0100
0000
0010
0200
0000
0000
0000
0000
0000
,
0301
0100
1000
0100
0001
0010
0100
1000
,
0010
0000
0100
0010
0000
0000
0010
0000
0100
0010
0000
0000
0010
0000
0100
0010
0000
0000
0100
0000
0100
0000
0100
0000
,
0001
0010
0100
0010
0001
1000
0100
0010
,
0002
0000
0000
2003
0000
0000
3020
0000
0000
0130
0000
0000
0110
0000
0000
0000
,
1001
0000
0000
0000
,
0000
0000
0000
0000
;

//---------------dance-single - ----------------
#NOTES:
     dance-single:
     :
     Challenge:
     16:
     :
0000
0000
0000
0000
,
0000
0000
0000
0000
,
0000
0000
0000
0000
,
0000
0000
0000
0000
,
0000
0000
0000
0000
,
0020
0000
0000
0000
1030
0000
0001
0000
0000
0100
0000
0000
0010
0000
1000
0000
,
0100
0000
0000
0010
0000
0000
0001
0000
0000
1000
0000
0000
0100
0000
1000
0000
,
0002
0000
0000
0000
0013
0000
0001
0000
0000
1000
0000
0000
0010
0000
0100
0000
,
0002
0000
0203
0000
0320
0000
1030
0001
,
1001
0000
0000
1000
0010
0000
0100
0001
0000
0100
0001
0000
0010
0000
0100
0000
,
1000
0000
0000
0010
1000
0000
0001
0010
0000
0001
0100
0000
0010
0000
1000
0000
,
0100
0010
0000
0010
0001
0000
1000
0001
0000
0001
0100
0000
0010
0000
1000
0000
,
0100
1000
0000
1000
0001
0000
1000
0010
0000
0100
0001
0000
0010
0000
0100
0000
,
1000
0000
0010
1000
0000
0010
1000
0000
0010
1000
0000
0010
0100
0000
0001
0100
0000
0001
0100
0000
0001
0100
0000
0001
,
1000
0000
0100
1000
0000
0100
1000
0000
0100
1000
0000
0100
0010
0000
0001
0010
0000
0001
0010
0000
0001
0010
0000
0001
,
0100
0100
0010
0010
1000
1000
0001
0001
,
0010
0000
0010
0001
0000
0001
1000
0000
1000
0010
0000
0010
1000
0000
0000
0100
0000
0000
1001
0000
0000
1001
0000
0000
,
0110
0000
0010
1000
0000
0000
0100
0000
0000
0001
0000
0000
0010
0000
0001
0100
0000
0010
0000
0000
1000
0000
0000
0001
,
0010
0000
0010
0100
0000
0000
1000
0000
0000
0001
0000
0000
0010
0000
0100
0010
0000
0001
0000
0000
2000
3000
0000
0000
,
0100
0000
1000
0001
0000
0000
0010
0000
0000
0100
0000
0000
0010
0000
0001
1000
0000
0001
0000
0000
0100
0000
0000
1000
,
0100
0000
1000
0001
0000
0000
0010
0000
0000
0100
0000
0000
1000
0000
1000
0001
0000
0001
0200
0000
0000
0000
0000
0000
,
0310
0000
1000
0100
0000
0000
1000
0000
0000
0001
0000
0000
0010
0000
0100
1000
0000
0010
0000
0000
1000
0000
0000
0001
,
0010
0000
0010
0001
0000
0000
0100
0000
0000
0010
0000
0000
1000
0000
0001
1000
0000
0010
1000
0000
0100
0001
0000
0000
,
0010
0000
0001
1000
0000
0000
1100
0000
0000
0010
0000
0000
0001
0000
0100
0010
0000
0100
0001
0000
1000
0100
0000
0010
,
0001
0000
1000
0010
0000
1000
0100
0000
0010
0001
0000
0001
1000
0000
0100
0000
,
0110
0000
0000
0110
0000
0000
1001
0000
0000
0010
0000
0000
1000
0000
0100
1000
0000
0001
0000
0000
0010
0001
0000
0100
,
0001
0000
0001
1000
0000
0000
1100
0000
0000
0010
0000
0000
0100
0000
0001
0010
0000
0001
2000
0000
0010
0000
0000
0000
,
3100
0000
1000
0001
0000
0000
0011
0000
0000
0100
0000
0000
1000
0000
0010
1000
0000
0001
0010
0000
0100
1000
0000
0001
,
0000
0000
0100
0010
0000
0000
1000
0000
0000
0001
0000
0000
0010
0000
0010
0100
0000
0100
2000
0000
0000
0000
0000
0000
,
3001
0000
0001
0010
0000
0000
1001
0000
0000
0100
0000
0000
0010
0000
1000
0100
0000
0001
0000
0000
1000
0000
0000
0001
,
0010
0000
0010
0100
0000
0000
1100
0000
0000
0101
0000
0000
1000
0000
0010
0100
0000
0001
2000
0000
0000
3002
0000
0000
,
0103
0000
0010
1000
0000
0000
0110
0000
0000
0001
0000
0000
1000
0000
1000
0001
0000
0010
0001
0000
0100
1000
0000
0000
,
0010
0000
0000
1000
0001
0000
0020
0000
0000
0230
0000
0000
2300
0000
0000
0000
,
3001
0000
0000
0000
0000
0000
0100
0000
0000
0100
0000
0000
0000
0000
0000
0000
0000
0010
1000
0000
1000
0001
0000
0001
,
0010
0000
0000
0000
0100
0000
1000
0000
0000
0000
0000
0000
1001
0000
0000
0000
0000
0000
0010
0000
0000
0000
0000
0000
0000
0000
0000
0100
0000
0000
0001
0000
0000
0000
0000
0000
1000
0000
0000
0000
0000
0000
0001
0000
0000
0000
0000
0000
,
1000
0100
0000
1000
0100
0000
0010
0001
0000
0010
0001
0000
0100
0000
0010
0000
,
1000
0000
0000
0010
0000
0000
0000
0000
0000
1000
0000
0000
0010
0000
0000
0000
0000
0000
0100
0000
0000
0001
0000
0000
0000
0000
0000
0100
0000
0000
0001
0000
0000
0000
0000
0000
1000
0000
0000
0000
0100
0000
0010
0000
0000
0000
0001
0000
,
0100
0000
0000
0000
0010
0000
1000
0000
0000
0000
0001
0000
0100
0000
0000
0000
0000
0000
0010
0000
0000
1000
0000
0000
0000
0000
0000
1000
0000
0000
0001
0000
0000
0000
0000
0000
0010
0000
0000
0000
0000
0000
0100
0000
0000
0000
0000
0000
,
1000
0000
0000
0001
0000
0000
0000
0000
0000
1000
0000
0000
0001
0000
0000
0000
0000
0000
0010
0000
0000
0100
0000
0000
0000
0000
0000
0010
0000
0000
0100
0000
0000
0000
0000
0000
1000
0000
0000
0000
0001
0000
0100
0000
0000
0000
0000
0000
,
0010
0000
0000
1000
0000
0000
0000
0000
0000
1000
0000
0000
0001
0000
0000
0000
0000
0000
0100
0000
0000
0001
0000
0000
0000
0000
0000
0001
0000
0000
1000
0000
0000
0000
0000
0000
0010
0000
0000
0000
0100
0000
0001
0000
0000
0000
0000
0000
,
1010
0000
0000
0100
0000
0000
0011
0000
0000
0100
0000
0100
1000
0000
0001
0000
0000
1000
0010
0000
0100
0001
0010
0100
,
2000
0000
0000
0000
0000
0000
3001
0000
0000
0100
0000
0000
0010
0000
1000
0100
0000
0000
0001
0000
0000
1000
0000
0001
,
0100
0000
0000
0000
0000
0010
1000
0000
0000
0001
0000
0000
1000
0000
0100
0010
0000
0000
0001
0000
0000
0100
0000
0001
,
0200
0000
0000
0000
0000
0000
0301
0000
0000
1000
0000
0000
0001
0000
0010
0100
0000
0000
1000
0000
0000
0010
0000
1000
,
0100
0000
0000
0010
0000
0001
0100
0000
0000
0010
0000
0000
1000
0000
0100
1000
0000
0010
1000
0000
0001
0100
0000
0000
,
0110
0000
0001
1000
0000
1000
0001
0000
0001
0100
0000
0000
0110
0000
0010
1000
0000
1000
0100
0000
0100
0001
0000
0000
,
1001
0000
0010
1000
0000
0001
0010
0000
0001
0100
0000
0010
1000
0000
0100
1000
0000
0010
1000
0000
0100
0010
0000
0001
,
0100
0000
0000
0100
0000
0000
0010
0000
0000
0010
0000
0000
1000
0000
1000
0001
0000
0001
0010
0000
0001
0100
0000
1000
,
0001
0000
0000
0100
0000
0000
1000
0000
0000
0010
0000
0000
0100
0000
0000
0001
0000
1000
0001
0000
0010
0100
0000
0000
,
1000
0000
0010
1000
0000
0010
1000
0000
0000
0000
0000
0000
0001
0000
0010
0001
0000
0010
0001
0000
0000
0000
0000
0000
,
0100
0000
1000
0100
0000
0001
0100
0000
1000
0100
0000
0001
0100
0000
1000
0100
0000
0001
0100
0000
0000
0100
0000
0000
,
1001
0000
0010
1000
0000
0000
0100
0000
0000
0001
0000
0000
0010
0000
0001
1000
0000
0001
1000
0000
0010
0100
0000
0001
,
0010
0000
0010
0100
0000
0000
1000
0000
0000
0001
0000
0000
1000
0000
0010
0001
0000
0100
0020
0000
1030
0000
0000
0000
,
0100
0000
1000
0001
0000
0000
0101
0000
0000
0010
0000
0000
0100
0000
0010
1000
0000
0100
1000
0000
0001
0010
0000
0001
,
1000
0000
0100
0001
0000
0000
0010
0000
0000
0100
0000
0000
1000
0000
1000
0001
0000
0001
0010
0000
0010
0100
0000
0000
,
1100
0000
0001
1000
0000
0000
0010
0000
0000
0100
0000
0000
0010
0000
1000
0100
0000
0010
0001
0000
0100
1000
0000
0000
,
0001
0010
0000
0010
1000
0000
0001
0100
0000
0100
1000
0000
0010
0000
0100
0000
,
0001
0000
0010
1000
0000
0000
0100
0000
0000
1000
0000
0000
0010
0000
1000
0001
0000
0010
0100
0000
1000
0000
0000
0001
,
1000
0000
0010
0100
0000
0000
0001
0000
0000
1010
0000
0000
0100
0000
0001
0010
0000
0001
2000
0000
3100
0000
0000
0000
,
1000
0000
1000
0001
0000
0000
0010
0000
0000
1000
0000
0000
0100
0000
0100
0010
0000
0100
0010
0000
0001
0000
0000
1000
,
0001
0000
0100
0010
0000
0000
1000
0000
0000
0001
0000
0000
1000
0000
1000
0100
0000
0100
0020
0000
0000
0032
0000
0000
,
0103
0000
0010
1000
0000
0000
0001
0000
0000
0010
0000
0000
1000
0000
0100
1000
0000
0001
0010
0000
0010
0100
0000
1000
,
0001
0000
0100
0001
0000
0000
1001
0000
0000
0110
0000
0000
1000
0000
0010
1000
0100
0010
0001
0000
0001
0000
0001
0000
,
0010
0000
0001
0100
0000
0000
1001
0000
0000
0100
0000
0000
0010
0000
1000
0100
0000
1000
0001
0000
0010
0100
0000
1000
,
0001
0100
0000
0010
1000
0000
0100
0010
0000
0001
1000
0000
2010
0000
0000
0000
,
3002
0003
0000
0000
;

//---------------dance-double - ----------------
#NOTES:
     dance-double:
     :
     Easy:
     5:
     :
00000000
00000000
00000000
00000000
,
00000000
00000000
00000000
00000000
,
00000000
00000000
00000000
00000000
,
00000000
00000000
00000000
00000000
,
00000000
00000000
00000000
00000000
,
00010000
00000000
00000100
00000000
,
00001000
00000000
00001000
00000000
,
00000010
00000000
00010000
00000000
,
00001000
00001000
00001000
00010000
,
00001000
00010000
00100000
00010000
,
00001000
00010000
01000000
00100000
,
00010000
00100000
10000000
01000000
,
00100000
00100000
00100000
00001000
,
00010000
00000000
00000010
00000000
,
00000100
00000000
00000001
00000000
,
00000100
00000001
00001000
00000010
,
00010000
00000000
00011000
00011000
,
01000000
00100000
10000000
00010000
,
01000000
00000000
00001000
00011000
,
00000010
00001000
00000001
00000100
,
00000010
00000000
00001000
00001000
,
00010000
00100000
10000000
00000000
,
01000000
00010000
00001000
00000000
,
00000010
00000100
00000010
00000100
,
00001000
00001000
00000001
00000001
,
00002000
00003000
00000020
00000030
,
00020000
00030000
00001000
01000000
,
00200000
00300000
20000000
30000000
,
00020000
00030000
01000000
00001000
,
00010000
00001000
00000010
00000100
,
00001000
00010000
00100000
01000000
,
00020000
00030000
20000000
30000000
,
00010000
00100000
00001000
00010000
,
00020000
00000000
00031000
00000000
,
00002000
00000000
00013000
00000000
,
00020000
00000000
00031000
00000000
,
00000010
00000010
00000010
00001000
,
00000010
00000100
00010000
00001000
,
00000010
00001000
00100000
00010000
,
00001000
00010000
00100000
00010000
,
10000000
10000000
01000000
01000000
,
00020000
00000000
00030000
00000000
,
00002000
00000000
00003000
00000000
,
00021000
00000000
00000000
00000000
,
00032000
00000000
00000000
00000000
,
00023000
00000000
00032000
00000000
,
00023000
00000000
00032000
00000000
,
00013000
00001000
00010000
00001000
,
00020000
00000000
00031000
00011000
,
00000100
00011000
01000000
00011000
,
00000010
00000010
00001001
00000100
,
00000001
00000100
00000010
00001000
,
00000100
00000000
00010000
01000000
,
00010000
01000000
10000000
01000000
,
00010000
10000000
00010000
00010000
,
10000000
01000000
00100000
00010000
,
00100000
00100000
00010000
00001000
,
00020000
00031000
00000100
00000001
,
00000020
00000130
00010000
00001000
,
00010000
01000000
00100000
00010000
,
10000000
00000000
00100000
00011000
,
00000020
00000030
00000200
00000300
,
00000001
00001000
00000001
00000100
,
00010000
00001000
00000010
00001000
,
00010000
00001000
01000000
00100000
,
10010000
00000000
00000000
00000000
,
00000000
00000000
00000000
00000000
;

//---------------dance-double - ----------------
#NOTES:
     dance-double:
     :
     Medium:
     10:
     :
00000000
00000000
00000000
00000000
,
00000000
00000000
00000000
00000000
,
00000000
00000000
00000000
00000000
,
00000000
00000000
00000000
00000000
,
00000000
00000000
00000000
00000000
,
00000100
00001000
00010000
00100000
,
00001000
00010000
00100000
01000000
,
00100000
00010000
00100000
01000000
,
00002000
00010000
00100000
01003000
,
00001000
00010000
00001000
00010000
00000010
00000000
00000100
00000000
,
00000001
00000100
00000001
00000100
00000001
00000000
00000100
00000000
,
00000120
00000100
00001000
00010030
,
00020000
00001000
00000100
00030010
,
00000020
00001030
00020000
00031000
,
00002000
00103000
02000000
03010000
,
00010000
01000000
00100000
01000000
00001000
00010000
00100000
00010000
,
00002000
00010000
00023000
00000000
00031000
00000000
00011000
00000000
,
00000010
00001000
00000010
00001000
00000010
00000100
00000010
00000100
,
00000001
00000100
00000010
00001000
00000010
00000100
00000001
00000000
,
00001000
00000100
00000010
00000100
00010000
00001000
00010000
00001000
,
00100000
00010000
00100000
00010000
10000000
00000000
01100000
00000000
,
00100000
01000000
00100000
01000000
00010000
01000000
00010000
01000000
,
00001000
00010000
00100000
01000000
00001000
00010000
00001000
00000000
,
00100000
01000000
00100000
00010000
00100000
00010000
00001000
00000100
,
00002000
00000100
00003010
00000110
,
00000001
00000001
00000200
00000000
00001300
00000100
00000001
00000000
,
00001000
00000100
00010000
00001000
00100000
00010000
02000000
00000000
,
03010000
01000000
00100000
10000000
00010000
00100000
10000000
00100000
,
00001000
00010000
00001000
00010000
00000020
00000000
00000100
00000000
,
00000100
00001030
00020000
00001000
,
00001000
01000000
00030100
00000200
,
00001300
00000010
00001000
00000100
00000010
00000100
00001000
00000100
,
00000020
00000001
00001000
00000031
,
00000110
00000000
00000000
00001001
,
00000020
00020030
00032000
02003000
,
03010000
01000000
20000000
00000000
31000000
00100000
00020000
00000000
,
00032000
00010000
00100000
02003000
,
03200000
02300000
03002000
00023000
,
00000100
00001000
01000000
00031000
,
00010000
00001000
00010000
00001000
00000010
00000100
00001000
00000100
,
00000020
00000001
00001000
00000031
,
00000110
00000001
00001000
00000010
,
00001000
00010000
00000100
00001000
,
00010100
00001000
00010000
00001000
,
00001010
00000010
00010000
00100000
,
00200000
00010000
02300000
10000000
,
03200000
00010000
02300000
10000000
,
03002000
00023000
00030020
00002030
,
00000002
00000000
00000000
00003003
,
00000110
00000000
00011000
00000000
,
01100000
10010000
01100000
01100000
,
00010000
01000000
00100000
01000000
00010000
01000000
00100000
10000000
,
00010000
01000000
00100000
01000000
00001000
00010000
00001000
00000000
,
00100000
01000000
00010000
00001000
00010000
00001000
00000010
00000100
,
00001000
00000100
00000010
00000001
00001000
00000100
00000110
00000000
,
00000001
00000100
00000010
00000100
00000001
00000100
00000010
00001000
,
00000200
00001000
00010300
00010100
,
00000100
00010000
00000100
00000000
00001000
01000000
00100000
01000000
,
00010000
00100000
00010000
00000000
10000000
01000000
10000000
00000000
,
00010000
01000000
00010000
00000000
00010000
01000000
00001000
00010000
,
00000100
00001000
00000100
00000000
00010000
00001000
00010000
00000000
,
00000010
00001000
00000010
00000000
00000010
00000100
00000010
00001000
,
00000001
00000100
00000001
00000000
00002002
00000000
00003003
00000000
,
00000020
00020030
00032000
02003000
,
03200000
01000000
00010000
10300000
,
01100000
00000000
00000000
00000000
,
00000000
00000000
00000000
00000000
;

//---------------dance-double - ----------------
#NOTES:
     dance-double:
     :
     Hard:
     13:
     :
00000000
00000000
00000000
00000000
,
00000000
00000000
00000000
00000000
,
00000000
00000000
00000000
00000000
,
00000000
00000000
00000000
00000000
,
00000000
00000000
00000000
00000000
,
00000000
10000000
00000000
00010000
,
00000000
01000000
00000000
00100000
,
00000000
01000000
00000000
00001000
,
00000000
00010000
00000000
00000100
,
00000010
00000000
00000000
00000001
00000000
00000000
00000100
00000000
00000000
00000010
00000000
00000000
00000110
00000000
00001000
00000010
,
00001000
00000000
00000000
00000100
00000000
00000000
00010000
00000000
00000000
00001000
00000000
00000000
00011000
00000000
00001000
01000000
,
00001000
00000000
00000000
00010000
00000000
00000000
00100000
00000000
00000000
10000000
00000000
00000000
10010000
00000000
00000000
00000000
,
00100000
00000000
01000000
00000000
00100000
00000000
10000000
01000000
,
00100000
00010000
00100000
00010000
01000000
00100000
00010000
00001000
,
00010000
00001000
00010000
00001000
00000100
00000010
00001000
00000100
,
00000010
00000001
00001000
00000010
00010000
00001000
01000000
00010000
,
10000000
00000000
00000000
00100000
00000000
00000000
00100000
00000000
00000000
01000000
00000000
00100000
00000000
00000000
00000000
00100000
00000000
00000000
10010000
00000000
00000000
00000000
00000000
00000000
,
10000000
00000000
00100000
10000000
00000000
00000000
00100000
00000000
00000000
01000000
00000000
00000000
00010000
00000000
00000000
00100000
00000000
00000000
00001000
00000000
00000000
00010000
00000000
00000000
,
00001000
00000000
00010000
00001000
00000000
00000000
00000010
00000000
00000000
00000001
00000000
00000000
00000100
00000000
00000000
00000010
00000000
00000000
00001000
00000000
00000000
00000000
00000000
00000000
,
00000001
00000000
00000010
00000001
00000000
00000000
00000100
00000000
00000000
00000010
00000000
00000000
00001000
00000000
00000000
00000100
00000000
00000000
00010000
00000000
00000000
00001000
00000000
00000000
,
00010000
00000000
00001000
00010000
00000000
00000000
00100000
00000000
00000000
10000000
00000000
00000000
00010000
00000000
00000000
00100000
00000000
00000000
01000000
00000000
00000000
00000000
00000000
00000000
,
00100000
00000000
00010000
00100000
00000000
00000000
00010000
00000000
00000000
01000000
00000000
00000000
00001000
00000000
00000000
00010000
00000000
00000000
00000100
00000000
00000000
00001000
00000000
00000000
,
00000001
00000000
00001000
00000001
00000000
00000000
00000010
00000000
00000000
00001000
00000000
00000000
00010000
00000000
00000000
01000000
00000000
00000000
10000000
00000000
00000000
00000000
00000000
00000000
,
00010000
00000000
10000000
00010000
00000000
00000000
01000000
00000000
00000000
00100000
00000000
00000000
00010000
00000000
00000000
00001000
00000000
00000000
00000100
00000000
00000000
00000001
00000000
00000000
,
00000200
00000000
00000000
00002300
00000000
00000000
00023000
00000000
00000000
00230000
00000000
00000000
01300000
00000000
00000000
00000000
,
00100000
00000000
00000000
00100000
00000000
00000000
10010000
00000000
00000000
00000000
00000000
00000000
10000000
00000000
01000000
10000000
00000000
01000000
00000000
00000000
00100000
00000000
00000000
00100000
,
00000000
00000000
00000000
00001000
00000000
00000000
00011000
00000000
00000000
00000000
00000000
00000000
00000100
00000000
00001000
00000100
00000000
00001000
00000000
00000000
00000001
00000100
00000000
00000000
,
00000010
00000000
00000000
00000100
00000000
00000000
00000110
00000000
00000000
00000000
00000000
00000000
00000001
00000000
00000100
00000001
00000000
00000100
00000000
00000000
00000010
00000000
00000000
00000010
,
00000000
00000000
00010000
00001000
00000000
00000000
00011000
00000000
00000000
00000000
00000000
00000000
01000000
00000000
00100000
01000000
00000000
00100000
02000000
00000000
00000000
00000000
00000000
00000000
,
03100000
00000000
00000000
10000000
00000000
00000000
01000000
00000000
00000000
00000000
00000000
00000000
00100000
00000000
00001000
00010000
00000000
00001000
00000000
00000000
00010000
00000000
00000000
00000100
,
00000010
00000000
00000001
00001000
00000000
00000000
00000010
00000000
00001000
00000001
00000000
00000000
00000010
00000000
00000001
00001000
00000000
00000000
00000010
00000000
00000000
00000010
00000000
00000000
,
00000100
00001000
00010000
01000000
10000000
00100000
00010000
00001000
,
00000200
00000000
00000000
00000320
00000000
00000000
00020030
00000000
00000000
00032000
00000000
00000000
00013000
00000000
00000000
00000000
,
00022000
00000000
00000000
00033000
,
00001000
00000000
00100000
00000000
00010000
00000000
10000000
01000000
00000000
00000000
01000000
00000000
10000000
00000000
00100000
00000000
,
01000000
00000000
00001000
00000000
00010000
00000000
00001000
00010000
00000000
00000000
00010000
00000000
00000010
00000000
00000100
00000000
,
00000001
00000010
00000001
00000000
00001000
00000100
00001000
00000000
,
00000001
00000000
00000010
00000000
00000100
00000000
00000010
00000100
00000000
00000000
00000100
00000000
00010000
00000000
00001000
00000000
,
00100000
00000000
00010000
00000000
01000000
00000000
00100000
10000000
00000000
00000000
10000000
00000000
00100000
00000000
00010000
00000000
,
00001000
00000000
00000100
00000000
00000010
00000000
00000100
00000001
00000000
00000000
00000001
00000000
00000010
00000000
00000100
00000000
,
00001000
00010000
00100000
01000000
,
00200000
01000000
00010000
00001000
,
00302000
00100000
00010000
00000100
,
00003200
00000001
00000010
00001000
,
00002300
00010000
00100000
01003000
,
00100000
10000000
00100000
10000000
01000000
00010000
01000000
00010000
,
00001000
00000010
00001000
00000010
00000001
00000100
00000001
00000100
,
00001000
00000000
00010000
00001000
00000000
00000000
00010000
00000000
00001000
00010000
00000000
00000000
00001000
00000000
00010000
00001000
00000000
00000000
00010000
00000000
00001000
00010000
00000000
00000000
,
00001000
00001000
00001000
00011000
,
00000010
00000110
00001000
00011000
,
01000000
01000000
01000000
10010000
,
10000000
00000000
00000000
00100000
00000000
00000000
01000000
00000000
00000000
00010000
00000000
00000000
00100000
00000000
00010000
00100000
00000000
00010000
00100000
00000000
00001000
00100000
00000000
00001000
,
00100000
00001000
00010000
00001000
00000100
00000001
00000020
00000000
,
00000031
00000000
00000000
00000100
00000000
00000000
00000010
00000000
00000000
00001000
00000000
00000000
00000100
00000000
00001000
00000100
00000000
00001000
00000100
00000000
00010000
00000100
00000000
00010000
,
00000100
00010000
00001000
00010000
00100000
01000000
00200000
00000000
,
10300000
00000000
00000000
01000000
00000000
00000000
00100000
00000000
00000000
00010000
00000000
00000000
01000000
00000000
00001000
01000000
00000000
00001000
00010000
00000000
00001000
00010000
00000000
00001000
,
00020000
00000000
00000000
00030200
00000000
00000000
00000320
00000000
00000000
00000130
00000000
00000000
00001001
00000000
00000000
00000000
,
00000001
00000101
00000000
00001010
00000000
00001100
00000000
00011000
,
00000000
00000000
00000000
00110000
00000000
00000000
00000000
00000000
00000000
01100000
00000000
00000000
10000000
00000000
00010000
10000000
00000000
00010000
20000000
00000000
00000000
30010000
00000000
00000000
,
00000000
11000000
00000000
00110000
00000000
01010000
00000000
00011000
,
00000000
00000000
00000000
00001010
00000000
00000000
00000000
00000000
00000000
00000110
00000000
00000000
00000001
00000000
00001000
00000001
00000000
00001000
00000002
00000000
00000000
00001003
00000000
00000000
,
00000001
00000010
00001000
00000001
00000100
00010000
00001000
00010000
,
00001000
00000000
00010000
00001000
00000000
00000000
00010000
00000000
00001000
00010000
00000000
00000000
00001000
00000000
00010000
00001000
00000000
00000000
00010000
00000000
00010000
00000000
00010000
00000000
,
00001000
00100000
01000000
10000000
00100000
01000000
00001000
00010000
,
00000020
00000000
00000000
00000230
00000000
00000000
00002300
00000000
00000000
00023000
00000000
00000000
00031000
00000000
00000000
00000000
,
00011000
00000000
00000000
00000000
,
00000000
00000000
00000000
00000000
;
