#TITLE:Crazy Control;
#SUBTITLE:;
#ARTIST:D-crew with VAL TIATIA;
#TITLETRANSLIT:;
#SUBTITLETRANSLIT:;
#ARTISTTRANSLIT:;
#GENRE:;
#CREDIT:;
#BANNER:Crazy Control-bn.png;
#BACKGROUND:Crazy Control-bg.png;
#LYRICSPATH:;
#CDTITLE:;
#MUSIC:Crazy Control.ogg;
#OFFSET:0.000000;
#SAMPLESTART:59.160000;
#SAMPLELENGTH:20.000000;
#SELECTABLE:YES;
#DISPLAYBPM:105.000000;
#BPMS:0.000000=105.000000
;
#STOPS:
;
#BGCHANGES:;
#KEYSOUNDS:;
#ATTACKS:;

//---------------dance-single - ----------------
#NOTES:
     dance-single:
     :
     Hard:
     12:
     0.471588,0.498151,0.298294,0.198863,0.477270,332.000000,302.000000,30.000000,20.000000,0.000000,0.000000,0.471588,0.498151,0.298294,0.198863,0.477270,332.000000,302.000000,30.000000,20.000000,0.000000,0.000000:
0000
0000
0000
0000
,
0000
0000
0000
0000
,
0000
0000
0000
0000
,
0101
0000
0000
0000
1100
0000
0000
0101
0000
0000
0010
0000
0010
0000
0100
0000
,
1010
0000
0000
0000
0011
0000
0000
1010
0000
0000
0001
0000
0001
0000
0000
0000
,
1000
0000
0000
0001
0000
0010
0000
0001
0000
0000
0100
0000
0010
0000
1000
0000
,
0000
0000
0001
0000
1000
0000
0010
0100
0000
0010
1000
0000
0001
0000
0200
0000
,
0320
0000
1030
0000
0001
0000
1000
0100
0000
0010
0001
0000
0100
0000
0010
0000
,
0000
0000
1000
0000
0001
0100
0001
0100
0001
0000
0010
0000
0100
0000
2000
0000
,
3001
0000
0000
0101
0000
0000
1000
0010
0100
0010
1000
0010
0000
0100
0001
0000
,
1000
0000
0000
0000
0110
0000
0001
1000
0001
0000
0001
0000
0000
0100
0010
0000
,
1000
0000
1001
0000
0000
0000
0010
0000
1000
0001
0000
0100
0000
0000
0000
0010
,
1000
0000
0100
0010
0000
0001
0000
0000
0010
0000
0001
1000
0000
0000
0000
0000
,
0010
0000
1000
0001
0000
1000
0100
0000
0010
0000
0001
1000
0001
0000
0000
0000
,
0000
0100
0010
1000
0001
0000
0010
0100
1000
0000
1000
0000
1001
0000
0020
0000
,
0130
0000
0000
0000
0101
0000
0000
1010
0000
0001
1000
0001
0100
0000
0010
0000
,
1000
0000
0000
0000
1100
0000
1000
0001
0100
0000
0100
0000
0000
0010
1000
0000
,
0001
0000
0100
0010
0000
0100
0010
0000
0000
0000
1000
0000
0000
0000
0100
0000
,
0200
0000
2300
0000
3002
0000
0003
0100
,
0001
0000
1000
0001
0000
0000
0010
0000
0000
0100
0000
0000
0000
1000
0001
1000
,
0001
0000
0000
0000
0000
0000
0100
0010
0000
2000
0000
0000
3000
0100
1000
0001
,
1000
0000
0010
0000
0100
0000
0001
0000
0000
0000
0000
0000
0000
0010
0001
0010
,
0001
0000
1000
0010
0000
0000
1010
0000
0000
0000
0000
0000
0000
0000
1000
0000
,
0002
0000
0023
0000
0230
0000
1300
0001
,
1000
0000
0001
0100
0000
0000
0010
0000
0000
0000
0000
0000
0000
0000
0000
0000
,
2000
0010
3020
0100
2030
0001
3001
0100
,
0010
0000
1000
0001
0000
1000
0001
0000
0010
0000
0100
1000
0000
0100
1000
0000
,
1001
0000
0110
0000
1000
0001
0000
0100
0000
0000
0101
0000
1100
0000
0101
0000
,
0010
0000
1000
0001
0000
0000
1000
0100
0000
0000
0010
0001
0000
1000
0001
1000
,
0100
0000
0011
0000
0100
0000
1010
0000
0000
0000
0001
1000
0001
0000
0110
0000
,
1000
0000
0001
0100
0002
0000
0000
0023
0000
0000
0130
1000
0002
0000
0000
2003
,
0000
0000
3010
0000
0100
0000
0010
1000
0000
0001
1000
0000
1010
0000
0011
0000
,
0100
0000
1000
0000
0001
0000
0100
0000
0010
1000
0010
0000
0100
0000
0000
0000
,
1010
0000
1100
0000
0000
0000
0001
0010
0001
0000
0100
0010
0000
1000
0000
0000
,
0001
0000
1000
0000
0010
0000
1000
0100
1000
0000
0010
0100
0000
0001
0000
0000
,
0000
0000
0010
0000
0001
0000
0000
0000
2000
0000
0000
0000
3002
0000
0000
0000
0003
0000
0100
0000
0010
0000
0000
0000
1000
0000
0000
0001
0000
0000
1000
0000
,
0000
0100
0000
0000
0010
0000
0001
1000
0100
1000
0001
0000
0101
0000
0000
0000
,
0010
0000
0000
0000
1000
0000
0000
0000
0000
0000
0100
0000
1000
0000
0000
0000
0001
0000
0000
0010
0000
0000
0001
0000
0000
0000
0100
0000
0000
0000
0000
0000
,
0110
0000
0000
1000
0001
0000
0000
1000
0001
0000
0000
1000
0001
0000
0100
0010
,
1000
0000
0000
0000
0000
0000
0001
0000
0000
0000
0000
0000
0000
0000
0000
0010
0000
0000
0001
0000
0000
0000
0000
0000
1000
0000
0000
0000
0100
0000
0000
0000
1000
0000
0000
0000
0001
0000
0000
0000
0000
0000
0000
0000
0000
0000
0000
0000
,
0011
0000
0100
0000
1000
0000
0001
0000
0000
1000
0010
0000
0100
0000
0001
0000
,
1001
0000
0000
0000
0000
0000
0100
0000
0000
0000
0000
0000
0000
0000
0000
0010
0000
0000
1000
0000
0000
0000
0000
0000
0001
0000
0000
0000
1000
0000
0000
0000
0010
0000
0000
0000
0100
0000
0000
0000
0000
0000
0000
0000
0000
0000
0000
0000
;

//---------------dance-single - ----------------
#NOTES:
     dance-single:
     :
     Medium:
     9:
     0.306816,0.352857,0.119318,0.298294,0.094460,216.000000,204.000000,12.000000,30.000000,0.000000,0.000000,0.306816,0.352857,0.119318,0.298294,0.094460,216.000000,204.000000,12.000000,30.000000,0.000000,0.000000:
0000
0000
0000
0000
,
0000
0000
0000
0000
,
0000
0000
0000
0000
,
0010
0000
0000
0000
1000
0000
0000
0001
0000
0000
0000
0000
0000
0000
0000
0000
,
0010
0000
0000
0000
0100
0000
0000
1000
0000
0000
0000
0000
0000
0000
0000
0000
,
0100
0000
0000
0000
1000
0000
0000
0001
0000
0000
0000
0000
0000
0000
0000
0000
,
0010
0000
0000
0000
0001
0000
0000
0100
0000
0000
0000
0000
0000
0000
0002
0000
,
1003
0000
0000
0000
0100
0000
0000
0010
0000
0000
0000
0000
0000
0000
0000
0000
,
0001
0000
0000
0000
1000
0000
0000
0010
0000
0000
0000
0000
0000
0000
0200
0000
,
0310
0000
0000
1000
0000
0000
0001
0000
0010
0000
0001
0000
0100
0000
0020
0000
,
1030
0000
0001
1000
0100
0100
0000
0010
,
0001
1000
0000
0000
0010
0100
0001
0000
,
1000
0001
1000
0000
0010
0100
0001
0000
,
0010
0000
0000
0000
0001
0000
0000
0100
0000
0000
0010
0000
1000
0000
0000
0000
,
0000
1000
0010
1000
0100
0010
0001
0200
,
0310
0000
0000
0000
1000
0000
0000
1000
0000
0000
0001
0000
0010
0000
0100
0000
,
1000
0000
0001
1000
0100
0100
0000
0010
,
0002
0000
0000
0203
0000
0000
0320
0000
0000
0000
2030
0000
0000
0000
0000
0000
,
3200
0000
2300
0000
0002
0000
3003
0010
,
0002
0000
0000
2003
0000
0000
3002
0000
0000
0203
0000
0000
0000
0000
0310
0000
,
1001
0000
0000
0000
0000
0000
0000
0100
0000
0010
0000
0000
0000
0000
1000
0000
,
0002
0000
0000
2003
0000
0000
3200
0000
0000
0000
0300
0000
0000
0000
0010
0000
,
0200
0000
0000
0320
0000
0000
0032
0000
0000
0000
0003
0000
0000
0000
1000
0000
,
0101
0000
1100
0000
0101
0000
1000
0001
,
1000
0000
0000
0010
0000
0000
0001
0000
0000
0000
0000
0000
0000
0000
0000
0000
,
2000
0000
3020
0100
0230
0000
0301
0000
,
0010
0001
0100
0001
1000
0010
1000
0100
,
0010
0001
1000
0001
1000
0010
0100
0100
,
0000
0110
0000
1001
0000
0011
0000
1000
,
0001
0001
1000
1000
0000
0010
0100
0100
,
0000
0001
0020
0000
0031
0100
2000
0000
,
3010
1000
0200
0000
1300
0001
0100
0100
,
0000
0010
1000
0100
1000
0001
0010
0000
,
1000
0000
1100
0000
0000
0000
0001
0000
1000
0000
0000
0010
0000
0000
0100
0000
,
0000
0000
0001
0000
0010
0000
0001
0000
0100
0000
0010
0000
0000
1000
0000
0000
,
0000
0001
1000
0001
0000
0010
0100
1000
,
1002
0000
0013
0001
0001
0100
1000
0000
,
0010
1000
0000
0001
0100
0100
0100
0000
,
2010
0000
3100
1000
1000
0010
0001
0000
,
0100
0010
0000
0000
1000
0001
0001
0000
,
0201
0000
0310
1000
1000
0001
0100
0000
,
0010
1000
0000
0001
1000
0100
0110
0000
;

//---------------dance-single - ----------------
#NOTES:
     dance-single:
     :
     Easy:
     6:
     0.217328,0.269832,0.178976,0.019886,0.000000,153.000000,135.000000,18.000000,2.000000,0.000000,0.000000,0.217328,0.269832,0.178976,0.019886,0.000000,153.000000,135.000000,18.000000,2.000000,0.000000,0.000000:
0000
0000
0000
0000
,
0000
0000
0000
0000
,
0000
0000
0000
0000
,
0010
1000
0100
0001
,
1000
0001
0100
0000
,
0010
1000
0100
0010
,
0000
0001
0100
0001
,
1001
0010
1000
0100
,
0000
1000
0001
0100
,
0110
1000
0001
0010
,
0001
0000
1000
0000
0100
0100
0000
0000
,
1000
0001
0000
0000
0100
0000
0010
0000
,
1000
0001
0010
0100
,
1000
0010
1000
0001
,
0100
0010
0100
0001
,
1000
1000
0001
0010
,
0001
0000
1000
0000
0100
0100
0000
0000
,
1000
0010
0001
0000
,
0100
0100
0100
0000
,
0010
1000
0100
0000
,
1001
0000
0110
0000
,
1000
0100
0001
0000
,
0010
0001
1000
0000
,
0001
0001
1000
1000
,
0001
0100
1000
0000
,
1001
0000
0110
0000
,
1000
0010
1000
0001
,
0010
0000
0001
0000
0100
0000
0001
1000
,
0000
1010
1000
0001
,
1000
0000
0100
0000
0000
1000
0001
1000
,
0000
0101
0010
1000
,
0100
0000
1000
0000
0001
0000
0010
0100
,
0000
1000
0001
0100
,
1001
0000
0010
0100
,
0000
0010
1000
0100
,
0000
0000
1100
0000
0000
0000
0001
1000
,
0002
0000
0000
0013
0000
0000
0000
0000
,
0001
1000
0000
0000
0110
0000
1001
0000
,
0020
0000
0000
1030
0000
0000
0000
0000
,
0100
0010
0000
0000
0011
0000
1100
0000
,
0001
0101
0000
1100
,
0010
1000
0000
0000
0101
0000
1010
0000
;

//---------------dance-single - ----------------
#NOTES:
     dance-single:
     :
     Beginner:
     3:
     0.127840,0.145294,0.059659,0.039773,0.000000,90.000000,84.000000,6.000000,4.000000,0.000000,0.000000,0.127840,0.145294,0.059659,0.039773,0.000000,90.000000,84.000000,6.000000,4.000000,0.000000,0.000000:
0000
0000
0000
0000
,
0000
0000
0000
0000
,
0000
0000
0000
0000
,
0010
0010
0000
0000
,
1000
1000
0000
0000
,
0001
0001
0000
0000
,
0100
0100
0000
0000
,
0001
0001
0000
0000
,
0010
0010
0000
0000
,
0100
0100
0000
0000
,
1000
0000
1001
0000
,
0010
0000
0100
0000
,
0001
0000
0010
0000
,
0100
0000
1000
0000
,
0001
0000
1000
0000
,
0010
0010
0010
0000
,
0100
0000
0110
0000
,
0002
0000
0003
0000
,
1000
1000
1000
0000
,
0010
0000
0100
0000
,
1001
0000
0110
0000
,
2000
0000
3000
0000
,
0020
0000
0030
0000
,
1000
1000
1000
0000
,
0001
0000
1000
0000
,
0200
0000
0300
0000
,
0010
0000
0001
0000
,
0100
0100
0100
0100
,
0000
1000
0000
0001
,
0001
0001
0000
1000
,
0000
0010
0010
0010
,
0000
0100
0000
0001
,
0000
1000
1000
0000
,
1001
0000
0010
0010
,
0000
0000
0100
0100
,
0000
0001
0000
1000
,
1000
0000
0000
0000
,
0001
0000
0100
0100
,
0100
0000
0010
0000
,
1000
0000
0001
0001
,
0001
0000
0010
0000
,
0110
0000
0100
0100
;

//---------------dance-single - ----------------
#NOTES:
     dance-single:
     :
     Challenge:
     16:
     0.805393,0.809495,0.656246,0.059659,1.113630,567.000000,501.000000,66.000000,6.000000,0.000000,0.000000,0.805393,0.809495,0.656246,0.059659,1.113630,567.000000,501.000000,66.000000,6.000000,0.000000,0.000000:
// measure 0
0000
0000
0000
0000
,  // measure 1
0000
0000
0000
0000
,  // measure 2
0000
0000
0000
0000
,  // measure 3
0011
0000
0001
1000
0010
0000
1000
0100
0000
0100
0010
0000
1001
0000
0100
0000
,  // measure 4
0010
0000
1000
0001
1000
0010
0100
0001
0010
0100
1000
0000
0001
0100
0010
0000
,  // measure 5
1010
0000
0100
0001
0000
1000
0000
0001
0000
0010
0100
0000
1100
0000
0101
0000
,  // measure 6
0000
0010
1000
0001
1000
0010
1000
0100
0000
0100
0010
0000
0011
0000
2100
0000
,  // measure 7
3001
1000
0010
1000
0001
0000
0010
0100
0000
0100
1000
0010
1000
0000
1001
0000
,  // measure 8
0000
0010
1000
0010
0100
0001
0010
0100
0000
0100
1000
0000
1010
0000
0102
0000
,  // measure 9
0013
0000
0100
1000
0001
0000
1000
0010
0001
0010
1000
0100
0001
0100
1000
0000
,  // measure 10
0010
0000
1000
0001
0010
0000
0100
1000
1001
0000
0110
0001
1000
0001
0100
0000
,  // measure 11
0101
0000
0011
0000
1000
0010
0100
0000
0001
1000
0000
0100
1000
0010
0100
0001
,  // measure 12
1000
0000
0000
0000
0100
0000
0010
0000
0001
0000
1000
0000
0100
0000
1000
0000
0010
0000
0100
0000
0001
0000
1000
0100
1000
0000
0001
0000
0100
0000
0010
0000
,  // measure 13
0100
0000
0001
0000
1000
0000
0100
0000
0010
0000
0001
0000
0100
0000
0001
0000
1000
0000
0001
0100
0001
0000
0010
0000
0100
0000
1000
0000
0001
0000
0100
0000
,  // measure 14
0010
1000
0100
0010
0001
0100
0001
1000
0010
0001
0010
0100
0010
1000
0020
0000
,  // measure 15
0130
0000
0001
0010
0001
0100
0010
1000
0000
1100
0000
0001
0101
0100
0010
1010
,  // measure 16
0000
0001
0010
0000
0100
0000
1000
0001
1001
0000
0110
0000
0010
1000
0100
0000
,  // measure 17
0010
0000
0001
1000
0000
0001
1000
0000
0000
0000
0101
0000
1000
0001
1000
0000
,  // measure 18
0200
0000
1300
0001
2000
0000
3010
0000
0001
1000
0010
0000
0100
0001
0020
0000
,  // measure 19
0130
0000
1000
0001
0000
1000
0100
0000
0000
0011
0000
0000
0010
0001
1000
0001
,  // measure 20
1001
0000
0100
0010
1000
0000
0001
0010
0000
1100
1000
0000
0010
0100
0010
1000
,  // measure 21
0101
0000
0010
1000
0000
0010
0100
0000
0000
0001
1000
0000
0001
0010
0100
1000
,  // measure 22
0010
0000
0100
0001
1000
0000
0100
0000
1000
0010
1000
0000
0100
0010
0001
0000
,  // measure 23
0011
0000
1000
0000
1100
0000
0001
0000
0101
1000
0001
0000
0010
0100
1000
0000
,  // measure 24
0110
0000
0001
0100
0000
0010
1000
0000
0100
0010
0001
0000
0100
0001
1000
0000
,  // measure 25
0001
0000
0010
0100
0010
0000
0001
0000
1000
0010
1000
0000
0001
0100
0001
0000
1000
0100
0010
0100
1000
0010
0100
0010
1000
0000
0000
0000
0001
0000
0100
0000
,  // measure 26
0010
1010
0000
0011
0000
0100
1000
0001
1000
0010
0100
0001
0010
1000
0010
0001
,  // measure 27
0100
0010
0100
1000
0100
0001
0100
0010
1000
0001
0010
0000
1100
0000
1001
0000
,  // measure 28
0010
1000
0100
0010
0001
0100
0001
1000
0010
0001
0010
0100
1000
0100
0001
1000
,  // measure 29
1010
0000
1100
0000
0011
0000
0101
0000
1000
0010
0100
0001
0110
0000
1001
0000
,  // measure 30
0010
1000
0010
0100
0001
0010
0001
1000
0100
0001
0100
1000
0010
0100
0001
1000
,  // measure 31
0010
0100
0001
0000
0010
0000
0100
0000
1000
0000
0010
0000
1000
0000
0001
0000
0100
0000
0010
0000
1000
0000
0001
0000
0011
0000
0000
0000
1100
0000
0000
0000
,  // measure 32
0001
0100
0010
1000
0100
0010
0100
1000
0010
0100
0001
1000
0010
0100
0001
0000
,  // measure 33
0110
0000
1001
0010
1000
0100
1000
0001
0010
0100
0010
0001
0000
1100
1000
0000
,  // measure 34
0010
0000
0101
0000
0000
0000
0010
0000
0000
0000
1000
0001
1000
0000
0100
0000
0010
0000
0001
0000
0100
0000
0010
0000
1000
0000
0100
0000
0001
0000
0010
0100
,  // measure 35
1000
0000
0001
0100
0001
0000
0000
0000
1010
0000
0000
0000
1100
0000
0001
0000
1000
0000
0010
0000
0100
0000
0000
0000
0011
0000
0000
0110
0000
0000
1100
0000
,  // measure 36
0000
0000
0000
0101
0000
0000
1000
0000
0000
0000
0000
0000
0010
0000
0000
0000
0000
0000
0100
0000
0000
0001
0000
0000
1000
0000
0100
0000
0010
0000
0001
0000
0000
0000
0000
0000
0100
0000
0000
0001
0000
0000
1000
0000
0000
0010
0000
0000
,  // measure 37
0100
0000
0000
0000
0000
0000
0000
0000
0000
0000
0000
0000
0001
0000
0000
0000
0000
0000
0000
0000
0000
0000
0000
0000
0010
0000
0000
0000
0000
0000
0000
0000
0000
0000
0000
0000
0000
0000
0000
0000
0000
0000
0000
0000
0000
0000
0000
0000
0100
0000
0000
0000
0000
0000
0000
0000
0000
0000
0000
0000
1000
0000
0000
0000
0000
0000
0000
0000
0000
0000
0000
0000
0001
0000
0000
0000
0000
0000
0000
0000
0000
0000
0000
0000
1000
0000
0000
0000
0000
0000
0010
0000
0000
0000
0000
0000
1000
0000
0000
0000
0000
0000
0000
0000
0000
0000
0000
0000
0000
0000
0000
0000
1100
0000
0000
0000
0000
0000
0000
0000
0000
0000
0000
0000
0000
0000
0000
0000
0101
0000
0000
0000
0000
0000
0000
0000
0000
0000
0000
0000
0000
0000
0000
0000
1100
0000
0000
0000
0000
0000
0000
0000
0000
0000
0000
0000
0000
0000
0000
0000
0000
0000
0000
0000
0000
0000
0000
0000
0010
0000
0000
0000
0000
0000
0000
0000
0001
0000
0000
0000
0000
0000
0000
0000
1000
0000
0000
0000
0000
0000
0000
0000
,  // measure 38
0010
0000
0000
0000
0110
0100
0001
1000
1100
0000
0010
1010
0000
0001
1000
0100
,  // measure 39
0010
0000
0000
0001
0000
0000
0100
0000
0000
0010
0000
0000
1000
0000
0000
0100
0000
0000
0001
0000
0000
0000
0000
0000
0011
0000
0000
0000
1100
0000
0000
0000
0011
0000
0000
0000
1001
0000
0000
0000
0000
0000
0100
0000
0000
0010
0000
0000
,  // measure 40
1010
0100
0001
1000
0001
0010
0100
1000
0010
0100
0001
0000
0101
1000
0010
0100
,  // measure 41
0001
0000
0000
0010
0000
0000
0100
0000
0000
1000
0000
0000
0100
0000
0000
0010
0000
0000
0001
0000
0000
1000
0000
0000
0110
0000
0000
0000
1001
0000
0000
0000
0110
0000
0000
0000
1001
0000
0000
0000
0000
0000
0000
0000
0000
0000
0000
0000
;
