#TITLE:Cooler Than Me;
#SUBTITLE:;
#ARTIST:Mike Posner;
#TITLETRANSLIT:;
#SUBTITLETRANSLIT:;
#ARTISTTRANSLIT:;
#GENRE:;
#CREDIT:;
#BANNER:Cooler Than Me-bn.png;
#BACKGROUND:Cooler Than Me-bg.png;
#LYRICSPATH:;
#CDTITLE:;
#MUSIC:Cooler Than Me.ogg;
#OFFSET:1.250000;
#SAMPLESTART:75.672997;
#SAMPLELENGTH:20.000000;
#LASTBEATHINT:0.524333;
#SELECTABLE:YES;
#DISPLAYBPM:130.000000;
#BPMS:0.000000=130.000000
;
#STOPS:
;
#BGCHANGES:;
#KEYSOUNDS:;
#ATTACKS:;

//---------------dance-single - ----------------
#NOTES:
     dance-single:
     :
     Hard:
     10:
     0.421414,0.450948,0.258385,0.172257,0.577778,411.000000,375.000000,36.000000,24.000000,0.000000,0.000000,0.421414,0.450948,0.258385,0.172257,0.577778,411.000000,375.000000,36.000000,24.000000,0.000000,0.000000:
0000
0000
0000
0000
,
0000
0000
0000
0000
,
0000
0000
0000
0000
,
0000
0000
0000
0000
,
0000
0000
0000
0000
,
0000
0000
0000
0000
,
0000
0000
0000
0000
,
0000
0000
0000
0000
,
0000
0000
0000
0000
,
0001
0000
0000
0010
0000
0000
0001
0000
0000
0010
0000
0100
,
1000
0000
0000
0010
0000
0000
1000
0000
0000
0010
0000
0100
,
0001
0000
0000
0010
0000
0001
0100
0000
0000
0010
0000
0000
,
1000
0000
0010
0100
0000
0001
0000
0000
1000
0000
0000
0001
,
0010
0001
0100
0010
,
1000
0000
0100
1000
0000
0000
0001
0000
0000
0100
0000
0000
,
0001
0000
0010
0001
0000
0000
0100
0000
0010
1000
0000
0000
,
0001
0000
1000
0010
0000
0100
0000
0000
0000
0001
0000
0000
,
0000
0000
0000
1000
0000
0000
0001
0100
0001
0100
0001
0100
,
0001
0011
1000
1010
,
0010
0110
0100
0110
,
1000
1010
0001
0011
,
0100
0000
0000
1001
0000
0000
0100
0000
0000
0001
1000
0001
,
1000
1100
0001
0101
,
0010
1001
0100
1001
,
0001
0101
1000
1100
,
0010
0000
0000
0100
0000
0000
1001
0000
1000
0001
0000
1000
,
0001
0000
0000
0011
0000
0001
1000
0000
0000
1010
0000
0000
,
0010
0000
0100
0010
0000
1000
0000
0000
0001
0000
0000
1000
,
0100
0000
0100
0010
0000
0001
0000
0000
1000
0000
0000
0001
,
0100
0000
0000
0110
0000
0000
1000
0000
0010
0100
0010
0100
,
0010
0000
0000
1010
0000
1000
0001
0000
0000
0101
0000
0000
,
0001
0000
0010
0001
0000
1000
0000
0000
0010
0000
0000
0100
,
0002
2003
3020
0230
,
0301
0000
0000
0001
0000
1000
0000
0000
1001
0000
0000
0100
,
0010
0000
0000
0101
0000
1000
0001
0000
0000
1100
0000
0000
,
0010
0000
0001
0010
0000
0100
0000
0000
1000
0001
0000
0100
,
0000
0000
0010
1000
0000
0001
0000
0000
0010
0000
0000
0100
,
1000
0000
0000
1001
0000
0000
0001
0000
0100
0010
0000
0100
,
0010
0000
0000
0110
0000
0010
1000
0000
0000
1100
0000
0000
,
0010
0000
0001
1000
0000
0001
0000
0000
0100
0010
0100
0010
,
0100
0000
0001
1000
0000
0100
0000
0000
1000
0001
0000
1000
,
0001
0000
0100
0010
0000
1000
0000
0000
0100
0010
0000
0010
,
0001
0000
0100
0010
0000
0000
1000
0000
0100
0010
0000
0000
,
0001
0000
1000
0001
0000
0200
0000
0000
0000
0310
1000
0010
,
1000
0000
0000
0001
0000
1000
0100
0000
0100
0010
0000
0000
,
0001
0000
0100
0001
0000
2000
0000
0000
3001
0010
0001
0010
,
0001
0000
1000
0100
0000
0000
1000
0000
0001
0100
0000
0000
,
0010
0000
1000
0000
0000
1100
0000
0000
0011
0000
0000
0100
,
0001
0000
1000
0001
0000
0000
0010
0000
0100
1000
0000
0000
,
0010
0000
1000
0001
0000
0100
0000
0000
0001
0010
0000
0100
,
2000
0000
0000
3001
0000
0200
0000
0000
0310
1000
0000
0001
,
1000
0000
0100
0010
0000
0001
0000
0000
0101
0000
0000
0010
,
1000
0000
0001
0100
0000
0000
0010
0000
0100
0001
0000
0000
,
1000
0000
0100
0010
0000
0001
0000
0000
1000
0010
1000
0010
,
1000
0000
0001
1000
0000
0000
0100
0000
0010
0001
0000
0000
,
0100
0000
0001
1000
0000
0000
0001
0000
0010
0100
0000
0000
,
1000
0000
0001
0010
0000
0001
0000
0000
0100
0010
0000
0100
,
0001
0000
1000
0010
0000
0100
0000
0000
0000
0001
1000
0001
,
2000
0000
0000
3200
0000
0000
0310
0000
0001
0000
0000
0200
,
0000
0000
0310
1000
0000
0001
0000
0000
1000
0010
0100
0010
,
2000
0000
0000
3002
0000
0000
0013
0000
0001
0000
0000
0200
,
0000
0000
0301
1000
0000
0010
0000
0000
0100
0001
1000
0001
,
0200
0000
0000
0320
0000
0000
0130
0000
0001
0000
0000
2000
,
0000
0000
3001
1000
0000
0100
0000
0000
0010
0001
0100
0001
,
1000
1010
0001
0011
,
0100
0000
0000
0101
0000
0000
0010
0000
0010
1000
0100
0010
,
0002
0000
0000
2003
0000
0000
3001
0000
0100
0010
0000
0000
,
1000
0000
0001
1000
0000
0100
0000
0000
0010
0001
1000
0001
,
0200
0000
0000
0320
0000
0000
0130
0000
0001
1000
0000
0000
,
0001
0000
0010
0001
0000
0100
0000
0000
0010
1000
0100
1000
,
0020
0000
0000
2030
0000
0000
3001
0000
1000
0100
0000
0000
,
0010
0000
0001
1000
0000
0001
0000
0000
0100
0010
1000
0001
,
0100
0101
0010
1010
,
2000
0000
0000
3000
0000
1100
0000
0000
0110
0000
0000
0011
;

//---------------dance-single - ----------------
#NOTES:
     dance-single:
     :
     Medium:
     8:
     0.335285,0.397895,0.373223,0.200966,0.240442,327.000000,275.000000,52.000000,28.000000,0.000000,0.000000,0.335285,0.397895,0.373223,0.200966,0.240442,327.000000,275.000000,52.000000,28.000000,0.000000,0.000000:
0000
0000
0000
0000
,
0000
0000
0000
0000
,
0000
0000
0000
0000
,
0000
0000
0000
0000
,
0000
0000
0000
0000
,
0000
0000
0000
0000
,
0000
0000
0000
0000
,
0000
0000
0000
0000
,
0000
0000
0000
0000
,
0001
0010
0001
0000
,
1000
0010
1000
0000
,
0010
1000
0001
1000
,
0100
0000
0000
0100
0000
0000
0000
0000
0010
0000
0000
0000
,
0001
1000
0001
0100
,
0010
1000
1000
0000
,
0001
0010
0001
0100
,
0010
0010
0000
1000
,
0000
0000
0000
0001
0000
0000
0100
0000
0100
0010
0000
0010
,
1000
1100
0001
0101
,
0010
0110
0100
0110
,
0100
0101
1000
1100
,
0010
0000
0000
1001
0000
0000
0010
0000
0000
0100
0000
0001
,
1000
1010
0001
0011
,
0100
1001
0010
1001
,
0010
1000
0010
0100
,
0001
0000
0000
0001
0000
0000
1001
0000
0000
0100
0000
0010
,
1000
2100
0001
3100
,
1000
0000
0000
0001
0000
0100
0000
0000
0010
0000
0000
0000
,
1000
0000
0010
1000
0000
0000
0001
0000
0000
0100
0000
0000
,
0110
0000
0000
1001
0000
0000
0000
0000
1000
0000
0000
0001
,
0100
0102
0010
1003
,
0001
0000
0000
0100
0000
0010
0000
0000
1000
0000
0000
0000
,
1100
1100
0101
0101
,
1001
0000
0000
0100
0000
0000
0000
0000
1001
0000
0000
0010
,
1000
1020
0100
1030
,
0001
0000
1000
0100
0000
0000
0010
0000
0000
0011
0000
0000
,
1000
0000
0001
1000
0000
0000
0010
0000
0000
0100
0000
0000
,
0101
0000
0000
1010
0000
0000
0000
0000
1000
0001
0000
1000
,
0001
0021
1000
0031
,
0010
0000
0000
0001
0000
1000
0000
0000
0110
0000
0000
0000
,
1000
0000
0010
1000
0000
0000
0001
0000
0000
1010
0000
0000
,
0001
0000
0100
0010
0000
1000
0000
0000
0000
1001
0000
0000
,
0010
0010
1000
0100
,
0000
0000
1000
0001
0000
2000
0000
0000
0000
3100
0000
0000
,
1010
0000
0000
0101
0000
0000
1000
0000
0001
0010
0000
0000
,
0001
0000
0100
0010
0000
0000
1000
0000
0000
1100
0000
0000
,
0010
0000
0000
0001
0000
1000
0000
0000
0000
0101
0000
0000
,
0010
0000
1000
0000
0000
0020
0000
0000
0130
0000
0000
0000
,
0001
0000
0010
0001
0000
0000
1000
0000
0000
0101
0000
0000
,
1000
0000
0001
1000
0000
0010
0000
0000
0000
0110
0000
0000
,
0200
0001
0010
0301
,
2000
0010
0001
3010
,
0100
0000
0001
1000
0000
0000
0010
0000
0000
1001
0000
0000
,
0100
0000
0001
1000
0000
0001
0000
0000
0011
0000
0000
0000
,
1000
0000
0000
0010
0000
1000
0000
0000
0100
0000
0000
0000
,
0010
0000
0000
0001
0000
0100
0000
0000
0001
0000
0000
0000
,
1000
0010
0100
0001
,
0010
0000
0001
1000
0000
0001
0000
0000
0000
0100
0000
0100
,
0020
2030
3002
2003
,
3200
0000
0000
0310
0000
0001
0000
0000
1000
0001
0000
0000
,
0101
1010
0101
1000
,
0020
0000
0000
1030
0000
0001
0000
0000
0010
0100
0000
0000
,
1100
0011
1100
0001
,
0200
0000
0000
0310
0000
1000
0000
0000
0010
0100
0000
0000
,
0002
0000
0000
0000
0000
0023
0000
0000
0000
0000
0000
0230
,
0000
0000
0000
0000
0000
1300
0000
0000
0001
1000
0000
1000
,
0200
0320
0032
0203
,
0320
0000
0000
1030
0000
0001
0000
0000
1000
0100
0000
0000
,
0110
1001
0110
0001
,
2000
0000
0000
3100
0000
0010
0000
0000
0001
1000
0000
0000
,
0101
1100
0101
0010
,
2000
0000
0000
3001
0000
1000
0000
0000
0100
0010
0000
0000
,
0002
0000
0000
0000
0000
2003
0000
0000
0000
0000
0000
3020
,
0000
0000
0000
0000
0000
0130
0000
0000
0110
0000
0000
1001
;

//---------------dance-single - ----------------
#NOTES:
     dance-single:
     :
     Easy:
     5:
     0.199941,0.291132,0.057419,0.222498,0.000000,195.000000,187.000000,8.000000,31.000000,0.000000,0.000000,0.199941,0.291132,0.057419,0.222498,0.000000,195.000000,187.000000,8.000000,31.000000,0.000000,0.000000:
0000
0000
0000
0000
,
0000
0000
0000
0000
,
0000
0000
0000
0000
,
0000
0000
0000
0000
,
0000
0000
0000
0000
,
0000
0000
0000
0000
,
0000
0000
0000
0000
,
0000
0000
0000
0000
,
0000
0000
0000
0000
,
0001
1000
0000
1000
,
0000
0010
0000
0010
,
0000
0100
0000
0100
,
0000
0001
0000
1000
,
0000
0001
0000
0001
,
0000
1000
0000
1000
,
0000
0010
0000
0010
,
0000
0100
0000
0001
,
0000
1000
1001
0110
,
2000
3000
0002
0003
,
0010
0001
0100
0000
,
0020
0030
0200
0300
,
0010
1000
0001
0000
,
2000
3000
0200
0300
,
1000
0001
0010
0000
,
0001
0001
0001
0001
,
1000
0001
1001
0110
,
0200
0002
0000
0303
,
1000
0001
1000
0000
,
0010
1000
0100
0000
,
0110
1001
0000
0000
,
2000
0020
0000
3030
,
1000
0001
0010
0000
,
0001
0001
0001
0001
,
1000
1000
1000
0000
,
0020
0200
0000
0330
,
0010
1000
0001
0000
,
0100
0010
0100
0000
,
0110
1001
0000
0000
,
0002
0020
0000
0033
,
0001
0100
1000
0000
,
0010
1000
0010
0100
,
0001
1000
0001
0000
,
0010
0010
0001
1000
,
0000
0001
0000
0100
,
0001
0001
1000
0010
,
1000
0100
0010
0000
,
0001
1000
0001
0000
,
0010
0100
1000
0000
,
0010
1000
0010
0100
,
0001
1000
0001
0000
,
0010
0010
1000
1000
,
0010
0100
0001
0000
,
0010
0001
0100
0000
,
0001
1000
0001
0000
,
1000
0100
0010
0000
,
0001
0100
0010
0000
,
1000
1000
0001
0001
,
1000
0010
0100
0001
,
2000
3020
0230
0300
,
0001
1000
0001
0000
,
0020
0230
2300
3000
,
0010
1000
0001
0000
,
2000
3002
0203
0300
,
0001
0010
0001
0000
,
2000
3000
0020
0030
,
0200
0300
0002
0003
,
0010
0010
0001
0001
,
1000
0100
1000
0000
,
0010
0010
1000
1000
,
0001
0100
0001
0000
,
0010
0010
0100
0100
,
1000
0001
0100
0000
,
0020
0030
2000
3000
,
0002
0003
0200
0300
;

//---------------dance-single - ----------------
#NOTES:
     dance-single:
     :
     Beginner:
     3:
     0.125091,0.185894,0.014355,0.028709,0.000000,122.000000,120.000000,2.000000,4.000000,0.000000,0.000000,0.125091,0.185894,0.014355,0.028709,0.000000,122.000000,120.000000,2.000000,4.000000,0.000000,0.000000:
// measure 0
0000
0000
0000
0000
,  // measure 1
0000
0000
0000
0000
,  // measure 2
0000
0000
0000
0000
,  // measure 3
0000
0000
0000
0000
,  // measure 4
0000
0000
0000
0000
,  // measure 5
0000
0000
0000
0000
,  // measure 6
0000
0000
0000
0000
,  // measure 7
0000
0000
0000
0000
,  // measure 8
0000
0000
0000
0000
,  // measure 9
0001
0000
0001
0000
,  // measure 10
0001
0000
0000
0000
,  // measure 11
1000
0000
1000
0000
,  // measure 12
1000
0000
0000
0000
,  // measure 13
0010
0000
0010
0000
,  // measure 14
0010
0000
0000
0000
,  // measure 15
0100
0000
0100
0000
,  // measure 16
0100
0000
0000
0000
,  // measure 17
0000
0000
0000
0000
,  // measure 18
0001
0000
1000
0000
,  // measure 19
0001
0000
0000
0000
,  // measure 20
0010
0000
0100
0000
,  // measure 21
0010
0000
0000
0000
,  // measure 22
0001
0000
0100
0000
,  // measure 23
0001
0000
0000
0000
,  // measure 24
1000
0000
0000
0000
,  // measure 25
0001
0000
0000
0000
,  // measure 26
0100
0100
0000
0000
,  // measure 27
0010
0010
0000
0000
,  // measure 28
1000
0000
0001
0000
,  // measure 29
0010
0010
0000
0000
,  // measure 30
0100
0100
0000
0000
,  // measure 31
1000
1000
0000
0000
,  // measure 32
0001
0000
1000
0000
,  // measure 33
1001
0000
0000
0000
,  // measure 34
0001
0001
0000
0000
,  // measure 35
1000
1000
0000
0000
,  // measure 36
0100
0000
0010
0000
,  // measure 37
0001
0001
0000
0000
,  // measure 38
0010
0010
0000
0000
,  // measure 39
0100
0100
0000
0000
,  // measure 40
0010
0000
0001
0000
,  // measure 41
1000
0000
0001
0000
,  // measure 42
0100
0000
0100
0000
,  // measure 43
0010
0000
0000
0000
,  // measure 44
1000
1000
1000
0000
,  // measure 45
0001
0000
0010
0000
,  // measure 46
0001
0001
0000
0000
,  // measure 47
1000
1000
0000
0000
,  // measure 48
0001
0000
0100
0000
,  // measure 49
0010
0010
0000
0000
,  // measure 50
1000
1000
1000
0000
,  // measure 51
0001
0001
0001
0000
,  // measure 52
0010
0000
0001
0000
,  // measure 53
0100
0100
0000
0000
,  // measure 54
0001
0001
0000
0000
,  // measure 55
0010
0010
0000
0000
,  // measure 56
0100
0000
1000
0000
,  // measure 57
0001
0001
0000
0000
,  // measure 58
1000
0000
0001
0000
,  // measure 59
1000
0000
0010
0000
,  // measure 60
0100
0000
0010
0000
,  // measure 61
0100
0000
0001
0000
,  // measure 62
0010
0000
0100
0000
,  // measure 63
1000
0000
0001
0000
,  // measure 64
2000
0000
3000
0000
,  // measure 65
0002
0000
0003
0000
,  // measure 66
0100
0100
0100
0000
,  // measure 67
0010
0000
1000
0000
,  // measure 68
0001
0001
0001
0000
,  // measure 69
0010
0000
0100
0000
,  // measure 70
1000
1000
1000
0000
,  // measure 71
0001
0000
1000
0000
,  // measure 72
0020
0000
0030
0000
,  // measure 73
0200
0000
0300
0000
,  // measure 74
0110
0000
0000
0000
;
