#TITLE:Clarity;
#ARTIST:Zedd feat. Foxes;
#BANNER:Clarity-bn.png;
#BACKGROUND:Clarity-bg.png;
#JACKET:Clarity-jacket.png;
#MUSIC:Clarity.ogg;
#SAMPLESTART:71.216;
#SAMPLELENGTH:20;
#DISPLAYBPM:128;
#BPMS:0=128;
#BGCHANGES:0=Clarity.avi=1=0=0=0,
;

//---------------dance-single - ----------------
#NOTES:
     dance-single:
     :
     Beginner:
     2:
     :
0000
0000
0000
0000
,
0000
0000
0000
0000
,
0000
0000
0000
0000
,
0000
0000
0000
0000
,
0000
0000
0000
0000
,
0000
0000
0000
0000
,
0001
0000
0000
0000
,
0001
0000
0000
0000
,
1000
0000
0000
0000
,
1000
0000
0000
0000
,
0010
0000
0000
0000
,
0010
0000
0000
0000
,
0100
0000
0000
0000
,
0100
0000
0000
0000
,
0001
0000
0000
0000
,
0010
0000
0000
0000
,
0100
0000
0000
0000
,
1000
0000
0000
0000
,
1000
0000
0000
0000
,
0010
0000
0000
0000
,
0100
0000
0000
0000
,
0001
0000
0000
0000
,
1001
0000
0000
0000
,
0010
0000
0000
0000
,
0100
0000
0000
0000
,
0010
0000
0000
0000
,
1001
0000
0000
0000
,
1000
0000
0000
0000
,
0001
0000
0000
0000
,
1000
0000
0000
0000
,
1001
0000
0000
0000
,
0010
0000
0000
0000
,
1000
0000
0010
0000
,
0100
0000
0000
0000
,
1001
0000
0000
0000
,
0010
0000
0000
0000
,
0001
0000
0010
0000
,
0100
0000
1000
0000
,
0001
0000
0001
0000
,
1000
0000
1000
0000
,
0001
0000
0001
0000
,
1000
0000
1000
0000
,
0010
0000
0010
0000
,
0100
0000
0100
0000
,
0010
0000
0010
0000
,
0100
0000
0100
0000
,
0100
0000
0010
0000
,
0100
0000
0000
0000
,
0001
0000
0001
0000
,
1000
0000
1000
0000
,
0010
0000
0100
0000
,
0010
0000
0000
0000
,
1000
0000
1000
0000
,
0001
0000
0001
0000
,
0000
0000
0000
0000
,
0000
0000
0000
0000
,
0000
0000
0000
0000
,
0000
0000
0000
0010
,
0000
0000
0000
0000
;

//---------------dance-single - ----------------
#NOTES:
     dance-single:
     :
     Easy:
     4:
     :
0000
0000
0000
0000
,
0000
0000
0000
0000
,
0000
0000
0000
0000
,
0000
0000
0000
0000
,
0000
0000
0000
0000
,
0000
0000
0000
0000
,
0000
0001
0001
1000
,
0010
0010
0200
0300
,
0010
0000
0100
0000
,
0010
0000
0000
0000
,
0000
1000
1000
0001
,
0100
0100
0020
0030
,
0100
0000
0010
0000
,
0100
0000
0000
0000
,
0000
1000
0001
1000
,
0010
0100
0020
0030
,
0100
0010
1000
0001
,
0100
0000
0000
0000
,
0000
0001
1000
0001
,
0100
0010
0200
0300
,
0010
0100
0001
1000
,
0010
0000
0000
0000
,
0000
1000
0001
0000
,
0010
0100
0020
0000
,
0030
0001
0010
0000
,
0001
0100
0001
0100
,
0000
0001
1000
0000
,
0100
0010
0200
0000
,
0300
1000
0100
0100
,
1000
0010
1000
0010
,
0000
0001
0010
0100
,
1000
0001
0000
0100
,
0020
0030
0200
0300
,
0002
0003
2000
3000
,
0000
1000
0100
0010
,
0001
1000
0000
0010
,
0200
0300
0020
0030
,
2000
3000
0002
0003
,
1000
1000
1000
1000
,
0001
0001
0001
0001
,
1000
1000
0001
0001
,
1000
1000
0001
0001
,
0010
0010
0010
0010
,
0100
0100
0100
0100
,
0010
0010
0100
0100
,
0010
0100
1001
1001
,
0000
0001
0010
0100
,
1000
0020
0030
0100
,
0020
0030
0200
0300
,
0002
0003
2000
3000
,
0000
1000
0010
0100
,
0001
0020
0030
0100
,
0020
0030
0200
0300
,
2000
3000
0001
2000
,
0000
0000
0000
0000
,
0000
0000
0000
0000
,
3000
0000
0000
0000
,
0000
0000
0000
1001
,
0000
0000
0000
0000
;

//---------------dance-single - ----------------
#NOTES:
     dance-single:
     :
     Medium:
     7:
     :
0000
0000
0000
0000
,
0000
0000
0000
0000
,
0000
0000
0000
0000
,
0000
0000
0000
0000
,
0000
0000
0000
0000
,
0000
0000
0000
0000
,
0000
0001
1000
0010
,
0100
0001
0100
0010
,
1000
0000
0100
0000
0010
0000
0200
0020
,
0000
0000
0000
0330
,
0000
1000
0001
0100
,
0010
1000
0010
0100
,
0001
0000
0010
0000
0100
0000
0020
0200
,
0000
0000
0000
0330
,
0000
0000
1000
0000
0001
0000
1000
0100
,
0010
0000
0001
0000
1000
0000
0001
0100
,
0010
0000
1000
0000
0001
0000
2000
0002
,
0000
0000
0000
3003
,
0000
0000
0001
0000
1000
0000
0001
0010
,
0100
0000
1000
0000
0001
0000
1000
0010
,
0100
0000
0001
0000
1000
0000
0002
2000
,
0000
0000
0000
3003
,
0000
0110
1001
0000
,
1010
0101
2200
0000
,
3300
0000
0010
1000
0001
0000
0000
0000
,
0010
0001
1000
0100
,
0000
1001
0110
0000
,
0011
1100
0202
0000
,
0303
0000
0010
1000
0100
0000
0110
0000
,
0010
0001
1000
0100
,
0000
0000
1000
0000
0001
0000
0010
0100
,
0010
0200
0300
0110
,
0001
0100
0010
1000
,
0100
0010
0100
0010
,
0000
0000
0001
0000
1000
0000
0010
0100
,
0010
0200
0300
0110
,
0001
0100
0010
1000
,
0100
0010
0100
0010
,
0002
0000
0010
0000
0100
0000
0013
0200
,
1000
0000
0010
0000
1000
0000
0310
0002
,
0100
0000
1003
0020
0100
0000
1030
0200
,
0010
0010
1300
1001
,
2000
0000
0010
0000
0100
0000
3010
0200
,
0001
0000
0010
0000
0001
0000
0310
2000
,
0100
0001
0010
0001
,
0100
3010
0110
1001
,
0110
0000
0100
0000
0010
0000
1000
0100
,
1000
0010
0100
0010
,
1001
0010
1001
0100
,
0010
1000
0100
0010
,
0001
0000
0010
0000
0100
0000
0010
0001
,
0010
0001
1000
0001
,
0110
1000
0110
0001
,
0100
0010
0100
0000
0010
0000
2002
0000
,
0000
0000
0000
0000
,
0000
0000
0000
0000
,
0000
0000
0000
0000
,
0000
0000
0000
0000
3003
0000
0100
0010
,
0000
0000
0000
0000
;

//---------------dance-single - ----------------
#NOTES:
     dance-single:
     :
     Hard:
     9:
     :
0000
0000
0000
0000
,
0000
0000
0000
0000
,
0000
0000
0000
0000
,
0000
0000
0000
0000
,
0000
0000
0000
0000
,
0000
0000
0000
0000
,
0000
0000
1000
0000
0001
0000
0100
0010
,
1000
0000
0001
0000
0100
0000
0010
0100
,
0001
0000
0010
0000
0100
0000
2000
0002
,
0000
0000
0000
3003
,
0000
0000
0001
0000
1000
0000
0100
0010
,
0001
0000
1000
0000
0100
0000
0010
0100
,
1000
0000
0010
0000
0100
0000
0002
2000
,
0000
0000
0000
3003
,
0000
0000
0010
0000
0100
0000
0010
1000
,
0100
0000
0011
0000
1100
0000
0010
0001
,
0100
0000
0010
0000
1000
0000
0002
0200
,
0000
0000
0000
0303
,
0000
0000
0010
0000
0100
0000
0010
0001
,
0100
0000
1010
0000
0101
0000
0010
1000
,
0100
0000
0010
0000
0001
0000
2000
0200
,
0000
0000
0000
3300
,
0000
0000
0110
0000
1001
0000
0000
0100
,
0010
2000
0002
0000
,
3003
0000
0001
1000
0100
0000
0000
1000
,
0010
0100
0001
1000
,
0000
0000
0110
0000
1001
0000
0000
0100
,
0010
0002
2000
0000
,
3003
0000
1000
0001
0100
0000
0010
0000
,
0100
0010
1000
0100
0010
0000
0100
0000
,
0000
0000
2000
0000
3002
0000
0000
0203
,
0000
0020
0330
0110
,
1000
0001
0010
0000
0001
1000
0010
0000
,
0100
0000
0001
0000
1000
0100
0010
0000
,
0000
0000
0002
0000
2003
0000
0000
3200
,
0000
0020
0330
0110
,
0001
1000
0010
0000
1000
0001
0010
0000
,
0100
1000
0001
0110
,
1000
0100
0010
0000
0001
0010
0100
0000
,
1000
0001
0100
0000
0001
1000
0010
0200
,
0000
0310
1000
0200
0000
0310
0001
0200
,
0000
0301
1000
0010
0100
0000
0110
0000
,
0001
0010
0100
0000
1000
0100
0010
0000
,
0001
1000
0010
0000
1000
0001
0100
0000
,
0001
0010
0100
1000
0001
0010
0100
1000
,
0010
0100
0001
0010
0100
0000
1001
0000
,
0000
0000
0110
0000
1001
0000
0010
0100
,
1000
0000
0110
0000
0010
1000
0001
0000
,
0010
0100
1000
0000
0010
0100
0001
0000
,
1000
0100
0010
0001
0100
0010
1000
0000
,
0100
0000
0110
0000
1001
0000
0010
0100
,
0001
0000
0110
0000
0010
0001
1000
0000
,
0010
0100
0001
0000
0010
0100
1000
0000
,
0001
0100
0010
1000
0100
0010
2002
0000
,
0000
0000
0000
0000
,
0000
0000
0000
0000
,
0000
0000
0000
0000
,
0000
0000
0000
0000
3003
0000
0010
0100
,
0000
0000
0000
0000
;

//---------------dance-single - ----------------
#NOTES:
     dance-single:
     :
     Challenge:
     12:
     :
0000
0000
0000
0000
,
0000
0000
0000
0000
,
0000
0000
0000
0000
,
0000
0000
0000
0000
,
0000
0000
0000
0000
,
0000
0000
0000
0000
0000
0000
0010
0100
,
0010
0000
2000
0000
3002
0000
1003
0100
,
0020
0000
0032
0000
0103
0010
1000
0001
,
0020
0000
2030
0000
3010
0001
0100
0010
,
0000
1000
0001
0100
0000
0001
0010
0100
,
1000
0000
0002
0000
0023
0000
0031
0100
,
0020
0000
2030
0000
3100
0010
0001
1000
,
0020
0000
0230
0000
0310
1000
0001
0100
,
0000
0001
0010
1000
0000
0100
0010
0001
,
1001
0000
0101
0000
1100
0001
0100
0010
,
0110
0000
1010
0000
0011
1000
0001
0100
,
0010
1000
0010
0100
0001
0010
0001
1000
,
0100
0010
1000
0010
0000
0010
0001
0100
,
0001
0100
0110
0000
1001
0010
1000
0001
,
0010
0100
1100
0000
0011
0001
0100
0010
,
1000
0100
0001
0100
1000
0010
0001
0010
,
1000
0100
0010
0001
0000
0001
0100
0010
,
1001
0000
0100
0000
0010
0000
0000
1000
0001
0000
0100
0000
0010
0000
1000
0000
,
0002
0010
0000
0000
2003
0010
0000
0000
3002
0010
0000
0000
1003
0000
0000
0000
,
0110
0000
0001
0000
1000
0000
0000
0010
1000
0000
0000
0000
0001
0000
0100
0000
,
0020
1000
0000
0000
2030
0100
0000
0000
3200
0001
0000
0000
0302
0010
0000
0000
,
0013
0000
0000
0000
1010
0000
0000
0001
0100
0000
0010
0000
1000
0000
0001
0000
,
2000
0100
0000
0000
3002
0100
0000
0000
2003
0100
0000
0000
3001
0000
1000
0000
,
0100
0000
1000
0000
0001
0100
0000
0000
1000
0010
0000
0000
1000
0000
0001
0000
,
0020
0001
0000
0000
0032
0100
0000
0000
0203
1000
0000
0000
2300
0010
0000
0000
,
3010
0000
0011
0000
1100
0001
0100
0010
,
1000
0000
0100
0010
0002
0000
0000
0000
0100
0000
0000
0000
1003
0000
0000
0000
,
1001
0010
1000
0100
0001
0100
1000
0000
,
0010
1000
0000
0000
0001
0100
0000
0000
0001
0000
0010
0000
1000
0000
0000
0000
,
0100
1000
0010
1000
0001
1000
0100
0010
,
0001
0100
0001
0010
0100
1000
0001
1000
,
0010
0100
0010
1000
0100
0010
0001
0100
,
0010
0001
0010
0100
0010
1000
0010
0000
,
0101
0000
0000
0001
0010
0000
0000
0100
1000
0000
0000
0010
0100
0000
0001
0000
,
0010
1000
0010
0001
0010
1000
0010
0100
,
1000
0010
0001
0010
1000
0100
0001
0100
,
1000
0110
0000
0001
0100
0010
0100
0001
,
1100
0000
0000
0010
0100
0000
0000
0001
1000
0000
0000
0001
0010
0000
0100
0000
,
0001
0100
0010
0100
1000
0010
0100
0001
,
0010
1000
0010
0001
0100
1000
0100
0001
,
1000
0010
0001
0100
1001
0000
1001
0000
,
0110
0000
0000
0010
1000
0000
0000
1000
0100
0000
0000
0100
0010
0000
0001
0000
,
0100
1000
0100
0001
0010
0100
1000
0000
,
1000
0001
0010
0100
0001
0100
1000
0000
,
0001
0100
0000
0000
0100
1000
0000
0000
1000
0000
0010
0000
0001
0000
0000
0000
,
0100
0010
0100
1000
0100
0001
0010
0100
,
0001
0100
1000
0010
1000
0001
0100
0000
,
0010
0001
0010
0100
0010
0001
1000
0001
,
1000
0000
0010
0000
0100
0000
0010
0000
1000
0001
1000
0001
1000
0000
0000
0000
,
0020
0002
0003
0002
,
0003
2000
3000
2030
,
3002
0000
0000
0000
,
1003
0001
1000
0001
1000
0001
0010
0200
,
0000
0000
0000
0300
;

//---------------dance-double - ----------------
#NOTES:
     dance-double:
     :
     Easy:
     4:
     :
00000000
00000000
00000000
00000000
,
00000000
00000000
00000000
00000000
,
00000000
00000000
00000000
00000000
,
00000000
00000000
00000000
00000000
,
00000000
00000000
00000000
00000000
,
00000000
00000000
00000000
00000000
,
00000000
00000010
00000100
00000010
,
00001000
00000100
00020000
00030000
,
00001000
00000000
00100000
00000000
,
01000000
00000000
00000000
00000000
,
00000000
00100000
01000000
00100000
,
00010000
01000000
00002000
00003000
,
00010000
00000000
00000010
00000000
,
00000100
00000000
00000000
00000000
,
00000000
00000001
00000100
00001000
,
00010000
00001000
00020000
00030000
,
00001000
00100000
00010000
10000000
,
01000000
00000000
00000000
00000000
,
00000000
10000000
01000000
00010000
,
00001000
00010000
00002000
00003000
,
00010000
00000010
00001000
00000001
,
00000100
00000000
00000000
00000000
,
00000000
00000001
00001000
00000000
,
00001000
00000010
00000200
00000000
,
00000300
00001000
00010000
00000000
,
00001000
01000000
00010000
01000000
,
00000000
00010000
10000000
00000000
,
00010000
00100000
02000000
00000000
,
03000000
00010000
00001000
00001000
,
00010000
00000100
00001000
00000100
,
00000000
00000010
00000001
00000100
,
00000010
00001000
00000000
00000100
,
00020000
00030000
00002000
00003000
,
02000000
03000000
00200000
00300000
,
00000000
00100000
10000000
01000000
,
00100000
00010000
00000000
01000000
,
00002000
00003000
00020000
00030000
,
00000200
00000300
00000020
00000030
,
00000001
00000001
00000100
00000100
,
00000010
00000010
00001000
00001000
,
00000100
00000100
00010000
00010000
,
00001000
00001000
01000000
01000000
,
00100000
00100000
10000000
10000000
,
00010000
00010000
00100000
00100000
,
00001000
00001000
00010000
00010000
,
00001000
00010000
00011000
00011000
,
00000000
00001000
00010000
00000010
,
00000100
00000020
00000030
00000100
,
00000002
00000003
00000200
00000300
,
00002000
00003000
00020000
00030000
,
00000000
00010000
00001000
00100000
,
01000000
00200000
00300000
01000000
,
20000000
30000000
02000000
03000000
,
00020000
00030000
00001000
00020000
,
00000000
00000000
00000000
00000000
,
00000000
00000000
00000000
00000000
,
00030000
00000000
00000000
00000000
,
00000000
00000000
00000000
00011000
,
00000000
00000000
00000000
00000000
;

//---------------dance-double - ----------------
#NOTES:
     dance-double:
     :
     Medium:
     7:
     :
00000000
00000000
00000000
00000000
,
00000000
00000000
00000000
00000000
,
00000000
00000000
00000000
00000000
,
00000000
00000000
00000000
00000000
,
00000000
00000000
00000000
00000000
,
00000000
00000000
00000000
00000000
,
00000000
10000000
01000000
00010000
,
00001000
00100000
00001000
00010000
,
00000010
00000000
00000100
00000000
00000001
00000000
00000020
00000200
,
00000000
00000000
00000000
00000330
,
00000000
00000001
00000100
00001000
,
00010000
00000010
00010000
00001000
,
00100000
00000000
01000000
00000000
10000000
00000000
00200000
02000000
,
00000000
00000000
00000000
03300000
,
00000000
00000000
01000000
00000000
00010000
00000000
00100000
00001000
,
00010000
00000000
00001000
00000000
00000100
00000000
00000010
00001000
,
00000001
00000000
00000010
00000000
00000100
00000000
00002000
00000002
,
00000000
00000000
00000000
00003003
,
00000000
00000000
00000100
00000000
00001000
00000000
00000010
00010000
,
00001000
00000000
00010000
00000000
01000000
00000000
00100000
00010000
,
10000000
00000000
00100000
00000000
01000000
00000000
00020000
20000000
,
00000000
00000000
00000000
30030000
,
00000000
01100000
10010000
00000000
,
01100000
00101000
00022000
00000000
,
00033000
00000000
00001000
00010000
00001000
00000000
00000000
00000000
,
00000100
00000010
00001000
00000001
,
00000000
00000110
00001001
00000000
,
00000110
00010010
00022000
00000000
,
00033000
00000000
00010000
00001000
00010000
00000000
00011000
00000000
,
01000000
00100000
10000000
00010000
,
00000000
00000000
01000000
00000000
00010000
00000000
00100000
00001000
,
00010000
00002000
00003000
00011000
,
00000100
00000010
00001000
00000001
,
00000010
00000010
00000100
00000100
,
00000000
00000000
00000100
00000000
00001000
00000000
00000010
00010000
,
00001000
00020000
00030000
00011000
,
01000000
00100000
00010000
10000000
,
00100000
00100000
01000000
01000000
,
00200000
00000000
01000000
00000000
10000000
00000000
01300000
00002000
,
00100000
00000000
00010000
00000000
00100000
00000000
00013000
00000200
,
00000010
00000000
00000310
00000002
00001000
00000000
00001003
00000200
,
00000010
00000001
00000310
00000011
,
00000020
00000000
00000100
00000000
00000001
00000000
00000130
00020000
,
00000010
00000000
00001000
00000000
00000010
00000000
00031000
02000000
,
00100000
00000000
03100000
20000000
00010000
00000000
30010000
02000000
,
00100000
03010000
01100000
10010000
,
01100000
00000000
10000000
00000000
00100000
00000000
10000000
01000000
,
00100000
00001000
00010000
00001000
,
00001100
00000010
00000101
00000010
,
00000100
00000001
00000010
00000100
,
00000110
00000000
00000001
00000000
00000010
00000000
00000001
00000100
,
00000010
00010000
00001000
00010000
,
01010000
00100000
11000000
00100000
,
01000000
00010000
00100000
00000000
01000000
00000000
20020000
00000000
,
00000000
00000000
00000000
00000000
,
00000000
00000000
00000000
00000000
,
00000000
00000000
00000000
00000000
,
00000000
00000000
00000000
00000000
30030000
00000000
00100000
01000000
,
00000000
00000000
00000000
00000000
;

//---------------dance-double - ----------------
#NOTES:
     dance-double:
     :
     Hard:
     9:
     :
00000000
00000000
00000000
00000000
,
00000000
00000000
00000000
00000000
,
00000000
00000000
00000000
00000000
,
00000000
00000000
00000000
00000000
,
00000000
00000000
00000000
00000000
,
00000000
00000000
00000000
00000000
,
00000000
00000000
00000001
00000000
00000100
00000000
00000010
00010000
,
00000100
00000000
00010000
00000000
00001000
00000000
00010000
01000000
,
00100000
00000000
00010000
00000000
01000000
00000000
00020000
20000000
,
00000000
00000000
00000000
30030000
,
00000000
00000000
10000000
00000000
01000000
00000000
00100000
00001000
,
01000000
00000000
00001000
00000000
00010000
00000000
00001000
00000100
,
00000010
00000000
00001000
00000000
00000100
00000000
00002000
00000002
,
00000000
00000000
00000000
00003003
,
00000000
00000000
00000001
00000000
00001000
00000000
00000010
00000100
,
00001000
00000000
00010000
00000000
00001000
00000000
00010000
01000000
,
10000000
00000000
00100000
00000000
01000000
00000000
00200000
20000000
,
00000000
00000000
00000000
30300000
,
00000000
00000000
10000000
00000000
00010000
00000000
00100000
01000000
,
00010000
00000000
00001000
00000000
00010000
00000000
00001000
00000100
,
00000001
00000000
00000010
00000000
00000100
00000000
00000020
00000002
,
00000000
00000000
00000000
00000033
,
00000000
00000000
00000011
00000000
00000110
00000000
00000000
00000010
,
00000001
00000200
00000020
00000000
,
00000330
00000000
00001000
00000100
00010000
00000000
00000000
01000000
,
00100000
00010000
10000000
00100000
,
00000000
00000000
10100000
00000000
01100000
00000000
00000000
00100000
,
10000000
02000000
00200000
00000000
,
03300000
00000000
00010000
01000000
00001000
00000000
00000100
00000000
,
00000010
00001000
00000100
00000010
00000001
00000000
00000010
00000000
,
00000000
00000000
00000200
00000000
00020300
00000000
00000000
00032000
,
00000000
00020000
00033000
00011000
,
01000000
00001000
00010000
00000000
01000000
10000000
00010000
00000000
,
00100000
00000000
01000000
00000000
00100000
00010000
01000000
00000000
,
00000000
00000000
00020000
00000000
02030000
00000000
00000000
03002000
,
00000000
00020000
00033000
00011000
,
00000100
00010000
00001000
00000000
00000100
00000001
00001000
00000000
,
00000010
00000100
00000010
00001001
,
00000001
00000100
00000010
00000000
00001000
00000100
00010000
00000000
,
00000010
00000100
00001000
00000000
00010000
01000000
10000000
00200000
,
00000000
01300000
00010000
00200000
00000000
00301000
00010000
00002000
,
00000000
00003100
00000010
00001000
00000001
00000000
00001001
00000000
,
00000001
00000010
00000100
00000000
00001000
00000010
00010000
00000000
,
00000100
00000010
00001000
00000000
00010000
00001000
00010000
00100000
,
01000000
00100000
10000000
00000000
00010000
00100000
00001000
00000000
,
00010000
00001000
00000100
00000010
00001000
00000000
00001001
00000000
,
00000110
00000000
00001010
00000000
00000101
00000000
00000010
00000100
,
00000001
00000000
00000101
00000000
00000001
00000100
00001000
00000000
,
00000100
00001000
00010000
00000000
00001000
00010000
01000000
00000000
,
00100000
00010000
01000000
00100000
10000000
01000000
00100000
00000000
,
01100000
00000000
00110000
00000000
11000000
00000000
00100000
01000000
,
10000000
00000000
11000000
00000000
10000000
01000000
00010000
00000000
,
01000000
00010000
00001000
00000000
00010000
00001000
00000100
00000000
,
00000010
00001000
00000100
00000010
00000001
00000100
00002002
00000000
,
00000000
00000000
00000000
00000000
,
00000000
00000000
00000000
00000000
,
00000000
00000000
00000000
00000000
,
00000000
00000000
00000000
00000000
00003003
00000000
00000010
00000100
,
00000000
00000000
00000000
00000000
;
