#TITLE:Clarity;
#SUBTITLE:(kors k remix);
#ARTIST:Zedd ft. Foxes;
#BANNER:Clarity (kors k remix)-bn.png;
#BACKGROUND:Clarity (kors k remix)-bg.png;
#JACKET:Clarity (kors k remix)-jacket.png;
#MUSIC:Clarity (kors k remix).ogg;
#SAMPLESTART:90.353;
#SAMPLELENGTH:20;
#DISPLAYBPM:170;
#BPMS:0=170;
#BGCHANGES:;

//---------------dance-single - ----------------
#NOTES:
     dance-single:
     :
     Beginner:
     3:
     :
0000
0000
0000
0000
,
0000
0000
0000
0000
,
0000
0000
0000
0000
,
0000
0000
0000
0000
,
0000
0000
0000
0000
,
0000
0000
0000
0000
,
0000
0000
0000
0000
,
0000
0000
0000
0000
,
1001
0000
0000
0000
,
0010
0000
0000
0000
,
1000
0000
0001
0000
,
0100
0000
0000
0000
,
0001
0000
0000
0000
,
1000
0000
0000
0000
,
0001
0000
0100
0000
,
0010
0000
0000
0000
,
0110
0000
0000
0000
,
1000
0000
0000
0000
,
0100
0000
0010
0000
,
0001
0000
0000
0000
,
0100
0000
0000
0000
,
0010
0000
0000
0000
,
0100
0000
0001
0000
,
1000
0000
0000
0000
,
0010
0000
0100
0000
,
0001
0001
0001
0000
,
0010
0000
0001
0000
,
1000
1000
1000
0000
,
0010
0000
0100
0000
,
0010
0010
0010
0000
,
1000
0000
0100
0000
,
1000
0000
0001
0000
,
0100
0100
0100
0000
,
0020
0000
0030
0000
,
1000
0000
0001
0000
,
0010
0000
0001
0000
,
1000
1000
1000
0000
,
0020
0000
0030
0000
,
0100
0000
0001
0000
,
0010
0000
0001
0000
,
0100
0000
0100
0000
,
0010
0000
0010
0000
,
1000
0000
1000
0000
,
0001
0000
0001
0000
,
0100
0000
0010
0000
,
1000
0000
0001
0000
,
0010
0000
0001
0000
,
0100
0000
0000
0000
,
0010
0010
0000
0000
,
1000
1000
0000
0000
,
0001
0000
1000
0000
,
0010
0000
0100
0000
,
0001
0001
0000
0000
,
0100
0100
0000
0000
,
0001
0000
0010
0000
,
0100
0000
1000
0000
,
0100
0100
0000
0000
,
1000
1000
0000
0000
,
0010
0000
1000
0000
,
0100
0000
0001
0000
,
0010
0010
0000
0000
,
0001
0001
0000
0000
,
1000
0000
0001
0000
,
0010
0000
0100
0000
,
1000
1000
1000
0000
,
0020
0000
0030
0000
,
0100
0000
0001
0000
,
0010
0000
1000
0000
,
0100
0100
0100
0000
,
2000
0000
3000
0000
,
0010
0000
1000
0000
,
0001
0000
0100
0000
,
0001
0001
0001
0000
,
0020
0000
0030
0000
,
0001
0001
0001
0000
,
1000
1000
1000
0000
,
0010
0010
0010
0000
,
2000
0000
3000
0000
,
0001
0001
0001
0000
,
0100
0000
0110
0000
,
1001
0000
0000
0000
;

//---------------dance-single - ----------------
#NOTES:
     dance-single:
     :
     Easy:
     7:
     :
0000
0000
0000
0000
,
0000
0000
0000
0000
,
0000
0000
0000
0000
,
0000
0000
0000
0000
,
0000
0000
0000
0000
,
0000
0000
0000
0000
,
0000
0000
0000
0000
,
0000
0000
0000
0000
,
2001
0000
0010
0000
,
0001
0000
0100
0000
,
0001
0000
0100
0000
,
0002
0000
0000
3003
,
0210
0000
0010
0000
,
1000
0000
0001
0000
,
1000
0000
0001
0000
,
0020
0000
0000
0330
,
2001
0001
0001
0001
,
0100
0100
0100
0100
,
0010
0010
0100
0100
,
0001
0001
0001
3001
,
0210
0010
0010
0010
,
1000
1000
1000
1000
,
0001
0001
0001
0001
,
0010
0010
0010
0310
,
1010
0001
0200
0000
,
0010
1000
0002
0303
,
0011
0002
2000
0003
,
0010
0010
0100
3100
,
1100
1000
0020
0000
,
0100
0001
2000
3030
,
0101
0010
1000
0001
,
0100
0100
0010
0010
,
1001
0100
0010
1000
,
0002
1000
0000
1003
,
0010
0010
1000
1000
,
0100
1000
0001
0001
,
0110
0010
1000
0100
,
0020
0001
0000
0031
,
0100
0100
0001
0001
,
1000
0001
0100
0100
,
1000
1000
1000
1000
,
0001
0001
0001
0001
,
0100
0100
0100
0100
,
0010
0010
0010
0010
,
1000
1000
0001
0001
,
0100
0100
0010
0010
,
1000
0001
0100
0010
,
0200
0000
0010
0310
,
0100
0001
0010
0001
,
0010
0100
1000
0001
,
0010
0001
0010
0100
,
0001
0100
1000
0010
,
0001
1000
0001
1000
,
0100
0010
0001
0100
,
0001
0010
0001
0010
,
0100
1000
0010
0001
,
0100
0010
0100
0001
,
0100
1000
1000
1000
,
0010
1000
0001
0010
,
1000
0001
0100
0100
,
0010
0100
0010
1000
,
0100
0010
0001
0100
,
0001
0010
0100
1000
,
0010
1000
0100
0001
,
0010
1000
0100
0001
,
0010
0100
0010
0001
,
0100
0010
1000
0001
,
2000
3020
0230
0302
,
0013
0001
0100
0010
,
0100
0001
0010
1000
,
0100
0100
1000
0001
,
0200
0320
2030
3002
,
0013
0001
0010
0100
,
1000
0010
1000
0001
,
0010
0001
0100
1000
,
0010
1000
0100
0001
,
2010
0001
0100
3001
,
0012
1000
0100
1003
,
0120
0001
1000
0031
,
0010
0010
1000
0001
,
1001
0000
0000
0000
;

//---------------dance-single - ----------------
#NOTES:
     dance-single:
     :
     Medium:
     11:
     :
0000
0000
0000
0000
,
0000
0000
0000
0000
,
0000
0000
0000
0000
,
0000
0000
0000
0000
,
0000
0000
0000
0000
,
0000
0000
0000
0000
,
0000
0000
0000
0000
,
0000
0000
0000
0000
,
2001
0000
0001
0000
0001
0000
3001
0100
,
0020
0000
1000
0000
1000
0000
1030
0001
,
1000
0000
0010
0000
1000
0000
0001
0200
,
0000
0000
0000
0300
,
0210
0000
0010
0000
0010
0000
0310
1000
,
0002
0000
0010
0000
0010
0000
0013
0100
,
1000
0000
0001
0000
0100
0000
0001
0020
,
0000
0000
0000
0030
,
0012
0000
1000
0000
1000
0000
1003
0010
,
0200
0000
1000
0000
0001
0000
0301
0100
,
0010
0000
1000
0000
0001
0000
1000
0200
,
0000
0000
0000
0300
,
1000
0001
0100
0000
0010
0000
1000
0001
,
0010
0000
0001
0000
0100
0000
0001
1000
,
0010
0000
0100
0000
0010
0000
1000
0002
,
0000
0000
0000
0003
,
0010
0001
0100
0000
1010
0000
0000
0001
,
1000
0100
0020
0000
0230
0000
0300
0000
,
1000
0000
1100
0000
0101
0000
0000
0010
,
1000
0100
0001
0000
2000
0000
3002
0000
,
0103
0000
0101
0000
1010
0000
0000
0010
,
1000
0001
0200
0000
0320
0000
1030
0001
,
1000
0000
0200
0000
0320
0000
0031
1000
,
0002
0203
0320
2030
,
3100
0000
1100
0000
0011
0000
0100
0010
,
1000
0001
0200
0000
1000
0000
0301
0000
,
0100
0001
0010
0000
0001
0100
1000
0000
,
2000
0000
3002
0000
1003
0100
0010
0000
,
0001
0000
0200
0000
0320
0000
1030
0001
,
1000
0100
0020
0000
1000
0000
0031
0000
,
0100
0001
0010
0000
0001
0100
1000
0000
,
1001
0000
0110
0000
1000
0100
0001
0000
,
0010
1000
0100
0000
0010
0001
0100
0000
,
0001
0010
0001
0000
1000
0100
1000
0000
,
0001
0100
0001
0000
1000
0010
1000
0000
,
0010
0100
0010
0000
1000
0001
1000
0000
,
1100
0000
0101
0000
1000
0100
0010
0000
,
0011
0000
1100
0000
0010
1000
0001
0000
,
1000
0100
1000
0100
0010
0001
0010
0001
,
0200
0000
0300
0000
0010
1000
0002
0000
,
1003
0100
0010
0000
0001
0100
0001
0000
,
0010
0001
1000
0000
0010
1000
0100
0000
,
1000
0010
0100
0000
0001
0010
0001
0000
,
0010
0100
1000
0010
1000
0001
0100
0000
,
0001
1000
0001
0000
1000
0100
0010
0000
,
0100
1000
0001
0000
0010
0001
0100
0000
,
1000
0010
1000
0000
0100
0010
0001
0000
,
0010
0001
0010
0001
1000
0001
0100
0000
,
0010
0001
1000
0000
0001
1000
0010
0100
,
0010
1000
0100
0000
1000
0100
0010
0001
,
0100
0001
0010
0001
0010
0100
1000
0000
,
0010
1000
0010
1000
0100
0010
0001
0000
,
0010
1000
0001
0000
0100
0010
0100
0010
,
1000
0100
0001
0000
0010
0001
0010
0100
,
1000
0010
1000
0000
0001
0010
0001
0000
,
1000
0001
1000
0100
0000
0010
0001
0010
,
0100
0000
1100
0000
0101
0000
0010
1000
,
0010
0100
0010
1000
0001
0010
0100
0000
,
1000
0100
0001
0000
0001
0100
1000
0000
,
1010
0000
0101
0000
1000
0001
0010
0000
,
0100
0000
0110
0000
1001
0000
0010
0100
,
0010
1000
0001
1000
0100
0010
0001
0000
,
0100
0001
0010
0000
0001
0100
1000
0000
,
1010
0000
1100
0000
0001
0010
0001
0000
,
0100
0000
1010
0000
0101
0000
0010
0100
,
0010
0001
1000
0001
1000
0100
0010
0000
,
0001
0100
0010
0000
0100
0010
1000
0000
,
0100
0010
0001
0000
1000
0001
0100
0000
,
0011
0000
1100
0000
0010
1000
0001
0100
,
0010
1000
0001
1000
0100
0010
0001
0000
,
0100
0010
1000
0000
0002
0000
0203
0000
,
0310
0000
1010
0000
1000
0100
0001
0000
,
1001
0000
0000
0000
;

//---------------dance-single - ----------------
#NOTES:
     dance-single:
     :
     Hard:
     13:
     :
0000
0000
0000
0000
,
0000
0000
0000
0000
,
0000
0000
0000
0000
,
0000
0000
0000
0000
,
0000
0000
0000
0000
,
0000
0000
0000
0000
,
0000
0000
0000
0000
,
0000
0000
0000
0000
,
2001
0000
0001
0000
0001
0000
3100
0010
,
0002
0000
1000
0000
1000
0000
0103
0010
,
2000
0000
0010
0000
0001
0000
3010
0200
,
1000
1000
0001
0301
,
0210
0000
0010
0000
0001
0000
1300
0100
,
0002
0000
0010
0000
0100
0000
1003
0001
,
2000
0000
0010
0000
0100
0000
3010
0200
,
1000
1000
0001
0301
,
0012
0000
1000
0000
1003
0010
0100
0001
,
0020
0000
1000
0000
1030
0010
0001
0100
,
0020
0000
2030
0000
3001
1000
0010
0100
,
0001
0001
1000
1000
,
1010
0010
0100
0000
0100
0001
1000
0001
,
0020
0000
0032
0000
1003
0001
0100
0010
,
2000
0000
3200
0000
1300
0010
0100
0001
,
0010
0000
0001
0100
0010
0000
1000
0001
,
1001
0100
0010
0000
1010
0000
0001
0100
,
1000
0100
0001
0100
1000
0100
0001
0000
,
0110
0001
1000
0000
0101
0000
0010
1000
,
0100
0001
0100
1000
0100
0001
0100
0000
,
1100
0000
0001
0100
1010
0000
0001
0100
,
0010
1000
0010
0100
0010
1000
0001
0000
,
0011
0000
0100
0000
1100
1000
0001
0010
,
0100
0010
0100
0010
0001
0100
1000
0000
,
1001
0000
0010
1000
0010
0100
0001
1000
,
0100
0010
0002
0000
1000
0000
0103
0000
,
1000
1000
1000
0000
0010
0100
0001
0000
,
0010
0001
0100
0000
0001
0001
0001
0000
,
0110
0000
0001
1000
0010
1000
0100
0010
,
0001
1000
0020
0000
0001
0000
0130
0000
,
0010
0010
0010
0000
1000
0001
0100
0000
,
0110
0000
1001
0000
0001
0100
1000
0000
,
0010
0000
1000
0000
0010
0000
1000
0000
0001
0000
0000
0001
0000
0000
0001
0000
,
0010
0000
0001
0000
0010
0000
0001
0000
1000
0000
0000
1000
0000
0000
1000
0000
,
0010
0000
0100
0000
0001
0000
1000
0000
0100
0000
0000
0100
0000
0000
0100
0000
,
1000
0010
0100
0001
0010
0100
1000
0000
,
0001
0000
0000
0010
0001
0000
0100
0000
0010
0000
0000
1000
0100
0000
0010
0000
,
0001
0000
0000
1000
0001
0000
0100
0000
0010
0000
0000
0100
0001
0000
1000
0000
,
0100
0010
0100
0010
0001
0100
0010
1000
,
0200
0000
0000
0000
0300
0000
0000
0000
1000
0001
1000
0001
1000
0000
0000
0000
,
1001
0000
0010
0000
0100
0000
0000
0001
0000
1000
0000
0001
0100
0000
0010
0000
,
1000
0000
0100
0000
0010
0000
0000
0001
0000
0100
0000
0001
1000
0000
0010
0000
,
1000
0100
0001
0100
0010
0001
0100
1000
,
0100
0010
0001
0010
1000
0100
1000
0001
,
0100
0000
1000
0000
0001
0000
0000
0010
0000
0001
0000
1000
0010
0000
0100
0000
,
0010
0000
1000
0000
0100
0000
0000
1000
0000
0001
0000
0010
0001
0000
0100
0000
,
0010
1000
0100
0010
0001
1000
0010
0100
,
1000
0100
0001
0010
1000
0001
1000
0100
,
0010
0000
0001
0000
1000
0000
0000
0010
0000
1000
0000
0100
0010
0000
0001
0000
,
0100
0000
0001
0000
1000
0000
0000
0010
0000
0100
0000
0001
1000
0000
0010
0000
,
1000
0100
0001
0100
0010
0001
0100
0010
,
0001
0010
1000
0100
1000
0001
1000
0100
,
0010
0000
0100
0000
1000
0000
0000
0001
0000
1000
0000
0001
0010
0000
0100
0000
,
0001
0000
0100
0000
1000
0000
0000
0010
0000
0100
0000
0010
1000
0000
0001
0000
,
0010
0001
0100
0010
1000
0100
1000
0001
,
0100
1000
0100
0010
0100
1000
0100
0001
,
0011
0000
1000
0010
0100
0010
1000
0100
,
0001
0100
1000
0010
0100
0001
1000
0000
,
0010
0010
0010
1000
0001
1000
0100
0000
,
0010
0001
0100
0000
1000
1000
1000
0000
,
0001
1000
0010
1000
0100
0010
0001
0100
,
1000
0100
0010
0100
1000
0100
0001
0000
,
0010
0010
0010
0001
0100
0010
1000
0000
,
1100
0000
0101
0000
1000
0100
0001
0000
,
1001
0000
0110
0001
0100
0010
1000
0100
,
0001
0100
0010
0100
1000
0010
0100
0000
,
0001
0001
0001
1000
0010
1000
0100
0000
,
0010
0001
0100
0000
1000
1000
1000
0000
,
1010
0001
0100
0010
0100
0001
0010
1000
,
0010
0100
0010
0001
0100
0010
1000
0000
,
0001
0100
0010
1000
0100
0010
0001
0000
,
1000
0000
0100
0000
0020
0000
0000
0000
0031
1000
0001
1000
0001
0000
0000
0000
,
1001
0000
0000
0000
;
