#TITLE:チョコレートスマイル;
#ARTIST:日向美ビタースイーツ♪ & ここなつ;
#TITLETRANSLIT:Chocolate Smile;
#ARTISTTRANSLIT:Hinatabi Bittersweets♪ & KokoNatsu;
#BANNER:Chocolate Smile.png;
#BACKGROUND:Chocolate Smile-bg.png;
#JACKET:Chocolate Smile-jacket.png;
#MUSIC:Chocolate Smile.ogg;
#SAMPLESTART:48.98;
#SAMPLELENGTH:20;
#DISPLAYBPM:196;
#BPMS:0=196;
#BGCHANGES:0=Chocolate Smile.avi=1=0=0=0,
;

//---------------dance-single - ----------------
#NOTES:
     dance-single:
     :
     Beginner:
     3:
     :
0000
0000
0000
0000
,
0000
0000
0000
0000
,
0000
0000
0000
0000
,
0000
0000
0000
0000
,
0000
0000
0000
0000
,
0000
0000
0000
0000
,
0000
0000
0000
0000
,
0000
0000
0000
0000
,
0000
0000
0000
0000
,
1000
0000
0000
0000
,
1000
0000
0000
0000
,
0001
0000
0000
0000
,
0001
0000
0000
0000
,
1000
0000
0000
0000
,
0001
0000
0000
0000
,
1000
0000
0001
0000
,
1000
0000
0000
0000
,
0001
0000
0000
0000
,
1000
0000
0000
0000
,
0001
0000
0001
0000
,
1000
0000
1000
0000
,
0001
0000
0000
0000
,
1000
0000
0000
0000
,
0001
0000
1000
0000
,
0001
0000
0000
0000
,
0000
0000
0000
0000
,
0010
0000
0000
0000
,
0010
0000
0000
0000
,
0010
0000
0000
0000
,
0000
0000
0000
0000
,
0100
0000
0000
0000
,
0100
0000
0000
0000
,
0100
0000
0000
0000
,
0000
0000
0000
0000
,
0010
0000
0000
0000
,
0100
0000
0000
0000
,
0010
0000
0000
0000
,
0100
0000
0000
0000
,
0010
0000
0010
0000
,
0010
0000
0000
0000
,
1000
0000
0000
0000
,
1000
0000
0000
0000
,
1000
0000
1000
0000
,
1000
0000
0000
0000
,
0001
0000
0000
0000
,
0001
0000
0000
0000
,
0001
0000
0001
0000
,
0001
0000
0000
0000
,
1000
0000
0000
0000
,
0001
0000
0000
0000
,
1000
0000
0001
0000
,
1000
0000
0000
0000
,
0001
0000
0000
0000
,
1000
0000
0000
0000
,
0001
0000
1000
0000
,
0001
0000
0000
0000
,
0010
0000
0000
0000
,
0010
0000
0000
0000
,
0010
0000
0010
0000
,
0010
0000
0000
0000
,
0100
0000
0000
0000
,
0100
0000
0000
0000
,
0100
0000
0000
0000
,
0100
0000
0000
0000
,
0010
0000
0000
0000
,
0000
0000
0000
0000
,
0000
0000
0000
0000
,
0000
0000
0000
0000
,
0000
0000
0000
0000
,
1000
0000
0000
0000
,
0000
0000
0000
0000
,
0001
0000
0000
0000
,
0000
0000
0000
0000
,
0010
0000
0000
0000
,
0000
0000
0000
0000
,
0100
0000
0000
0000
,
0000
0000
0000
0000
,
0001
0000
0001
0000
,
1000
0000
1000
0000
,
0001
0000
0001
0000
,
1000
0000
0001
0000
,
1000
0000
0000
0000
,
0001
0000
0000
0000
,
0010
0000
0010
0000
,
0100
0000
0000
0000
,
1000
0000
1000
0000
,
1000
1000
1000
0000
,
0001
0000
0001
0000
,
0001
0001
0001
0000
,
1000
0000
0001
0000
,
1000
0001
1000
0000
,
0010
0000
0000
0000
,
0100
0000
0000
0000
,
1001
0000
0000
0000
,
0000
0000
0000
0000
,
0000
0000
0000
0000
,
0000
0000
0000
0000
,
0010
0000
0000
0000
,
0100
0000
0000
0000
,
1001
0000
0000
0000
,
0000
0000
1001
0000
,
0000
0000
0000
0000
;

//---------------dance-single - ----------------
#NOTES:
     dance-single:
     :
     Easy:
     6:
     :
0000
0000
0000
0000
,
0000
0000
0000
0000
,
0000
0000
0000
0000
,
0000
0000
0000
0000
,
0000
0000
0000
0000
,
0010
0000
0010
0000
,
0100
0000
0100
0000
,
1001
0000
0000
0000
,
0000
0000
0000
0000
,
1000
0000
1000
0000
,
0001
0000
0001
0000
,
1000
0000
0001
0000
,
1000
0010
0100
0001
,
0010
0000
0010
0000
,
0100
0000
0100
0000
,
0010
0000
0100
0000
,
1000
0001
0100
0000
,
0010
0000
0010
0000
,
0100
0000
0100
0000
,
0010
0000
0100
0000
,
0010
1000
0100
0010
,
0001
0000
0001
0000
,
1000
0000
1000
0000
,
0001
1000
0001
1000
,
2002
0000
0000
3003
,
0000
0000
0000
0000
,
1000
0000
1000
0000
,
0100
0000
0100
0000
,
0001
0000
0001
0000
,
0100
0000
0100
0000
,
1000
0000
0100
0000
,
0001
0000
0100
0000
,
0010
0000
0010
0000
,
0010
0000
0000
0000
,
0100
0000
0100
0000
,
0010
0010
0010
0000
,
1000
0000
0100
0000
,
0001
0000
0010
0000
,
2002
0000
0000
3003
,
0000
0000
0000
0000
,
1000
0000
0100
0000
,
0001
0000
0100
0000
,
1000
0100
0001
0100
,
2000
0000
3000
0000
,
0010
0000
0010
0000
,
2002
0000
3003
0000
,
0001
0000
0100
0000
,
1000
0000
0010
0000
,
0001
0000
0100
0000
,
1000
0000
0100
0000
,
0001
0100
1000
0100
,
0002
0000
0003
0000
,
0010
0000
0010
0000
,
2002
0000
3003
0000
,
1000
0000
0100
0000
,
0001
0000
0010
0000
,
1000
1000
1000
0000
,
0001
0001
0001
0000
,
1000
1000
0010
0000
,
0001
0001
0100
0000
,
1000
0010
1000
0000
,
0001
0010
0001
0000
,
2002
0000
3003
0000
,
2002
0000
3003
0000
,
0000
0000
0000
0000
,
0000
0000
0000
0000
,
1000
0000
0100
0000
,
0001
0000
0010
0000
,
0000
0000
0000
0000
,
1000
0000
0000
0000
,
0100
0000
0000
0000
,
0001
0000
0000
0000
,
0100
0000
0000
0000
,
1000
0000
0000
0000
,
0100
0000
0000
0000
,
0001
0000
0000
0000
,
0010
0000
0000
0000
,
1000
1000
0100
0000
,
0001
0001
0100
0000
,
1000
0000
0100
0000
,
0001
0000
0010
0000
,
1000
0000
0100
0000
,
0001
0000
0100
0000
,
1000
0100
0001
0100
,
1001
0000
0000
0000
,
0010
0010
0010
0000
,
0100
0100
0100
0000
,
1000
1000
1000
0000
,
0100
0100
0100
0000
,
0001
0001
0001
0000
,
0010
0010
0010
0000
,
2002
0000
3003
0000
,
2002
0000
3003
0000
,
0100
0100
0100
0000
,
0010
0000
0000
0000
,
2002
0000
0000
0000
,
0000
0000
3003
0000
,
0010
0010
0010
0000
,
0100
0100
0100
0000
,
1001
0000
0000
0000
,
0000
0000
1001
0000
,
0000
0000
0000
0000
;

//---------------dance-single - ----------------
#NOTES:
     dance-single:
     :
     Medium:
     9:
     :
0000
0000
0000
0000
,
0000
0000
0000
0000
,
0000
0000
0000
0000
,
0000
0000
0000
0000
,
0000
0000
0000
0000
,
1000
0000
0100
0000
,
0001
0000
0100
0000
,
2000
0000
0002
3003
,
0000
0010
0000
0010
0010
0000
0000
0000
,
0000
1000
0000
1000
,
0000
0001
0000
0001
,
0010
0100
0010
0100
,
0001
0100
1000
0100
,
0000
0001
0000
0001
,
0000
1000
0000
1000
,
0010
0010
0100
0100
,
0001
0000
1000
0000
0001
1000
0100
0000
,
0000
0001
0000
0001
,
0000
1000
0000
1000
,
0010
0100
0010
0100
,
0001
0100
1000
0100
,
0000
0001
0000
0001
,
0000
1000
0000
1000
,
0010
0010
0100
0100
,
0001
0011
1000
1100
,
0000
0001
0000
0000
0001
0000
0000
0000
,
1000
0000
0000
1000
0100
0000
0000
0000
,
0001
0000
0000
0001
0100
0000
0000
0000
,
1000
0010
0001
0010
,
1000
0000
0001
0000
1000
0001
0100
0000
,
0001
0000
0000
0001
0010
0000
0000
0000
,
1000
0000
0000
1000
0010
0000
0000
0000
,
0001
1000
0100
1100
,
1000
0001
0100
0101
,
1000
0000
0000
0100
1000
0000
0000
0000
,
0001
0000
0000
0010
0001
0000
0000
0000
,
1000
0000
0001
0000
1000
0001
0100
0000
,
0001
0000
1000
0000
0001
1000
0100
0000
,
1001
0000
0000
0000
,
0010
0010
0010
0010
,
1000
0100
0001
0100
,
0010
1010
0001
0101
,
1000
1000
0001
0001
,
0011
0000
1100
0000
0001
1000
0100
0000
,
0020
0000
0000
0000
0200
0330
0000
1001
,
0000
0000
0000
0100
1000
0010
0000
0000
,
1000
0100
0001
0100
,
1000
0000
0000
0001
0000
0000
0000
0000
,
0001
0100
1000
0100
,
0001
0011
1000
1100
,
0001
0001
1000
1000
,
0010
0000
0100
0000
0001
1000
0100
0000
,
0020
0000
0000
0000
0200
0330
0000
1001
,
0000
0000
0000
0100
0001
0010
0000
0000
,
0001
0100
1000
0100
,
0001
0101
1000
1010
,
0001
0000
0001
0000
0001
1000
0100
0000
,
1000
0000
1000
0000
1000
0001
0010
0000
,
0100
0000
0100
0000
0100
1000
0010
0000
,
0100
0000
0100
0000
0100
0001
0010
0000
,
0001
0000
1000
0000
0010
0100
0010
0000
,
1000
0000
0001
0000
0100
0010
0100
0000
,
0002
0000
0000
0000
0000
0000
0000
2000
,
0000
0000
3003
0000
,
0000
0000
0000
0000
,
0000
0000
0000
0000
,
1000
1000
0000
0010
0000
0000
0000
0000
,
0001
0001
0000
0010
0000
0000
0000
0000
,
0001
0000
0000
0100
0000
0100
0000
0000
,
2000
0000
0000
0000
,
0200
0000
3000
0000
,
0002
0000
0300
0000
,
0020
0000
0003
0000
,
2000
0000
0030
0000
,
0002
0000
3000
0000
,
0200
0000
0303
0000
,
0010
0000
0000
0010
0000
0000
0000
0000
,
1000
1100
0001
0101
,
0010
1000
0100
0000
0100
1000
0010
0000
,
1000
1010
0001
0011
,
0100
0001
0010
0000
0010
0001
0100
0000
,
2000
0000
0000
0000
0020
3030
0000
0101
,
0000
0000
0000
0100
0001
1000
0000
0000
,
0010
0001
0100
1000
,
0010
0000
0000
1001
0000
0000
0000
0000
,
0001
1000
1001
0000
,
0100
0010
0110
0000
,
1000
0010
1010
0000
,
0001
0100
0101
0000
,
1000
0010
0011
0000
,
0010
0001
1100
0000
,
0002
0000
0000
0000
,
2000
0000
3003
0000
,
0100
0000
1000
0000
1100
0000
0000
1001
,
0000
0000
0000
0000
0000
0020
0000
0000
,
0001
0000
0001
0000
0031
0000
0000
0100
,
0000
0001
0000
0101
0000
0000
0000
0000
,
0010
0000
1000
0000
0010
1000
0000
0100
,
0000
0000
0100
0000
0010
0001
0000
0100
,
0000
0000
0000
0000
,
0000
0010
0000
0010
0010
0000
0000
0000
,
0000
0000
0000
0000
;

//---------------dance-single - ----------------
#NOTES:
     dance-single:
     :
     Hard:
     12:
     :
0000
0000
0000
0000
,
0000
0000
0000
0000
,
0000
0000
0000
0000
,
0000
0000
0000
0000
,
0000
0000
0000
0000
,
1000
0000
0100
0000
0010
0001
0100
0000
,
0001
0000
0100
0000
0010
1000
0100
0000
,
0100
1000
0010
0100
0001
0010
0100
0010
,
0000
1001
0000
1001
1001
0000
0000
0000
,
0001
0100
1000
0000
0001
0100
1000
0000
,
0101
0101
1100
1100
,
1000
0100
0001
0000
1000
0100
0001
0000
,
1001
0000
1100
0000
1000
0001
0100
0000
,
0010
0000
0010
0000
0010
1000
0100
0000
,
0010
0000
0010
0000
0010
0001
0100
0000
,
0101
0101
1100
1100
,
0010
0000
0100
0000
0001
1000
0100
0000
,
1000
0100
0001
0000
1000
0100
0001
0000
,
1100
1100
0101
0101
,
0001
0100
1000
0000
0001
0100
1000
0000
,
1001
0000
0101
0000
0001
1000
0100
0000
,
0010
0000
0010
0000
0010
0001
0100
0000
,
0010
0000
0010
0000
0010
1000
0100
0000
,
1000
0001
0100
0000
0001
1000
0010
0000
,
0110
0110
0110
0110
,
0000
1000
0100
0010
0001
0000
0000
0000
,
1000
0000
0000
1000
0100
0000
0000
0000
,
0001
0000
0000
0001
0100
0000
0000
0000
,
1000
0010
0001
0010
,
0001
0000
0001
0000
1000
0001
0100
0000
,
0001
0000
0000
0001
0010
0000
0000
0000
,
1000
0000
0000
1000
0010
0000
0000
0000
,
1001
1001
1100
1100
,
1000
0001
1000
0001
0010
0001
0100
0000
,
1000
0000
0000
0100
0001
0000
0000
0000
,
1000
0000
0000
0010
0001
0000
0000
0000
,
1001
0000
1001
0000
0001
1000
0100
0000
,
1001
0000
1001
0000
1000
0001
0100
0000
,
0001
0100
0001
0100
0001
0100
0010
1000
,
0000
0000
0000
0000
0000
0000
0000
0000
0100
0000
0000
0000
0010
0001
0010
0000
,
0001
0100
1000
0100
,
0011
0011
1100
1100
,
0001
0001
1000
1000
,
1010
0000
0101
0000
1000
0001
0100
0000
,
0020
0000
0000
0000
0200
0330
0000
1001
,
0000
0000
0000
0100
0001
0010
0000
0000
,
0001
0100
1000
0100
,
0001
1000
0001
0100
0000
0000
0000
0000
,
1000
0100
0001
0100
,
1010
1010
0101
0101
,
1000
1000
0001
0001
,
0011
0000
1100
0000
0001
1000
0100
0000
,
0020
0000
0000
0000
0200
0330
0000
1001
,
0000
0000
0000
0100
1000
0010
0000
0000
,
1000
0100
0001
0100
,
1100
1100
0011
0011
,
1000
0000
1000
0000
1000
0001
0100
0000
,
0001
0000
0001
0000
0001
1000
0010
0000
,
0100
0000
0100
0000
0100
0001
0010
0000
,
0100
0000
0100
0000
0100
1000
0010
0000
,
1001
0000
1001
0000
0010
0100
0010
0000
,
1001
0000
1001
0000
0100
0010
0100
0000
,
2000
0000
0000
0000
0000
0000
0000
3001
,
0000
0000
0000
0000
,
0100
0000
0000
1000
0010
0000
0001
0001
,
0000
1000
1000
0010
0000
1000
0100
1000
,
0001
0001
0000
0010
0000
0000
0000
0000
,
1000
1000
0000
0010
0000
0000
0000
0000
,
1000
0000
0000
0100
0000
0100
0000
0000
,
0001
0010
0001
0000
0002
0000
0003
0000
,
0100
0001
0100
0000
0200
0000
0300
0000
,
0010
1000
0010
0000
0020
0000
0030
0000
,
1000
0100
1000
0000
2000
0000
3000
0000
,
0002
0000
0000
0000
,
2000
0000
0003
0000
,
0200
0000
3300
0000
,
1000
0100
0010
0001
0000
0000
0000
0000
,
0101
0101
1100
1100
,
0010
0001
0100
0000
0100
0001
0010
0000
,
0011
0011
1010
1010
,
0100
1000
0010
0000
0010
1000
0100
0000
,
0002
0000
0000
0000
0020
0033
0000
1100
,
0000
0000
0000
0100
1000
0001
0000
0000
,
0010
1000
0100
0001
,
0010
0000
0000
1001
0000
0000
0000
0000
,
1001
1001
1001
0000
,
0110
0110
0110
0000
,
0011
0011
0011
0000
,
1100
1100
1100
0000
,
0101
0000
0011
0000
0010
1000
0010
0000
,
1010
0000
1100
0000
0001
0100
0001
0000
,
2000
0000
0000
0000
,
0002
0000
3003
0000
,
1000
0100
1000
0010
0100
0010
1000
0001
,
0000
0000
0000
0000
0000
0010
0000
0000
,
0100
0000
1001
0000
1001
0000
0000
1100
,
0000
1001
0000
0011
0000
0000
0000
0000
,
1010
0000
1010
0000
0001
0010
0000
0100
,
0000
1000
0100
0000
0010
0001
0000
0100
,
0000
0001
0010
0001
0100
0010
1000
0010
,
0000
1001
0000
1001
1001
0000
0000
0000
,
0000
0000
0000
0000
;

//---------------dance-single - ----------------
#NOTES:
     dance-single:
     :
     Challenge:
     14:
     :
0000
0000
0000
0000
,
0000
0000
0000
0000
,
0000
0000
0000
0000
,
0000
0000
0000
0000
,
0000
0000
0000
0000
,
0011
0000
1000
0010
1000
0100
0001
1010
,
0000
0000
0100
0000
0010
0000
1000
0000
0001
0000
1000
0100
1000
0000
0001
0000
,
0000
0010
0001
0100
1000
0010
1000
0001
,
0000
1010
0000
0101
0101
0000
0000
0000
,
1001
0000
0010
0000
1000
0100
1000
0001
,
0010
0100
1000
0010
0001
0100
1000
0000
,
0002
0000
0103
0000
0010
1000
0100
0001
,
1000
0100
1000
0010
1000
0100
0001
0000
,
0010
0001
0100
0001
0010
0100
1000
0001
,
0200
0000
0000
0000
0310
0000
0000
0000
1000
0000
1000
0000
0001
0000
0100
0010
,
0200
0000
0302
0000
1003
0100
0001
0000
,
0011
0000
0000
0000
0100
0000
1000
0000
0010
0000
1000
0000
0100
0000
0001
0010
,
0001
0000
1000
0000
0010
1000
0100
0001
,
0100
1000
0010
1000
0100
0010
0001
0000
,
2000
0000
3002
0000
0013
0001
0010
0100
,
1000
0000
0001
0100
0001
0000
0000
0000
0010
0000
0100
0000
1000
0000
0000
0000
,
0020
0000
1030
0000
0100
1000
0001
0100
,
0020
0000
1030
0000
0001
0001
0010
0100
,
1000
0100
0001
0100
0010
0001
1000
0000
,
1100
0001
0100
0001
0100
0001
1000
0000
,
0010
1000
1000
0001
0001
0000
0000
0000
,
0110
0000
0001
0100
1000
0100
0001
0010
,
0000
0010
1000
0100
0000
1001
1001
0000
,
1000
0000
0010
0100
0001
0010
0100
1000
,
0000
1100
0000
0011
0000
0102
1003
0000
,
1001
0000
0010
1000
0100
0010
0100
1000
,
0000
0011
0000
1100
0000
0101
0101
0000
,
1020
0000
1030
0100
0010
0001
0100
0010
,
1000
0100
1000
0001
0010
0100
0100
0000
,
1100
0000
0001
0100
1000
0100
0001
1000
,
0010
1000
0100
0010
0001
0100
0001
1000
,
0010
1000
0100
0000
0010
0100
0010
0001
,
0100
0010
1000
0000
0001
1000
0100
0010
,
0001
0100
1000
0100
0010
1000
0100
0001
,
0000
0000
0000
0000
0000
0000
0000
0000
0110
0000
0001
1000
0001
1000
0001
1000
,
0001
0100
0010
0100
1000
0100
0001
0010
,
0100
0010
0001
0100
0001
0010
1000
0001
,
1000
0100
0010
0001
0100
1000
0100
0001
,
0010
1000
0010
0100
0001
0100
1000
0001
,
0200
0000
0310
1000
0001
1000
0100
0010
,
0001
0000
1000
0100
1000
0000
0010
0000
0100
0000
1000
0000
0100
0000
0001
0000
,
0010
0001
0101
0000
0010
1000
1100
0000
,
0001
0000
0100
0000
1000
0000
0010
0000
0100
0000
0001
1000
0001
0000
0000
0100
,
0010
1000
0100
0010
1000
0010
0001
0100
,
0010
0001
0010
0100
1000
0100
0001
0010
,
1000
0010
0100
0010
1000
0010
0001
0100
,
0010
0001
0010
0100
0010
1000
0100
0010
,
0002
0000
1003
0010
1000
0100
0001
0010
,
1000
0000
0100
1000
0010
0100
0001
1000
,
0100
0001
0100
1000
0010
1000
0001
0000
,
0100
0001
0010
0100
1000
0010
1000
0001
,
0100
0000
0000
0001
0010
0000
0000
0001
1000
0000
0010
0000
1000
0000
0100
0000
,
0010
0000
0000
0001
1000
0000
0000
0001
0100
0000
0010
0000
1000
0000
0001
0000
,
1000
0000
0000
0100
0010
0000
0000
0001
1000
0000
0001
0000
0010
0000
0100
0000
,
1000
0000
0000
0010
1000
0000
0000
0001
0010
0000
0100
0000
1000
0000
0001
0000
,
0100
0000
0000
0010
1000
0000
0000
0100
0010
0000
0001
0000
1000
0000
0001
0000
,
0100
0000
0000
0010
1000
0000
0000
0100
1000
0000
0001
0000
0010
0000
0100
0000
,
1000
0000
0001
0100
0000
0010
0010
1000
,
0100
0010
0100
1000
0010
0001
0010
1000
,
0001
0000
0000
0011
0000
1000
0100
0001
,
0100
1000
0010
1000
0100
0010
0001
1000
,
0000
0000
1010
0000
1000
0000
0100
0000
0000
0000
0010
0001
0010
0000
0000
0000
,
0100
0100
1000
0010
0001
1000
0100
0010
,
0001
0000
0001
0000
0000
0000
1100
0000
0000
0000
0101
0000
0000
0000
0010
1000
,
0020
0000
0230
0000
0302
0000
1003
0100
,
0020
0000
0030
0001
1000
0001
0000
0100
,
0020
0000
2030
0000
3002
0000
0103
0010
,
0200
0302
0023
0230
,
2300
0000
0000
0000
0002
0000
3003
0100
,
0020
0000
0030
1000
0100
1000
0000
0001
,
0002
0000
0023
0000
0031
0100
1000
0000
,
0010
0000
1000
0000
0100
0000
0001
0000
0000
0000
1000
0100
1000
0000
0000
0000
,
0010
1000
0100
0010
1000
0010
0001
0100
,
1000
0100
0010
0100
0010
1000
0100
0001
,
0100
0010
1000
0010
0100
0001
0100
0010
,
0001
0100
1000
0100
0010
0100
0001
1000
,
0200
0000
0000
0000
0310
0000
0001
1000
0001
0000
0100
0000
0010
0000
1000
0000
,
0002
0000
0000
0000
0013
0000
0100
1000
0100
0000
0010
0000
0001
0000
1000
0000
,
0010
0000
1000
0000
0100
0000
0010
0000
0001
0000
0100
0000
1000
0000
0010
0100
,
0010
1000
0100
0010
0000
0001
1000
0001
,
0100
0000
0000
0010
1000
0000
0000
0001
1000
0000
0100
0000
0010
0000
0001
0000
,
0010
0000
0000
0100
0010
0000
0000
0001
1000
0000
0010
0000
1000
0000
0100
0000
,
0010
0000
0000
0001
0100
0000
0000
0001
1000
0000
0010
0000
0100
0000
0010
0000
,
1000
0000
0000
0100
0010
0000
0000
0100
1000
0000
0001
0000
0010
0000
0001
0000
,
0100
0000
0000
0010
1000
0000
0000
0001
1000
0000
0100
0000
0010
0000
0001
0000
,
0100
0000
0000
0001
0010
0000
0000
0001
1000
0000
0100
0000
0010
0000
0001
0000
,
0101
0000
0010
1000
0000
1000
0100
0001
,
0010
0000
0001
0000
0100
0000
1000
0000
0010
0100
0010
0100
0010
0000
1000
0000
,
1100
0000
0011
0000
1001
0100
0010
1010
,
0000
0001
0010
1000
0100
0011
0000
0000
,
1001
0000
0110
0000
1000
0010
0001
0100
,
0000
0101
0000
1010
0000
0100
1000
0001
,
0011
0000
1000
0100
1000
0010
0100
0101
,
0000
0010
0001
0100
1000
0010
1000
1001
,
0000
0100
0010
1000
0100
0010
0001
1000
,
0000
1100
0000
0101
0101
0000
0000
0000
;

//---------------dance-double - ----------------
#NOTES:
     dance-double:
     :
     Easy:
     6:
     :
00000000
00000000
00000000
00000000
,
00000000
00000000
00000000
00000000
,
00000000
00000000
00000000
00000000
,
00000000
00000000
00000000
00000000
,
00000000
00000000
00000000
00000000
,
00000001
00000000
00000010
00000000
,
00001000
00000000
00010000
00000000
,
01000000
00000000
00000000
00000000
,
00000000
00000000
00000000
00000000
,
00100000
00000000
00000000
00000000
,
01000000
00000000
00010000
00001000
,
00000010
00000000
00000001
00000000
,
00000100
00001000
00010000
00000000
,
00100000
00000000
10000000
00000000
,
01000000
00000000
01000000
00000000
,
00010000
00001000
00000010
00000000
,
00001001
00000000
00000000
00000000
,
00000010
00000000
00000000
00000000
,
00000100
00000000
00001000
00010000
,
00100000
00000000
10000000
00000000
,
01000000
00010000
00001000
00000000
,
00000010
00000000
00000001
00000000
,
00000100
00000000
00000100
00000000
,
00001000
00010000
00001000
01000000
,
00200000
00000000
00000000
00000000
00000000
00300000
00000000
00000000
,
00000000
00000000
10010000
00000000
,
00100000
00000000
00010000
00000000
,
00001000
00000000
00000100
00000000
,
00000001
00000000
00000100
00000000
,
00001000
00000000
00000100
00000000
,
00000010
00000000
00001000
00000000
,
00010000
00000000
01000000
00000000
,
10000000
00000000
01000000
00000000
,
00010000
00000000
01000000
00000000
,
10010000
00000000
00000000
00000000
,
00100000
00000000
00010000
00000000
,
00001000
00001000
00001000
00000000
,
00000100
00000100
00000100
00000000
,
00001001
00000000
00000000
00000000
,
00000000
00000000
00000000
00000000
,
00000010
00000000
00000000
00000000
,
00000010
00000000
00001000
00000000
,
00010000
00000000
00000000
00000000
,
00001000
00000000
00010000
00000000
,
00100000
00000000
00000000
00000000
,
00100000
00000000
10000000
00000000
,
00010000
00000000
00000000
00000000
,
01000000
00100000
01000000
00000000
,
00100000
00000000
00000000
00000000
,
00100000
00000000
00010000
00000000
,
00001000
00000000
00000000
00000000
,
00010000
00000000
00001000
00000000
,
00000010
00000000
00000000
00000000
,
00000010
00000000
00000001
00000000
,
00001000
00000000
00000000
00000000
,
00000100
00000010
00000100
00000000
,
00000010
00000000
00000010
00000000
,
00000010
00001000
00010000
00000000
,
00001000
00000000
00001000
00000000
,
00001000
00010000
01000000
10000000
,
00100000
00000000
00100000
00000000
,
00100000
00010000
00001000
00000100
,
00001001
00000000
00000000
00000000
,
00001001
00000000
00000000
00000000
,
00000200
00000000
00000000
00000300
,
00000000
00000000
00000000
00000000
,
00000000
00000000
00000000
00000000
,
00000000
00000000
00000000
00000000
,
00000000
00000000
00000000
00000000
,
00000001
00000000
00000000
00000000
,
00000010
00000000
00000000
00000000
,
00001000
00000000
00000000
00000000
,
00010000
00000000
00000000
00000000
,
00100000
00000000
00000000
00000000
,
10000000
00000000
00000000
00000000
,
01000000
00000000
00000000
00000000
,
00100000
00000000
01000000
00000000
,
10000000
00000000
00000000
00000000
,
00100000
00000000
00010000
00000000
,
00001000
00000000
00000000
00000000
,
00010000
00000000
00001000
00000000
,
00000010
00000000
00000000
00000000
,
00000010
00000000
00000001
00000000
,
00001000
00000000
00000000
00000000
,
00000100
00000010
00000100
00000000
,
00000010
00000010
00000010
00000000
,
00000010
00001000
00010000
00000000
,
00001000
00001000
00001000
00000000
,
00001000
00010000
00100000
00000000
,
00100000
00100000
00100000
00000000
,
00100000
10000000
00010000
00000000
,
10010000
00000000
00000000
00000000
,
10010000
00000000
00000000
00000000
,
01000000
01000000
01000000
00000000
,
00010000
00000000
00001000
00000000
,
00010000
00000000
00000000
00000000
,
00001000
00000000
00000100
00000000
,
00000001
00000010
00001000
00000000
,
00000010
00001000
00010000
00000000
,
01000000
00000000
00000000
00000000
,
00000000
00000000
10010000
00000000
,
00000000
00000000
00000000
00000000
;

//---------------dance-double - ----------------
#NOTES:
     dance-double:
     :
     Medium:
     9:
     :
00000000
00000000
00000000
00000000
,
00000000
00000000
00000000
00000000
,
00000000
00000000
00000000
00000000
,
00000000
00000000
00000000
00000000
,
00000000
00000000
00000000
00000000
,
00000001
00000010
00001000
00000010
,
00001000
00010000
01000000
10000000
,
01000000
00000000
00000000
00000000
,
00000000
10000000
00000000
00100000
10000000
00000000
00000000
00000000
,
00010000
00000000
00100000
00000000
,
01000000
00000000
00010000
00001000
,
00000010
00000000
00000001
00000000
,
00000010
00001000
00010000
01000000
,
10000000
00000000
10000000
00000000
,
01000000
00000000
01000000
00000000
,
00010000
00001000
00000100
00000010
,
00001000
00000000
00000001
00000000
00000010
00000001
00000100
00000000
,
00001000
00000000
00000001
00000000
,
00000010
00001000
00010000
01000000
,
10000000
00000000
10000000
00000000
,
00100000
00010000
00001000
00000100
,
00000001
00000000
00000001
00000000
,
00000100
00000000
00000100
00000000
,
00001000
00010000
00001000
01000000
,
00200000
00000000
00000000
00000000
00000000
00300000
00000000
00000000
,
00000000
10010000
00000000
10010000
10010000
00000000
00000000
00000000
,
10000000
00100000
10000000
00000000
,
00100000
00010000
00001000
00000000
,
00010000
00001000
00000100
00000000
,
00000010
00001000
00000100
00000000
,
00000001
00000010
00000001
00000000
,
00000010
00001000
00010000
00000000
,
00001000
00010000
01000000
00000000
,
00100000
10000000
01000000
00000000
,
10000000
00000000
01000000
00000000
,
00010000
00000000
00001000
00000000
,
00000011
00000011
00000011
00000000
,
00000101
00000101
00000101
00000000
,
00000011
00001000
00010000
01000000
,
11000000
00000000
00000000
00000000
,
10000000
00100000
00010000
00001000
,
00010000
00001000
00000100
00000100
,
00000001
00000001
00000001
00000000
,
00001000
00001000
00001000
00000000
,
00000001
00000010
00001000
00010000
,
00001000
00010000
01000000
00010000
,
00001000
00001000
00000100
00000100
,
00000001
00001000
00000001
00001000
00000000
00000000
00000000
00000000
,
00000001
00000010
00001000
00010000
,
00001000
00010000
01000000
01000000
,
10000000
10000000
10000000
00000000
,
00010000
00010000
00010000
00000000
,
10000000
00100000
00010000
00001000
,
00010000
00001000
00000100
00001000
,
00010000
00010000
01000000
01000000
,
10000000
00000000
00000000
00010000
00000000
00000000
00000000
00000000
,
10000000
00100000
00010000
00000000
,
00100000
00010000
00001000
00000000
,
00010000
00001000
00000010
00000000
,
00000001
00000100
00000100
00000000
,
00000001
00000010
00001000
00000000
,
00000010
00001000
00010000
00000000
,
00002000
00000000
00000000
00000000
,
00023000
00000000
00000000
00000000
,
02030000
00000000
00000000
00000000
,
00000000
03000000
00000000
00000000
,
00000000
00000000
00000000
00000000
,
00000000
00000000
00000000
00000000
,
00000000
00000000
00000000
00000000
,
20000000
00000000
00000000
00000000
,
02000000
00000000
30000000
00000000
,
00020000
00000000
03000000
00000000
,
00002000
00000000
00030000
00000000
,
00000020
00000000
00003000
00000000
,
00000002
00000000
00000030
00000000
,
00000200
00000000
00000003
00000300
,
00001000
00010000
00001000
00010000
00000000
00000000
00000000
00000000
,
00100000
10000000
01000000
00010000
,
00001000
00000010
00000001
00000100
,
00000010
00000010
00000100
00000100
,
00000001
00000010
00001000
00010000
,
00100000
00000000
00000000
00000000
00010000
00000000
00000000
00001000
,
00000000
00000000
00000000
00010000
00001000
00000010
00000000
00000000
,
00000001
00000100
00001000
00010000
,
00100000
00000000
10000000
00000000
,
01000000
00010000
00010000
00000000
,
00010000
01000000
01000000
00000000
,
00100000
00010000
00001000
00000000
,
00010000
00001000
00000100
00000000
,
00000001
00000010
00000010
00000000
,
00000100
00000000
00000010
00000000
00000010
00000010
00001000
00010000
,
00100000
00000000
00000000
00000000
,
01000000
00000000
00000000
00000000
,
11000000
11000000
01010000
00000000
,
00011000
00011000
00001010
00000000
,
00000011
00000011
00000101
00000000
,
00000011
00001000
00010000
01000000
,
10000000
10000000
10000000
00000000
,
00100000
00010000
00001000
00000000
,
00011000
00000000
00000000
00000000
,
00000000
00011000
00000000
00011000
00011000
00000000
00000000
00000000
,
00000000
00000000
00000000
00000000
;

//---------------dance-double - ----------------
#NOTES:
     dance-double:
     :
     Hard:
     12:
     :
00000000
00000000
00000000
00000000
,
00000000
00000000
00000000
00000000
,
00000000
00000000
00000000
00000000
,
00000000
00000000
00000000
00000000
,
00000000
00000000
00000000
00000000
,
00000001
00000000
00000010
00000000
00000001
00000100
00000000
00001000
,
00000000
00000000
00010000
00000000
00100000
10000000
00000000
01000000
,
00000000
01000000
10000000
00100000
00010000
00001000
00000100
00000001
,
00000000
00000010
00000000
00000010
00000010
00000000
00000000
00000000
,
00001000
00010000
00001000
00000100
,
00000010
00001000
00000100
00000000
00000010
00000001
00000100
00000000
,
00000001
00000010
00001000
00010000
,
00001000
00000000
00010000
00000000
01000000
10000000
00100000
00000000
,
10000000
10000000
01000000
01000000
,
00010000
00000000
00001000
00000000
00000010
00000001
00000100
00000000
,
00001000
00000100
00000001
00000010
,
00001000
00010000
01000000
00000000
10000000
00000000
00100000
00000000
,
00010000
00001000
00010000
01000000
,
00100000
00010000
01000000
00000000
00100000
10000000
01000000
00000000
,
10000000
00100000
00010000
00001000
,
00010000
00000000
00001000
00000000
00000100
00000001
00000010
00000000
,
00000001
00000001
00000100
00000100
,
00001000
00000000
00010000
00000000
00100000
10000000
01000000
00000000
,
00010000
00001000
00000010
00000000
00000001
00000100
00000010
00000000
,
00001010
00001010
00000011
00000011
,
00000000
00000010
00001000
00010000
00001000
00000000
00000000
00000000
,
00010000
00000000
00000000
00001000
00000100
00000000
00000000
00000000
,
00001000
00000000
00000000
00010000
01000000
00000000
00000000
00000000
,
00010000
00000000
00000000
00001000
00000100
00000000
00000000
00000000
,
00020000
01000000
00032000
00000100
,
00013000
00000000
00000000
01000000
10000000
00000000
00000000
00000000
,
00100000
00000000
00000000
00010000
00001000
00000000
00000000
00000000
,
00002000
00000100
00023000
01000000
,
00031000
00000100
00010000
00010000
,
00010000
00000000
00000000
00001000
00000100
00000000
00000000
00000000
,
00000010
00000000
00000000
00000001
00000100
00000000
00000000
00000000
,
00000011
00000000
00000011
00000000
00001000
00010000
01000000
00000000
,
10100000
00000000
10100000
00000000
00010000
00001000
00000100
00000000
,
00000001
00000100
00000001
00000100
00001000
00010000
00100000
10000000
,
00000000
00000000
00100000
00100000
,
10000000
00100000
00010000
00001000
,
00010000
00001000
00000100
00000001
,
00000010
00000010
00000001
00000001
,
00000010
00000000
00001000
00000000
00010000
00001000
00000100
00000000
,
00000010
00000000
00000000
00000000
00000100
00000000
00000000
00000001
,
00000000
00000000
00000000
00000100
00000001
00000010
00000000
00000000
,
00000001
00000001
00000010
00000010
,
00001000
00010000
00001000
00000100
00000000
00000000
00000000
00000000
,
00000001
00000010
00001000
00010000
,
00001000
00010000
01000000
10000000
,
00100000
00100000
10000000
10000000
,
00100000
00000000
00010000
00000000
00001000
00010000
01000000
00000000
,
00100000
00000000
00000000
00000000
01000000
00000000
00000000
10000000
,
00000000
00000000
00000000
01000000
10000000
00100000
00000000
00000000
,
10000000
10000000
00100000
00100000
,
00010000
00001000
00010000
01000000
00000000
00000000
00000000
00000000
,
10000000
00000000
10000000
00000000
00100000
00010000
00001000
00000000
,
00010000
00000000
00010000
00000000
00010000
00001000
00000100
00000000
,
00000010
00000100
00000001
00000100
,
00000010
00001000
00000001
00000000
00000010
00000000
00000100
00000000
,
00000001
00000000
00000001
00000000
00000010
00001000
00010000
00000000
,
00001000
00000000
00001000
00000000
00001000
00010000
01000000
00000000
,
20000000
00000000
00000000
00000000
00000000
00000000
00000000
00200000
,
00000000
00000000
30300000
00000000
,
01000000
00000000
00000000
00100000
10000000
00000000
00100000
00010000
,
00000000
00100000
00010000
00001000
00000000
00010000
00001000
00000100
,
00000001
00000010
00000000
00000001
00000000
00000000
00000000
00000000
,
00000010
00001000
00000000
00010000
00000000
00000000
00000000
00000000
,
00001000
00000000
00000000
00010000
00000000
00001000
00000000
00000000
,
00020000
00000000
00000000
00000000
,
00200000
00000000
00030000
00000000
,
20000000
00000000
00300000
00000000
,
02000000
00000000
30000000
00000000
,
00020000
00000000
03000000
00000000
,
00002000
00000000
00030000
00000000
,
00000200
00000000
00003300
00000000
,
00001000
00010000
00001000
00000100
00000000
00000000
00000000
00000000
,
00000001
00000010
00001000
00010000
,
00001000
00010000
01000000
00000000
00100000
00010000
01000000
00000000
,
00100000
00100000
10000000
10000000
,
00100000
00000000
00010000
00000000
00001000
00010000
01000000
00000000
,
00100000
00000000
00000000
00000000
01000000
00000000
00000000
10000000
,
00000000
00000000
00000000
01000000
10000000
00100000
00000000
00000000
,
10000000
00100000
10000000
00000000
00100000
00000000
00100000
00000000
,
00100000
00010000
00001000
00000100
00000000
00000000
00000000
00000000
,
00000001
00000000
00000001
00000000
00000010
00001000
00010000
00000000
,
00001000
00000000
00001000
00000000
00001000
00010000
01000000
00000000
,
00100000
00010000
01000000
00000000
10000000
00000000
01000000
00000000
,
00100000
00010000
10000000
00000000
00100000
00000000
01000000
00000000
,
10000000
00000000
10000000
00000000
00100000
00010000
00001000
00000000
,
00010000
00000000
00010000
00000000
00001000
00000100
00000001
00000000
,
00000020
00000000
00000000
00000000
00000000
00000000
00000000
00000200
,
00000000
00000000
00000330
00000000
,
00000010
00000001
00000010
00000001
00000010
00001000
00000000
00010000
,
00000000
01000000
01000000
00000000
00000000
00000000
00000000
00000000
,
10100000
00000000
10100000
00000000
00100000
00010000
00000000
00001000
,
00000000
00010000
00000000
00100000
00000000
00000000
00000000
00000000
,
10100000
00000000
10100000
00000000
00100000
00010000
00000000
00001000
,
00000000
00010000
00001000
00000000
00000010
00001000
00000000
00010000
,
00000000
01000000
10000000
00100000
01000000
00100000
00010000
00001000
,
00000000
00011000
00000000
00011000
00011000
00000000
00000000
00000000
,
00000000
00000000
00000000
00000000
;
