#TITLE:Chelsea Dagger;
#ARTIST:The Fratellis;
#BANNER:Chelsea Dagger-bn.png;
#BACKGROUND:Chelsea Dagger-bg.png;
#JACKET:Chelsea Dagger-jacket.png;
#MUSIC:Chelsea Dagger.ogg;
#SAMPLESTART:63.583;
#SAMPLELENGTH:20;
#DISPLAYBPM:141:158;
#BPMS:0=152.866,12=154.506,32=155.844,36=156.182,44=154.839,52=155.844,60=152.22,68=153.846,76=156.182,84=155.172,92=154.176,100=154.506,108=155.941,115=140.625,116=155.844,124=155.508,132=154.176,140=155.508,156=152.542,158=157.895,160=156.522,164=152.542,172=154.839,180=155.844,188=156.182,196=151.899,204=153.846,212=157.205,220=152.22,228=154.839,236=157.205,244=152.22,252=157.549,260=157.205;
#BGCHANGES:3=Chelsea Dagger.avi=1=1=0=0=StretchNoLoop==CrossFade==,
;

//---------------dance-single - ----------------
#NOTES:
     dance-single:
     :
     Beginner:
     2:
     :
0000
0000
0000
0000
,
0000
0000
0000
0000
,
0000
0000
0000
0000
,
0000
0000
0000
0000
,
0000
0000
0000
0000
,
0010
0000
0100
0000
,
0100
0000
0000
0000
,
0001
0000
1000
0000
,
1000
0000
0000
0000
,
0100
0000
0010
0000
,
0100
0000
0000
0000
,
0001
0000
1000
0000
,
0001
0000
0000
0000
,
1000
0000
0010
0000
,
0100
0000
0000
0000
,
0001
0000
1000
0000
,
1001
0000
0000
0000
,
0010
0000
0100
0000
,
0010
0000
0000
0000
,
1000
0000
0001
0000
,
1000
0000
0000
0000
,
0001
0000
0100
0000
,
0010
0000
0000
0000
,
1000
0000
0001
0000
,
1001
0000
0000
0000
,
0100
0000
0010
0000
,
0010
0000
0000
0000
,
0001
0000
1000
0000
,
1000
0000
0000
0000
,
0100
0000
0100
0000
,
0010
0000
0000
0000
,
0010
0000
1000
0000
,
0001
0000
0000
0000
,
1000
0000
0001
0000
,
1000
0000
0000
0000
,
0001
0000
0100
0000
,
0001
0000
0000
0000
,
0100
0000
0010
0000
,
0000
0000
1000
0000
,
0010
0000
0001
0000
,
0000
0000
0000
0000
,
0010
0000
1000
0000
,
0001
0000
0000
0000
,
0100
0000
0010
0000
,
1000
0000
0000
0000
,
0100
0000
1000
0000
,
0001
0000
0000
0000
,
0010
0000
0001
0000
,
1000
0000
0000
0000
,
0100
0000
0001
0000
,
1000
0000
0000
0000
,
0010
0000
0100
0000
,
0001
0000
0000
0000
,
0010
0000
0001
0000
,
1000
0000
0000
0000
,
0100
0000
1000
0000
,
0001
0000
0000
0000
,
0100
0000
0010
0000
,
0010
0000
0000
0000
,
1000
0000
0001
0000
,
0001
0000
0000
0000
,
0010
0000
0100
0000
,
0100
0000
0000
0000
,
0001
0000
1000
0000
,
1000
0000
0000
0000
;

//---------------dance-single - ----------------
#NOTES:
     dance-single:
     :
     Easy:
     4:
     :
0000
0000
0000
0000
,
0000
0000
0000
0000
,
0000
0000
0000
0000
,
0000
0000
0000
0000
,
0000
0000
0000
0000
,
0100
0000
1000
0000
,
0010
0000
0100
0000
,
0001
0000
0010
0000
,
0100
0000
1000
0000
,
0100
0000
1000
0000
,
0010
0000
0100
0100
,
0001
0000
0010
0000
,
0100
0000
1000
1000
,
0001
0000
0100
0000
,
0010
0000
1000
0000
,
0100
0000
0010
0000
,
0001
0000
0100
0010
,
1000
0000
0001
0000
,
0100
0000
0010
1000
,
1000
0000
0100
0000
,
1000
0000
0001
0100
,
0010
0000
1000
0000
,
0100
0000
0001
0000
,
0100
0000
1000
0010
,
0100
0100
0100
0000
,
1001
0000
1000
0000
,
0001
0000
0010
0000
,
0010
0000
0100
0000
,
0001
0000
1000
0000
,
0110
0000
0010
0000
,
0100
0000
0001
0000
,
1000
0000
0010
0000
,
0100
0000
0110
0000
,
1000
0000
0001
0000
,
1000
0000
0010
0010
,
0100
0000
0010
0000
,
0100
0000
0001
0001
,
1001
0000
1001
0000
,
0000
0000
0110
0000
,
0110
0000
0110
0000
,
0220
0000
0000
0330
,
0001
0000
0001
0000
,
1000
0000
1000
0000
,
0010
0000
0100
0000
,
0001
0000
0100
0100
,
1000
0000
1000
0000
,
0001
0000
0001
0000
,
0100
0000
0010
0000
,
1000
1000
1000
0000
,
1000
0000
1000
0000
,
0001
0000
0001
0000
,
0100
0000
0010
0000
,
1000
0000
0010
0010
,
0001
0000
0001
0000
,
1000
0000
1000
0000
,
0010
0000
0100
0000
,
0001
0001
0001
0000
,
0010
0000
0001
0000
,
0100
0000
0010
0000
,
1000
0000
0100
0000
,
0010
0000
0001
0000
,
0100
0000
1000
0000
,
0010
0000
0100
0000
,
0001
0000
0010
0000
,
0100
0000
1000
0000
;

//---------------dance-single - ----------------
#NOTES:
     dance-single:
     :
     Medium:
     7:
     :
0000
0000
0000
0000
,
0000
0000
0000
0000
,
0000
0000
0000
0000
,
0000
0000
0000
0000
,
0000
0000
0000
0000
,
0100
0001
0010
0100
,
1000
1010
0001
0101
,
0001
1000
0010
0100
,
0001
1100
0010
0101
,
0010
0000
1000
0000
,
0100
0001
0010
0010
,
0100
0000
1000
0000
,
0001
0000
0100
0010
,
1000
0000
0001
0000
,
1000
0010
0100
0000
,
0001
0000
1000
0100
,
1000
0000
0100
0100
,
0100
0000
0001
0000
,
0010
1000
0100
0100
,
0010
0000
0001
0000
,
1000
0000
0010
0100
,
0001
0000
1000
0000
,
0001
0100
0010
0000
,
1000
0000
0001
0010
,
0001
0010
0011
0000
,
1010
0000
0110
0000
,
0101
0000
0010
0100
,
0110
0000
1001
0000
,
1010
0000
0011
0100
,
0101
0000
0110
0000
,
1010
0000
0100
0010
,
0110
0000
1001
0000
,
0101
0000
1100
0010
,
0002
0000
0203
0000
,
2300
0000
3200
0000
,
0320
0000
2030
0000
,
3002
0000
0023
0000
,
1030
0010
0101
0001
,
0000
0100
1000
0100
,
0110
0010
1001
1000
,
0110
0011
1100
1001
,
0010
0000
0000
1000
0000
0000
0001
0000
0000
0100
0000
0100
,
0010
0000
0000
1000
0000
0001
0100
0000
0100
0010
0000
0000
,
0100
0000
0000
0001
0000
0000
1000
0000
0000
0010
0000
0010
,
0100
0000
0000
0001
0000
1000
0010
0000
0010
0100
0000
0000
,
0001
1001
0010
1100
,
0001
0000
0000
0010
0000
0000
0100
0000
0100
1000
0000
0000
,
0101
0010
1010
0100
,
0001
0000
1000
0010
0000
0100
0001
0000
0000
0110
0000
0000
,
0100
0000
0000
0001
0000
0000
1000
0000
0000
0010
0000
0010
,
0100
0000
0000
0001
0000
1000
0010
0000
0010
0100
0000
0000
,
0010
0000
0000
1000
0000
0000
0001
0000
0000
0100
0000
0100
,
0010
0000
0000
1000
0000
0001
0100
0000
0100
0010
0000
0000
,
1000
1001
0100
0011
,
1000
0000
0000
0100
0000
0000
0010
0000
0010
0001
0000
0000
,
1010
0100
0101
0010
,
1000
0000
0001
0100
0000
0010
1000
0000
0000
0110
0000
0000
,
0010
1000
0100
0010
,
0001
0101
1000
1010
,
1000
0001
0100
0010
,
1000
0011
0100
1010
,
0100
0001
0010
0100
,
1000
1010
0001
0101
,
0001
1000
0010
0100
,
0001
1100
0010
0101
;

//---------------dance-single - ----------------
#NOTES:
     dance-single:
     :
     Hard:
     11:
     :
0000
0000
0000
0000
,
0000
0000
0000
0000
,
0000
0000
0000
0000
,
0000
0000
0000
0000
,
0000
0000
0000
0000
,
0011
0000
0000
1000
0000
0100
0001
0000
0000
0001
0000
0100
,
1000
0000
0000
0010
0000
0100
1000
0000
1000
0100
0000
0001
,
0010
0000
0000
0100
0000
1000
0010
0000
0000
0100
0000
0001
,
0010
0000
0000
0100
0000
1000
0001
0000
0001
1000
0000
0001
,
0100
0000
0000
0001
0000
0010
0100
0000
0000
1000
0000
0010
,
0100
0000
0000
0001
0000
0010
0100
0000
0000
1010
0000
0000
,
1000
0000
0000
0010
0000
0001
0010
0000
0000
0010
0000
1000
,
0100
0000
0000
0100
0000
0010
0001
0000
0001
1000
0000
1000
,
0010
0000
0000
1000
0000
0100
0001
0000
0000
0100
0000
1000
,
0001
0000
0000
0100
0000
0010
1000
0000
0000
0101
0000
0000
,
0001
0000
0001
0100
0000
0100
0010
0000
0010
1000
0000
0000
,
0000
0000
1001
0000
0000
0110
0000
0000
0001
2000
0000
0000
,
3100
0011
0100
1010
,
0001
0000
0000
1100
0000
0000
0010
0000
1000
0001
0000
0001
,
0100
0000
0000
0001
0000
0010
1000
0000
0000
1000
0000
0010
,
0001
0010
1001
0110
,
0101
0000
0000
0100
0000
0010
1000
0000
0000
1000
0000
0010
,
0001
0010
1100
0101
,
2010
0100
3001
0110
,
0001
1000
0001
1000
0001
1000
0001
0000
0000
0000
0000
0000
,
2000
0000
0000
0000
0000
3010
0200
0000
0000
0000
0000
0301
,
0020
0000
0000
0000
0000
0130
1000
0000
0001
0100
0000
0100
,
0020
0000
0000
0000
0000
0130
0002
0000
0000
0000
0000
1003
,
0020
0000
0000
0000
0000
0130
0001
0000
0000
0010
0000
0000
,
0200
0000
0000
0000
0000
1300
0020
0000
0000
0000
0000
0130
,
0002
0000
0000
0000
0000
0013
0100
0000
0100
1000
0000
1000
,
0002
0000
0000
0000
0000
0103
2000
0000
0000
0000
0000
3100
,
0001
0000
0000
0011
0000
0000
0100
0000
1000
0010
0000
0000
,
1000
0110
0001
1001
,
0010
0000
0000
1100
0000
1000
0010
0000
0010
0100
0000
0100
,
0001
0011
0100
1100
,
0010
0000
0000
0100
0000
1000
0100
0000
0001
1000
0000
0000
,
0110
0001
0011
1000
,
0000
0000
1000
0010
0000
0000
0100
0000
0000
1001
0000
0000
,
0110
1000
1100
0001
,
1001
0101
1010
1100
,
0012
0103
2010
3100
,
0102
0000
0000
1003
0000
0100
0000
0000
0010
0001
0000
0000
,
1000
0000
0100
0010
0000
0010
0001
0000
1000
0010
0000
0000
,
0100
0000
0100
0001
0000
1000
0010
0000
0000
1001
0000
0100
,
0020
2030
3002
0203
,
0310
0000
1000
0010
0000
0010
0100
0000
0100
0001
0000
0010
,
0100
0000
0000
1000
0000
1000
0001
0000
0000
0100
0000
0100
,
0010
0000
0000
1001
0000
0000
0001
1000
0001
1000
0001
1000
,
2100
3010
0102
0013
,
2010
0000
0000
3001
0000
0010
0000
0000
0100
1000
0000
0000
,
0001
0000
0010
0100
0000
0100
1000
0000
0001
0100
0000
0000
,
0010
0000
0010
1000
0000
0001
0100
0000
0000
1001
0000
0010
,
0200
0302
2003
3020
,
0130
0000
0001
0100
0000
0100
0010
0000
0010
1000
0000
0100
,
0010
0000
0000
0001
0000
0001
1000
0000
0000
0010
0000
0010
,
0100
0000
0000
1001
0000
0000
1000
0001
1000
0001
1000
0001
,
1000
0000
0000
0001
0000
0010
1000
0000
0000
1000
0000
0010
,
0001
0000
0000
0100
0000
0010
0001
0000
0001
0010
0000
1000
,
0100
0000
0000
0010
0000
0001
0100
0000
0000
0010
0000
1000
,
0100
0000
0000
0010
0000
0001
1000
0000
1000
0001
0000
1000
,
0001
0000
0000
1000
0000
0100
0001
0000
0000
0001
0000
0100
,
1000
0000
0000
0010
0000
0100
1000
0000
1000
0100
0000
0001
,
0010
0000
0000
0100
0000
1000
0010
0000
0000
0100
0000
0001
,
0010
0000
0000
0100
0000
1000
0001
0000
0001
1000
0000
0000
;

//---------------dance-single - ----------------
#NOTES:
     dance-single:
     :
     Challenge:
     13:
     :
0000
0000
0000
0000
,
0000
0000
0000
0000
,
0000
0000
0000
0000
,
0000
0000
0000
0000
,
0000
0000
0000
0000
,
0011
0000
0000
1001
0000
0100
0001
0000
0000
1010
0000
0100
,
0001
0000
0000
1100
0000
0100
0010
0000
0010
0001
0000
0001
,
0100
0000
0000
0110
0000
0001
1000
0000
0000
0101
0000
0010
,
1000
0000
0000
1100
0000
1000
0001
0000
0001
0100
0000
0100
,
0010
0000
0000
1001
0000
0100
0010
0000
0000
1000
0000
0100
,
0010
0000
0000
0001
0000
0100
0010
0000
1000
0010
0000
0100
,
0001
0000
0010
0001
0000
0010
0100
0000
0010
0001
0000
1000
,
0010
0000
0000
0100
0000
0002
0000
0000
1003
0100
0000
0010
,
0100
0000
0100
0001
0000
0001
0100
0000
0100
1000
0000
1000
,
0010
0000
0010
0001
0000
0001
0010
0000
1000
0100
0000
0110
,
0000
0000
0001
0100
0000
0000
1000
0000
0010
0100
0000
0001
,
0010
0000
0101
0000
0000
1100
0000
0000
0001
0100
0000
0010
,
1000
0000
0000
1001
0000
0100
0001
0000
0000
0010
0000
0100
,
1000
0000
0000
0010
0000
1000
0100
0000
0010
0001
0000
0000
,
0100
0000
0010
0100
0000
0001
0100
0000
0010
1000
0000
0100
,
0010
0000
0001
0100
0000
0010
1000
0000
0001
0200
0000
0000
,
0310
0000
1000
0001
0000
1000
0100
0000
0010
0001
0000
0100
,
0000
0000
0010
1000
0000
0010
1000
0000
0100
0010
0000
0001
,
0100
0000
0010
1000
0000
0000
0001
0000
0010
0100
0000
1000
,
0001
0010
0100
1000
0100
0010
0001
0000
0000
1010
0000
0000
,
1001
0000
0000
0010
0000
1000
0100
0000
0000
0010
0000
0001
,
0100
0000
0000
0001
0000
0001
0100
0000
0100
0010
0000
0010
,
1000
0000
0000
1100
0000
0001
0100
0000
0000
0011
0000
0001
,
0100
0000
0100
0010
0000
0010
1000
0000
0001
0200
0000
0000
,
0310
0000
0000
0101
0000
1000
0001
0000
0010
0001
0000
0100
,
0010
0000
0000
0110
0000
0001
1000
0000
1000
0100
0000
0100
,
0010
0000
0001
0100
0000
0001
0100
0000
0100
0010
0000
1000
,
0100
0000
0010
0001
0000
1000
0010
0000
0010
0100
0001
1000
,
0001
0000
0000
0001
1000
0001
1000
0000
0000
0010
0100
0010
,
0100
0000
0000
0001
0010
0001
0010
0100
0010
0100
1000
0100
,
1000
0000
0000
0001
0100
0001
0100
0000
0000
0010
1000
0010
,
1000
0000
0000
0010
0100
0010
0100
0001
1000
0001
0000
0000
,
0012
1003
2100
3001
,
0000
0000
0100
0020
0000
0000
0200
0000
0000
0330
0000
0000
,
2010
3001
0012
1003
,
0001
0100
0001
1000
0100
1000
0001
0100
0001
1000
0100
1000
,
0001
0010
1100
0101
,
1000
0000
0010
0100
0000
0001
0010
0000
0100
1000
0000
0001
,
0100
0000
0100
0010
0000
0010
1000
0000
1000
0001
0000
0001
,
0010
0000
0001
0100
0000
0001
1000
0000
0010
0100
0000
0010
,
1000
0000
0001
0100
0000
0010
1000
0000
0100
1000
0000
0000
,
0001
0000
1000
0001
0000
0100
0010
0000
1000
0010
0000
0100
,
0001
0000
0000
0011
0000
0001
0100
0000
0010
1000
0000
1000
,
0100
0000
0010
0100
0000
1000
0010
0000
0100
0001
0010
0100
,
1000
0001
0101
1100
,
0010
0000
0010
1000
0000
1000
0010
0000
0100
0010
0000
1000
,
0001
0000
0010
0001
0000
0010
0100
0000
1000
0001
0000
0100
,
0010
0000
0010
1000
0000
0001
1000
0000
0100
1000
0000
0010
,
0100
0000
0001
0100
0000
0010
1000
0000
0001
0100
0000
0000
,
0110
0000
0010
1000
0000
0100
1000
0000
0001
0100
0000
0010
,
1000
0000
0000
1100
0000
0001
1000
0000
1000
0010
0000
0100
,
0001
0000
0010
0001
1000
0010
0100
0000
0001
0010
0100
1000
,
0001
0000
1000
0010
0000
0100
0001
0000
0000
1001
0000
0100
,
0010
0000
0000
1010
0000
1000
0100
0000
0100
0010
0000
0010
,
0001
0000
0000
0101
0000
1000
0001
0000
0000
0011
0000
0100
,
1000
0000
0000
0110
0000
1000
0010
0000
0100
0002
0000
0000
,
0013
0000
0000
0110
0000
0001
1000
0000
0000
1010
0000
0100
,
0001
0000
0000
0011
0000
0001
0100
0000
0100
0010
0000
0010
,
1000
0000
0000
1100
0000
0010
0100
0000
0000
1001
0000
0010
,
0100
0000
0000
0101
0000
0001
0010
0000
0001
1000
0010
0100
,
0001
0000
0000
0000
;

//---------------dance-double - ----------------
#NOTES:
     dance-double:
     :
     Easy:
     4:
     :
00000000
00000000
00000000
00000000
,
00000000
00000000
00000000
00000000
,
00000000
00000000
00000000
00000000
,
00000000
00000000
00000000
00000000
,
00000000
00000000
00000000
00000000
,
00000001
00000000
00000100
00000000
,
00001000
00010000
00100000
00100000
,
10000000
00000000
01000000
00000000
,
00100000
00000000
00001000
00000000
,
00010000
00000000
00001000
00000000
,
00000100
00000001
00000010
00000000
,
00001000
00000000
00010000
00000000
,
01000000
10000000
00100000
00000000
,
10000000
00000000
01000000
00000000
,
00010000
00001000
00000100
00000000
,
00000001
00000000
00000100
00000000
,
00001000
00010000
00011000
00000000
,
00010000
00000000
01000000
00000000
,
10000000
00010000
00010000
00000000
,
10000000
00000000
00100000
00000000
,
00010000
00001000
00000010
00000000
,
00000001
00000000
00000100
00000000
,
00000001
00001000
00001000
00000000
,
00000220
00000000
00000000
00000330
,
00000100
00000000
00000000
00000000
,
00001000
00000000
00010000
00000000
,
00100000
00000000
00000000
00000000
,
01000000
00000000
10000000
00000000
,
00100000
00000000
00000000
00000000
,
01000000
00000000
00001000
00000000
,
00010000
00000000
00000000
00000000
,
00001000
00000000
00010000
00000000
,
00000010
00000000
00000000
00000000
,
00000002
00000000
00000000
00000003
,
00000200
00000000
00000000
00000300
,
00002000
00000000
00000000
00003000
,
00020000
00000000
00000000
00030000
,
00011000
00000000
00000000
00000000
,
01100000
00000000
00000000
00000000
,
10010000
00000000
00000000
00000000
,
02200000
00000000
00000000
03300000
,
10000000
00000000
01000000
00000000
,
00010000
00000000
00000000
00000000
,
00001000
00000000
00000100
00000000
,
00000001
00000000
00000000
00000000
,
00000001
00000000
00000010
00000000
,
00001000
00000000
00000000
00000000
,
00010000
00000000
00100000
00000000
,
10000000
00000000
00000000
00000000
,
10000000
00000000
00100000
00000000
,
01000000
00000000
00000000
00000000
,
00001000
00000000
00010000
00000000
,
00000010
00000000
00000100
00000000
,
00000001
00000000
00000010
00000000
,
00000100
00000000
00000000
00000000
,
00010000
00000000
00001000
00000000
,
00100000
00000000
01000000
00000000
,
10000000
00000000
00100000
00000000
,
00010000
00001000
00000100
00000100
,
00000001
00000000
00000010
00000000
,
00000100
00000000
00010000
00000000
,
00001000
00000000
00100000
00000000
,
01000000
00000000
10000000
00000000
,
00100000
00000000
01000000
00000000
,
00001000
00000000
00010000
00000000
;

//---------------dance-double - ----------------
#NOTES:
     dance-double:
     :
     Medium:
     7:
     :
00000000
00000000
00000000
00000000
,
00000000
00000000
00000000
00000000
,
00000000
00000000
00000000
00000000
,
00000000
00000000
00000000
00000000
,
00000000
00000000
00000000
00000000
,
00000100
00010000
00001000
00000000
,
01000000
00000000
00100000
00000000
,
10000000
00010000
10000000
00000000
,
01000000
00010000
00001000
00000000
,
00000100
00000000
00000001
00000000
,
00000010
00000100
00001000
00000000
,
00000010
00000000
00000100
00000000
,
00001000
00010000
00100000
00000000
,
10000000
00000000
01000000
00000000
,
00100000
00001000
00010000
00000000
,
00000100
00000010
00000001
00000000
,
00000101
00000000
00001010
00000000
,
00000100
00000000
00001000
00000000
,
00010000
01000000
10000000
00000000
,
01000000
00000000
00100000
00000000
,
00010000
10000000
01000000
00000000
,
00010000
00000000
00001000
00000000
,
00000100
00000001
00001000
00000000
,
00000011
00000000
00001100
00000000
,
00002002
00000000
00000000
00003003
,
00000010
00000000
00000000
00000000
00000000
00000100
00001000
00000000
00000000
00000000
00000000
00010000
,
01000000
00000000
00000000
00000000
00000000
10000000
00100000
00000000
00000000
11000000
00000000
00000000
,
01000000
00000000
00000000
00000000
00000000
00010000
00001000
00000000
00000000
00000000
00000000
00000100
,
00000010
00000000
00000000
00000001
00000000
00000000
00000010
00000000
00000100
00001000
00000000
00000000
,
00010000
00000000
00000000
01000000
00000000
10000000
01000000
00000000
00000000
00010000
00000000
00001000
,
00000100
00000001
00001010
00000101
,
00000110
00000000
00000000
00000001
00000000
00000010
00001000
00000000
00000000
00010000
00000000
00000000
,
00100000
00000000
10000000
01000000
00000000
00000000
00100000
00000000
00010000
10000000
00000000
00000000
,
10000000
01000000
00100000
00001000
,
00010000
00000010
00000100
00000001
,
00000001
00000110
00001000
00011000
,
00010000
00101000
01000000
10100000
,
02200000
03300000
20020000
30030000
,
00000000
00110000
00011000
00000000
,
00002020
00003030
00000202
00000303
,
00000011
00000110
00001001
00001100
,
00000001
00000000
00000000
00000100
00000000
00001000
00010000
00000000
00000000
00011000
00000000
00000000
,
01000000
00000000
00000000
00100000
00000000
10000000
01000000
00000000
00000000
01100000
00000000
00000000
,
01000000
00000000
00000000
00010000
00000000
00001000
00000100
00000000
00000000
00000110
00000000
00000000
,
00000001
00000000
00000000
00000010
00000000
00001000
00010000
00000000
00000000
00201000
00000000
00000000
,
01300000
20000000
30200000
00320000
,
00030100
00001100
00000010
00000011
,
00000100
00001010
00000101
00000100
,
00001000
00000000
00010000
00100000
00000000
00000000
10000000
00000000
00000000
00010000
00000000
00000000
,
10000000
11000000
00100000
00110000
,
00001000
00000000
00000000
00010000
00000000
00001000
00000100
00000000
00000000
00000001
00000000
00000000
,
00000010
00000000
00000000
00000100
00000000
00010000
00001000
00000000
00000000
00201000
00000000
00000000
,
01300000
00000000
00000000
10000000
00000000
01000000
00010000
00000000
00000000
00001000
00000000
00000000
,
00000010
00000000
00000000
00000001
00000000
00000100
00001000
00000000
00000000
00010000
00000000
00000000
,
00001000
00000000
00000000
00010000
00000000
00100000
10000000
00000000
00000000
01000000
00000000
00000000
,
11000000
00110000
00011000
00001010
,
00000001
00000100
00001000
00000000
,
00010000
00000000
00100000
00000000
,
10000000
00010000
10000000
00000000
,
01000000
00010000
00001000
00000000
,
00000010
00000100
00000001
00000010
,
00001000
00010000
00100000
10000000
,
01000000
00010000
00001000
00000010
,
00000001
00001000
00000010
00000100
,
00001000
00010000
00100000
10000000
;

//---------------dance-double - ----------------
#NOTES:
     dance-double:
     :
     Hard:
     11:
     :
00000000
00000000
00000000
00000000
,
00000000
00000000
00000000
00000000
,
00000000
00000000
00000000
00000000
,
00000000
00000000
00000000
00000000
,
00000000
00000000
00000000
00000000
,
00000001
00000000
00000000
00000100
00000000
00001000
00010000
00000000
00000000
00010000
00000000
00001000
,
00000100
00000000
00000000
00000100
00000000
00001000
00010000
00000000
00000010
00010000
00000000
00000000
,
01000000
00000000
00000000
10000000
00000000
00100000
01000000
00000000
00000000
01000000
00000000
00100000
,
10000000
00000000
00000000
01000000
00000000
00010000
00001000
00000000
00100000
00010000
00000000
10000000
,
01000000
00110000
00011000
00001010
,
00000001
00000000
00000001
00000010
00000000
00000010
00000100
00000000
00000100
00001000
00000000
00001000
,
00000010
00000000
00000000
00000100
00000000
00000100
00001000
00000000
00000000
00011000
00000000
00000000
,
01000000
00000000
10000000
00100000
00000000
00000000
01000000
00000000
00010000
00100000
00000000
00000000
,
01000000
10100000
01000000
00110000
,
01000000
00000000
01000000
00010000
00000000
00010000
00001000
00000000
00001000
00000100
00000000
00000000
,
00000001
00000110
00001000
00000101
,
00000000
00000000
00001001
00000000
00000000
00000110
00000000
00000000
00000100
00001000
00000000
00000000
,
00010000
00000000
00000000
00001000
00000000
00000010
00000001
00000000
00000000
00000100
00000000
00001000
,
00010000
00000000
00000000
00100000
00000000
10000000
01000000
00000000
00000000
00010000
00000000
00001000
,
00010000
00011000
00000010
00001100
,
00000010
00000000
00000000
00000001
00000000
00000100
00000010
00000000
00000000
00010000
00000000
00001000
,
00010000
00000000
00000000
01000000
00000000
00000000
10000000
00000000
00000000
00100000
00000000
01000000
,
00001000
00000000
00000000
00010000
00000000
00000010
00000100
00000000
00000000
00000001
00000000
00000100
,
00001000
00100000
10000000
00100000
,
01000000
00000000
01000000
00010000
00000000
00010000
00001000
00000000
00000000
00011000
00000000
00000000
,
00000200
00000301
00000200
00001300
,
00000020
00000000
00000000
00000031
00000000
00000000
00000010
00000000
00010000
00001000
00000000
00001000
,
00200000
10300000
00200000
00310000
,
02000000
13000000
01010000
00110000
,
21000000
00000000
00000000
30100000
00000000
00010000
00001000
00000000
00000000
00000010
00000000
00000001
,
00000100
00000000
00000000
00000102
00000000
00000000
00000013
00000000
00001000
00010000
00000000
00000000
,
02000000
00000000
00000000
13000000
00000000
01000000
00010000
00000000
00000000
00001000
00000000
00000100
,
00000001
00000010
00000110
00001001
,
00000200
00000000
00000000
00000000
00000000
00001300
00010000
00000000
00000000
01000000
00000000
00000000
,
10000000
01000000
00100000
00101000
,
00010000
00000000
00000000
00001100
00000000
00000000
00000100
00000000
00000010
00000001
00000000
00000000
,
00000001
00000010
00000100
00010100
,
00101000
00010000
11000000
00100000
,
00000000
00000000
01000000
00010000
00000000
00000000
00011000
00000000
00000000
00000100
00000000
00000000
,
00000011
00001000
00000101
00000010
,
00001001
00000110
00001010
00011000
,
00010000
00000000
00000000
00100000
00000000
10000000
01000000
00000000
00000000
00100000
00000000
00000000
,
01000000
00000000
00000000
00010000
00000000
00001000
00000010
00000000
00000010
00000001
00000000
00000000
,
00000100
00000000
00000000
00001000
00000000
00000000
00010000
00000000
00010000
00100000
00000000
00000000
,
10000000
00000000
00000000
01000000
00000000
00010000
00001000
00000000
00001000
00000010
00000000
00000010
,
00000001
00001000
00000110
00000101
,
00000100
00000000
00000000
00001000
00000000
00000000
00010000
00000000
00010000
01000000
00000000
01000000
,
10000000
00010000
10000000
01000000
,
00010000
00000000
00010000
00001000
00000000
00001000
00000100
00000000
00000100
00000001
00000000
00000000
,
00001000
00000000
00000000
00000100
00000000
00000001
00000010
00000000
00000000
00000100
00000000
00000000
,
00000010
00000000
00000000
00001000
00000000
00010000
01000000
00000000
01000000
10000000
00000000
00000000
,
00100000
00000000
00000000
00010000
00000000
00000000
00001000
00000000
00001000
00000100
00000000
00000000
,
00000001
00000000
00000000
00000010
00000000
00001000
00010000
00000000
00010000
01000000
00000000
01000000
,
10000000
00010000
01100000
10100000
,
00100000
00000000
00000000
00010000
00000000
00000000
00001000
00000000
00001000
00000010
00000000
00000010
,
00000001
00001000
00000001
00000010
,
00001000
00000000
00001000
00010000
00000000
00010000
00100000
00000000
00100000
10000000
00000000
00000000
,
10000000
00000000
00000000
00100000
00000000
00010000
00001000
00000000
00000000
00001000
00000000
00010000
,
00100000
00000000
00000000
00100000
00000000
00010000
00001000
00000000
01000000
00001000
00000000
00000000
,
00000010
00000000
00000000
00000001
00000000
00000100
00000010
00000000
00000000
00000010
00000000
00000100
,
00000001
00000000
00000000
00000010
00000000
00001000
00010000
00000000
00000100
00001000
00000000
00000001
,
00000100
00000000
00000000
00000100
00000000
00001000
00010000
00000000
00000000
00010000
00000000
00001000
,
00000100
00000000
00000000
00000100
00000000
00001000
00010000
00000000
00000010
00010000
00000000
00000000
,
01000000
00000000
00000000
10000000
00000000
00100000
01000000
00000000
00000000
01000000
00000000
00100000
,
10000000
00000000
00000000
01000000
00000000
00010000
00001000
00000000
00000000
00010000
00000000
00000000
;
