#TITLE:Cheeseburger in Paradise;
#ARTIST:Jimmy Buffett;
#BANNER:Cheeseburger in Paradise-bn.png;
#BACKGROUND:Cheeseburger in Paradise-bg.png;
#JACKET:Cheeseburger in Paradise-jacket.png;
#MUSIC:Cheeseburger in Paradise.ogg;
#SAMPLESTART:62.1;
#SAMPLELENGTH:20;
#DISPLAYBPM:135:147;
#BPMS:0=135,16=137,20=138,24=139.43,40=142,48=141,52=140,64=139.2,68=138.75,84=137.89,92=139,100=141.23,108=139.78,120=138.14,128=139.4,136=141.27,140=143,148=145,152=144,160=142.3,164=143.475,168=147,176=140.1,188=139.018,196=140.71,220=138.7,236=137.135,244=139.8,248=143.4,264=142.174;
#BGCHANGES:;

//---------------dance-single - ----------------
#NOTES:
     dance-single:
     :
     Beginner:
     3:
     :
0000
0000
0000
0000
,
0000
0000
0000
0000
,
1000
0000
0001
0000
,
1001
0000
0000
0000
,
0010
0000
0010
0000
,
1000
0000
0000
0000
,
0001
0000
1000
0000
,
0100
0000
0000
0000
,
0010
0000
0010
0000
,
0001
0000
1000
0000
,
0001
0000
1000
0000
,
0010
0010
0010
0000
,
1000
0000
0100
0000
,
0001
0000
0010
0000
,
0001
0001
0001
0000
,
0100
0000
0000
0000
,
1001
0000
0110
0000
,
1000
0000
0001
0000
,
1000
0000
0100
0000
,
0010
0010
0010
0000
,
0000
0001
0001
0000
,
0100
0000
0010
0000
,
2000
0000
0000
0000
,
0000
0000
3000
0000
,
0002
0000
0000
0000
,
0000
0000
0003
0000
,
0000
0100
0100
0000
,
0010
0000
1000
0000
,
0001
0000
0010
0000
,
0100
0000
0000
0000
,
1000
1000
1000
0000
,
0001
0000
0000
0000
,
0010
0000
0001
0000
,
0100
0000
0010
0000
,
1000
0000
0001
0000
,
1001
0000
0000
0000
,
0000
0010
0000
0010
,
0000
1000
0000
1000
,
0000
0001
0000
0001
,
0000
1000
0000
1000
,
0000
0100
0000
0100
,
0000
0010
0000
0010
,
0000
0001
0000
1000
,
0000
0010
0000
0100
,
0000
0010
0010
0000
,
1000
0000
0001
0000
,
0020
0000
0000
0000
,
0000
0000
0030
0000
,
0200
0000
0000
0000
,
0000
0000
0300
0000
,
0000
1000
1000
0000
,
0001
0000
0010
0000
,
0000
0100
0100
0000
,
0010
0000
0001
0000
,
0000
1000
1000
0000
,
0001
0000
0100
0000
,
0010
0000
0010
0000
,
1000
0000
1000
0000
,
0001
0000
1000
0000
,
0110
0000
0000
0000
,
0010
0000
0010
0000
,
1000
0000
0001
0000
,
0100
0000
0100
0000
,
0001
0000
0010
0000
,
0100
0000
0100
0000
,
1000
0000
0001
0000
,
1000
0000
0010
0000
,
0100
0000
0110
0000
;

//---------------dance-single - ----------------
#NOTES:
     dance-single:
     :
     Easy:
     7:
     :
0000
0000
0000
0000
,
0000
0000
0000
0000
,
1000
1000
0001
0001
,
2002
0000
0000
3003
,
0010
0010
1000
0100
,
0001
0010
1000
0000
,
0100
0100
1000
0001
,
0010
0100
1000
0000
,
0001
0001
1000
1000
,
0100
1000
0001
0000
,
1000
1000
0001
0001
,
1000
0010
0100
0001
,
0011
0100
1010
0100
,
0001
1000
1001
0000
,
0010
0010
1000
0001
,
0010
0000
0000
1000
,
0100
0100
1000
1000
,
0001
0100
0001
0010
,
0100
0010
0001
1000
,
0010
1000
0100
0001
,
0100
1001
1001
0100
,
0010
1000
0100
0001
,
0010
0100
0010
0001
,
0100
0010
1000
0001
,
1000
0100
0001
0010
,
0001
0100
0010
1000
,
0100
0110
0110
0001
,
1000
0010
1000
0001
,
0010
0001
0010
0100
,
2000
0000
0000
3000
,
0001
0100
0001
0010
,
0200
0000
0000
0300
,
1000
0010
1000
0001
,
0020
0000
0031
0100
,
2000
0000
3010
1000
,
0002
0000
0000
0003
,
1001
0100
0010
0100
,
0001
0001
0001
0000
,
0011
1100
0001
0100
,
1000
1000
1000
0000
,
1010
0100
0011
0100
,
1000
1000
1000
0001
,
0100
0010
0100
0001
,
1000
1000
0001
0100
,
0000
0101
0101
1000
,
0010
1000
0001
0000
,
0010
0001
0100
0010
,
1000
0100
0001
0000
,
1000
0001
0010
0100
,
1100
0001
0100
0010
,
1000
1010
1010
0001
,
1000
0100
0010
0001
,
0000
0011
0011
1000
,
0010
1000
0001
0010
,
0000
1100
1100
0010
,
0001
0100
1000
0000
,
0010
0010
0010
0010
,
0100
0100
0100
0100
,
0001
0010
1000
0100
,
2000
0002
0000
3003
,
0010
0010
0001
0100
,
1000
1000
1000
0000
,
1100
0101
0010
0010
,
1000
0100
0001
0000
,
1001
0110
0010
1000
,
0100
0010
0001
0100
,
0010
0010
1000
0001
,
0100
1001
0110
0000
;

//---------------dance-single - ----------------
#NOTES:
     dance-single:
     :
     Medium:
     9:
     :
0000
0000
0000
0000
,
0000
0000
0000
0000
,
1000
0001
0100
0010
0000
1001
0000
0220
,
0000
0000
0030
0000
0301
0100
0010
1000
,
0000
0100
0000
1000
0010
0100
0001
1000
,
0000
0100
0000
1000
0000
0001
0000
0000
,
0010
0001
0010
0000
0100
1000
0100
1000
,
0000
0010
0000
0100
0000
0001
1000
0001
,
0000
0010
0100
0000
1000
0000
0001
0100
,
0000
0010
0000
0100
0000
0000
0000
0000
,
0001
1000
0100
0000
1000
0001
0100
0000
,
0010
1000
0010
0000
1000
0100
0001
0000
,
0011
0011
1100
1100
,
0001
0100
0010
0000
1000
0000
0000
0000
,
0010
0000
0010
0000
1000
0100
1000
0001
,
0000
0100
0000
0010
0000
1000
0000
0000
,
0001
0010
0100
0000
1000
0010
0100
0000
,
0001
0010
0100
0000
1000
0001
0100
0000
,
0010
0010
1000
0100
,
1000
0010
0100
0001
0000
0000
0100
0010
,
0100
0000
0101
0000
1000
0100
1000
0000
,
0020
0000
1030
0001
0000
0100
0010
0200
,
0001
0000
0001
0000
1000
0000
0301
0010
,
0000
0100
1000
0000
0001
1000
0010
2000
,
0001
0000
0001
0000
3100
1000
0100
0000
,
0110
0000
1001
0000
1000
0001
0100
0010
,
0000
0000
1010
0000
0001
1000
0100
0000
,
2000
0000
3001
0100
0000
0010
1000
0001
,
0200
0000
0320
0000
1030
0100
0000
2000
,
0000
3002
0000
0000
1000
0000
0103
0010
,
2000
0000
3002
0000
0013
0100
1000
0002
,
0100
0000
0010
0000
0103
0001
1000
0100
,
0010
0001
1000
0000
0001
0100
0000
0020
,
0000
0000
0000
0000
1030
0001
0010
0200
,
0000
0000
0000
0000
1300
0010
0000
0002
,
0000
0000
0100
0000
1003
0000
0001
1000
,
0001
0000
0100
0100
0000
0000
0010
0000
,
0000
0000
1000
1000
0000
0000
0001
0000
,
0000
0000
0010
0010
0000
0000
0001
0000
,
0000
0000
0100
0100
0000
0000
0010
0000
,
0000
0000
1000
1000
0000
0000
0001
0000
,
0000
0000
0010
0010
0000
0000
0001
0000
,
0000
0000
0100
0100
0000
0000
0010
0000
,
1000
0100
1000
0010
0000
0100
0001
0000
,
0010
0000
1001
0000
0100
0010
1000
0000
,
0002
0000
0013
0100
0000
1000
0010
2000
,
0001
0001
0100
3100
,
1000
0010
1000
0001
0000
0010
0100
0020
,
0001
0000
1000
0000
0031
0100
0010
0000
,
0110
0000
0001
1000
0000
0010
1000
0100
,
0000
0000
0011
0000
1000
0001
0100
0000
,
0020
0000
1030
0001
0000
1000
0100
0010
,
0000
0000
1100
0000
0100
1000
0001
0000
,
0200
0000
0310
1000
0000
0001
0010
0001
,
0000
0000
1001
0000
0010
0001
0100
0000
,
0020
0000
1030
0001
0000
0000
0110
0000
,
1000
0100
1000
0001
0000
0001
0000
0000
,
0010
0001
0010
0100
0000
0100
0000
0000
,
1000
0001
1000
0010
0000
0100
0000
0001
,
2000
0002
3000
0010
,
1003
0010
1000
0100
,
0010
0001
0010
0100
1000
0001
0000
0000
,
0101
0000
1100
0000
0001
0100
1000
0000
,
1010
0000
1001
0000
0100
0001
0000
0000
,
0011
0000
1100
0000
0001
0100
1000
0000
,
0010
0100
0000
0001
0000
1000
0000
1100
,
0000
0011
0000
0100
0010
1000
0001
0100
,
0000
1001
0110
0000
;

//---------------dance-single - ----------------
#NOTES:
     dance-single:
     :
     Hard:
     12:
     :
0000
0000
0000
0000
,
0000
0000
0000
0000
,
1000
0001
0100
0010
0000
1001
0000
0220
,
0000
0000
0030
0000
0301
0100
0010
1000
,
0000
0100
0000
1000
0010
0100
0001
1000
,
0100
0010
0001
0000
1000
0001
0100
0000
,
0001
0010
0100
0001
0100
0010
0100
0001
,
0100
1000
0000
0010
0000
0100
0001
2000
,
0000
0010
3010
0000
1000
0001
0010
0200
,
0000
1300
0001
1000
0000
0010
0100
0000
,
0001
0100
1000
0100
0001
0100
1000
0100
,
0001
1000
0010
0100
0001
0010
0100
1000
,
0000
1100
0000
0101
0000
0011
0000
1100
,
0001
0100
0010
1000
0100
0010
0001
0000
,
1001
0000
1010
0100
0001
0010
0001
1000
,
0100
0010
0000
0001
1000
0010
0000
1000
,
0100
0010
0100
0001
0100
0010
0100
1000
,
0010
0100
0010
1000
0000
0001
0010
0100
,
0000
1000
0100
0010
0000
0001
1000
0001
,
0100
0000
0010
0000
1000
0000
0001
0000
0010
0000
0100
0000
1000
0001
1000
0001
,
1000
0000
1001
0000
1001
0100
0010
0000
,
1000
0010
1000
0001
0000
0100
0100
0100
,
0001
0010
0001
0100
0010
1000
0100
0010
,
1000
0010
0001
0100
0010
1000
1000
1000
,
0001
0100
0010
0100
0001
0010
0100
1000
,
0000
1010
0000
0101
0000
0001
0001
0001
,
0010
0000
1100
0000
1100
0001
0100
0000
,
0010
0000
1000
0000
0010
0000
0100
0000
0001
0000
0010
0000
0100
1000
0100
1000
,
0100
0010
0001
0100
0001
0010
1000
0010
,
0001
0100
0010
0100
1000
0100
0001
0010
,
0100
0001
0100
0010
0100
1000
0010
0100
,
0001
0010
0001
0100
0010
1000
0100
0001
,
0100
0010
0100
0001
0100
1000
0010
0100
,
1000
0100
0001
0010
0001
0100
0010
1000
,
0100
0001
0100
1000
0010
0100
0001
1000
,
0200
0000
0000
0000
1300
0000
0010
0000
1000
0000
0001
0000
0010
0100
0010
0100
,
1000
1000
0010
0200
0000
0301
0010
0200
,
0000
1300
0100
0010
0001
0100
0010
2000
,
0100
0000
3100
0010
0001
0100
0010
1010
,
0000
0101
0000
1000
0010
0100
0001
0000
,
0011
0000
1000
0001
0100
0100
0100
0010
,
1000
0100
1000
0001
0000
0110
0000
1001
,
0000
1010
0000
0001
0100
0010
1000
0100
,
0010
0000
1000
0000
0010
0000
0001
0000
0100
0000
0010
0000
1000
0001
1000
0001
,
1000
0000
1001
0000
1001
0010
0100
0000
,
0001
0010
0100
1000
0000
0010
0010
0010
,
1000
0100
0010
0001
0100
0010
0100
1000
,
0100
0001
0010
0100
0000
1000
1000
1000
,
0001
0100
0010
2000
0000
3001
0100
0000
,
0020
0000
1030
0001
0000
0100
0100
0100
,
0010
0000
0101
0000
0101
1000
0001
0000
,
0010
0000
0001
0000
1000
0000
0010
0000
0100
0001
0100
0001
0100
0000
0010
0000
,
1000
0000
1100
0000
1100
0010
0001
0000
,
0100
0010
0100
0001
0000
1000
1000
1000
,
0010
0000
1010
0000
1010
0100
0001
0000
,
0010
0100
1000
0001
0100
0000
0110
0001
,
1000
0100
0010
0001
0000
0101
0000
0010
,
1000
0100
1000
0001
0000
1010
0000
0100
,
0001
0010
0100
1000
0000
1001
0000
0100
,
0002
2000
0003
0001
,
3010
0010
0100
0002
0000
1003
0100
0020
,
0000
0031
0100
0010
1000
0100
0000
0020
,
0001
0000
0031
0100
0010
0001
0010
1000
,
0000
0002
0000
1000
1003
0100
0010
0000
,
1001
0000
1000
0100
0010
0010
0010
0001
,
0100
0010
1000
0001
0000
0011
0000
1100
,
0000
0101
0000
0010
1000
0100
1000
0001
,
0100
0010
1001
0000
0110
0000
0000
0000
;
