#TITLE:Cheer Train;
#ARTIST:Fuzita Blender;
#BANNER:Cheer Train-bn.png;
#BACKGROUND:Cheer Train-bg.png;
#JACKET:Cheer Train-jacket.png;
#MUSIC:Cheer Train.ogg;
#SAMPLESTART:32;
#SAMPLELENGTH:20;
#DISPLAYBPM:120;
#BPMS:0=120;
#BGCHANGES:;

//---------------dance-single - ----------------
#NOTES:
     dance-single:
     :
     Beginner:
     3:
     :
0000
0000
0000
0000
,
0000
0000
0000
0000
,
1000
0000
0001
0000
,
1000
0000
0000
0000
,
0010
0000
0100
0000
,
0010
0000
0000
0000
,
0100
0000
0001
0000
,
1001
0000
0110
0000
,
1000
0000
0001
0000
,
0010
0000
0001
0000
,
0100
0000
0010
0000
,
1000
0000
0100
0000
,
0010
0000
0010
0000
,
0100
0000
0100
0000
,
0010
0000
0001
0000
,
1000
0000
0100
0000
,
1000
1000
1000
0000
,
1001
0000
0000
0000
,
0010
0010
0010
0000
,
0110
0000
0000
0000
,
0001
0001
0001
0000
,
1001
0000
0000
0000
,
0100
0100
0100
0000
,
0110
0000
1001
0000
,
0010
0000
0000
0000
,
1000
0000
0000
0000
,
0001
0000
0000
0000
,
0100
0000
0000
0000
,
0001
0000
0001
0000
,
0001
0000
0000
0000
,
1000
0000
1000
0000
,
1001
0000
0110
0000
,
1001
0000
0000
0000
,
0001
0001
0001
0001
,
0000
0000
0000
0000
,
1000
1000
1000
1000
,
0000
0000
0000
0000
,
0100
0100
0100
0100
,
0000
0000
0000
0000
,
1000
1000
1000
0000
,
0001
0001
0001
0000
,
0000
0010
0010
0000
,
0100
0100
0100
0000
,
0000
0010
0010
0000
,
0001
0001
0001
0000
,
0000
1000
1000
0000
,
0100
0100
0100
0000
,
1001
0000
0010
0010
,
0010
0000
1000
0000
,
0001
0000
0100
0000
,
0001
0000
0010
0000
,
0100
0000
1000
0000
,
0110
0000
0000
0000
;

//---------------dance-single - ----------------
#NOTES:
     dance-single:
     :
     Easy:
     6:
     :
0000
0000
0000
0000
,
0000
0000
0000
0000
,
1000
0000
0100
0000
,
0010
0000
0001
0000
,
1000
1000
0001
0001
,
0100
0100
0010
0010
,
1000
0100
0010
0001
,
0100
1001
0010
0010
,
0110
0001
0100
1000
,
0010
1000
0001
0100
,
0001
0010
0001
0100
,
0010
1000
0100
0001
,
0010
0001
1000
0001
,
0010
0100
1000
0010
,
0001
0100
0001
0010
,
1000
0001
0100
0100
,
0010
1000
0101
0000
,
1100
0000
0001
0001
,
0010
0001
0101
0000
,
1100
0000
0100
0100
,
1000
0001
0011
0000
,
1010
0000
0100
0100
,
1000
0001
0011
0000
,
1010
1001
0010
0010
,
0100
0000
0100
0000
,
0100
0000
0001
1000
,
0010
0000
0010
0000
,
0010
0000
1000
0001
,
0010
0000
0001
0000
,
0100
0000
0010
0000
,
1000
0000
0100
0000
,
1000
1001
0010
0010
,
0110
0001
0010
1000
,
0100
0010
0011
1010
,
1000
0001
0100
0001
,
0100
0010
1010
0101
,
0001
0010
0001
0100
,
0010
1000
1100
0101
,
0001
0010
0001
0100
,
1000
1001
0110
0000
,
1000
0001
0101
0000
,
0000
1000
0100
0001
,
0010
0100
1100
0000
,
0000
0010
1000
0001
,
0100
0010
0110
0000
,
0000
0100
0001
0010
,
0100
1000
1010
0000
,
0000
1000
0100
0010
,
0100
0100
1000
1000
,
0001
0001
0010
0010
,
0001
0001
1000
1000
,
0010
0010
0100
0100
,
0110
0000
0000
0000
;

//---------------dance-single - ----------------
#NOTES:
     dance-single:
     :
     Medium:
     9:
     :
0000
0000
0000
0000
,
0000
0000
0000
0000
,
1000
0000
0100
0000
,
0010
0000
0000
0000
0000
0000
0000
0000
1000
0000
0000
0001
0000
0000
1000
0000
,
1000
0001
0010
0001
,
0100
0000
0000
0000
0010
0000
0000
0000
1000
0000
0000
0001
0000
0000
1000
0000
,
1000
0010
0001
0100
,
1000
0000
0001
0000
1001
0000
0000
0000
0010
0000
0000
0010
0000
0000
0010
0000
,
0110
0000
0001
0000
0010
0001
0100
0001
,
1000
0000
0100
1000
0001
0000
0010
0000
,
0001
0100
0010
1000
0001
0000
0100
0000
,
0001
0010
0100
0000
1000
0000
1000
0000
,
0010
1000
0001
0000
0010
0001
0100
0000
,
0010
1000
0100
1000
0001
0000
0010
0000
,
0001
0000
0100
0010
1000
0000
0001
1000
,
0100
0000
0000
0000
0010
0000
0000
0000
0001
0000
0000
1000
0000
0000
0001
0000
,
1000
0000
0000
0010
0000
0000
0100
0000
0101
0000
0000
0000
0010
0000
0000
0000
,
1010
0000
0000
0000
0001
0000
0000
0000
1000
0000
0000
0100
0000
0000
1000
0000
,
0010
0000
0000
0100
0000
0000
0001
0000
0011
0000
0000
0000
1000
0000
0000
0000
,
1100
0000
0000
0000
0001
0000
0000
0000
0010
0000
0000
0100
0000
0000
0010
0000
,
0001
0000
0000
1000
0000
0000
0010
0000
1010
0000
0000
0000
0100
0000
0000
0000
,
0101
0000
0000
0000
0010
0000
0000
0000
0100
0000
0000
1000
0000
0000
0001
0000
,
1000
0000
0000
0001
0000
0000
0010
0000
0011
0000
0000
0000
0100
0000
0000
0000
,
1100
0000
0000
0000
1001
0000
0000
0000
1000
0000
0000
0010
0000
0000
1000
0000
,
0002
0000
0023
0000
,
0230
0000
0000
0000
0000
0000
0000
0000
1300
0000
0000
0001
0000
0000
1000
0000
,
2000
0000
3020
0000
,
0230
0000
0000
0000
0000
0000
0000
0000
1300
0000
0000
0001
0000
0000
1000
0000
,
1000
0010
1000
0001
,
0010
0000
0000
0000
0001
0000
0000
0000
0100
0000
0000
0010
0000
0000
1000
0000
,
0001
0010
0001
0100
,
1000
0000
0001
0000
1001
0000
0000
0000
0010
0000
0000
0010
0000
0000
0010
0000
,
0110
0000
0100
0000
0001
0000
1000
0001
,
0100
0101
1100
0101
,
0010
1000
0100
0000
0010
0001
1000
0000
,
0010
1001
0110
1001
,
0100
0000
0001
0000
1000
0000
0000
0000
0001
0000
0000
0010
0000
0000
0100
0000
,
1000
1100
0011
1100
,
0010
0000
1000
0100
1000
0000
0001
0000
,
0110
0000
0000
0000
0001
1000
0001
1000
0001
0000
0000
0000
0000
0000
0000
0000
,
0010
0000
0000
1000
0000
0000
0100
0000
1001
0000
0000
0000
0010
0000
0000
0000
,
1000
1100
0101
1100
,
0001
0000
0000
0010
0000
0000
0001
0000
1100
0000
0000
0000
0010
0000
0000
0000
,
1000
0101
1010
0101
,
0010
0000
0000
0001
0000
0000
1000
0000
0110
0000
0000
0000
1000
0000
0000
0000
,
0100
1010
1100
1010
,
0100
0000
0000
0001
0000
0000
0010
0000
1100
0000
0000
0000
0001
0000
0000
0000
,
0100
0000
0000
0000
1001
0000
0000
0000
0010
0000
0000
1000
0000
0000
0001
0000
,
0010
0100
1000
0000
0001
0100
0010
0000
,
1000
0000
0001
0000
0100
0000
0000
0000
0010
0000
0000
0010
0000
0000
0010
0000
,
1000
0100
1000
0000
0001
0100
0001
0000
,
0010
0000
0001
0000
0100
0000
0000
0000
1000
0000
0000
1000
0000
0000
0001
0000
,
0110
0000
0000
0000
;

//---------------dance-single - ----------------
#NOTES:
     dance-single:
     :
     Hard:
     12:
     :
0000
0000
0000
0000
,
0000
0000
0000
0000
,
1000
0010
0000
0010
0100
0001
0000
0001
,
0010
0000
0100
0000
0000
0000
0100
0000
1000
0000
0000
0001
0000
0000
1000
0000
,
1000
0010
1000
0010
0100
0001
0100
0001
,
0010
0000
0100
0000
0010
0000
0100
0000
1000
0000
0000
0001
0000
0000
1000
0000
,
1000
0010
1000
0010
0100
0001
0100
0001
,
1000
0100
1000
0000
1001
0000
0000
0010
0100
0001
0000
0001
0000
1000
0100
0000
,
0110
0000
0000
0000
0001
0000
0000
0100
0000
0000
0010
0000
0000
1000
0000
0000
,
0100
1000
0000
0001
1000
0000
0100
1000
0000
0001
1000
0000
0100
1000
0000
0001
,
1000
0000
0100
0000
0010
0000
0000
0001
0000
0000
1000
0000
0000
0010
0000
0000
,
0100
0001
0000
1000
0001
0000
0100
0001
0000
1000
0001
0000
0100
0000
0010
0000
,
1000
0000
0100
0000
0010
0001
0100
0000
0000
0010
0000
0000
1000
0000
0000
0001
,
0000
0000
0010
0000
0001
1000
0000
0001
1000
0000
0001
1000
0000
0001
1000
0000
,
0100
0000
0010
0001
0100
0000
0000
0010
0000
0000
1000
0000
0000
0100
0000
0000
,
1000
0000
0000
0010
0000
0000
0100
0000
0001
1000
0000
1000
0000
0100
0010
0000
,
0001
0000
0000
0100
0000
0000
0010
0000
1010
0000
0000
0000
0100
0001
0100
0000
,
0101
0000
0000
0000
1000
0100
1000
0000
0001
0000
0000
0100
0000
0000
0010
0000
,
1000
0000
0000
0100
0000
0000
0010
0000
0011
0000
0000
0000
1000
0001
1000
0000
,
1100
0000
0000
0000
0010
0001
0010
0000
0100
0000
0000
1000
0000
0000
0001
0000
,
0010
0000
0000
0001
0000
0000
0100
0000
1010
0000
0000
0000
1000
0100
1000
0000
,
1100
0000
0000
0000
0001
1000
0001
0000
0010
0000
0000
0100
0000
0000
1000
0000
,
0001
0000
0000
1000
0000
0000
0010
0000
0101
0000
0000
0000
0001
0010
0001
0000
,
0011
0000
0000
0000
0100
1000
0100
0000
0010
0001
0000
0001
0000
0001
1000
0000
,
0020
0100
0230
0001
,
0302
0000
0000
0000
1000
0000
0000
0000
1003
0000
0000
0001
0000
0000
1000
0000
,
2000
0010
3020
0100
,
0230
0000
0000
0000
0301
0000
0000
0000
1000
0000
0000
0001
0000
0000
1000
0000
,
1000
0010
0000
0000
0100
0000
0000
0001
0000
0000
0010
0000
0000
0001
0000
0000
,
0100
0000
0000
0010
0000
0000
1000
0000
0000
0100
0000
0000
1000
0000
0000
0001
,
0000
0000
0010
0000
0000
0001
0000
0000
1000
0000
0000
0010
0000
0000
0100
0000
,
0001
1000
0001
0000
1001
0000
0000
0010
1000
0100
0000
0100
0000
0010
0001
0000
,
0110
0000
0001
0100
0010
1000
0100
0001
,
0100
0010
1000
0010
0001
0001
0100
1000
,
1000
0100
0001
0100
0010
0010
0001
1000
,
0001
1000
1000
0001
0010
0100
0100
0010
,
0010
0100
1000
0100
0010
1000
0001
0001
,
0001
1000
0100
0100
1000
0001
0010
0010
,
0001
0100
0010
0100
1000
1000
0010
0001
,
0100
0000
0010
0000
1000
0001
1000
0001
1000
0000
0000
0010
0000
0010
0100
0000
,
0001
0000
0000
0010
0000
0000
0100
0000
1100
0000
0000
0000
0010
1000
0010
1000
,
0010
0000
0100
0000
0101
0000
0000
0000
1010
0000
0000
0000
0001
0100
0010
0000
,
1000
0000
0000
0001
0000
0000
0010
0000
0011
0000
0000
0000
0100
1000
0100
1000
,
0100
0000
0010
0000
0011
0000
0000
0000
1100
0000
0000
0000
0010
1000
0001
0000
,
0100
0000
0000
0010
0000
0000
1000
0000
0110
0000
0000
0000
0001
0010
0001
0010
,
0001
0000
0000
0000
1001
0000
0000
0000
1010
0000
0000
0000
0100
0001
0010
0000
,
0100
0000
0000
1000
0000
0000
0001
0000
0011
0000
0000
0000
1000
0010
1000
0010
,
1000
0000
0001
0000
1001
0000
0000
0100
0010
1000
0000
1000
0000
1000
0001
0000
,
0010
0001
0010
0001
1000
0100
1000
0100
,
0010
0000
0100
0000
1000
0000
0001
0000
0100
0000
0010
1000
0000
0010
1000
0000
,
0001
0100
0001
0100
0010
1000
0010
1000
,
0100
0000
0010
0000
0001
0000
1000
0000
0010
0000
0100
0001
0000
0100
0001
0000
,
0110
0000
0000
0000
;
