#TITLE:Change Channel;
#ARTIST:Lo-Fi-FNK;
#BANNER:Change Channel-bn.png;
#BACKGROUND:Change Channel-bg.png;
#JACKET:Change Channel-jacket.png;
#MUSIC:Change Channel.ogg;
#SAMPLESTART:28.732;
#SAMPLELENGTH:20;
#DISPLAYBPM:142;
#BPMS:0=142.003;
#BGCHANGES:3=Change Channel.avi=1=0=0=0,
;

//---------------dance-single - ----------------
#NOTES:
     dance-single:
     :
     Beginner:
     3:
     :
0000
0000
0000
0000
,
0000
0000
0000
0000
,
0000
0000
0000
0000
,
0000
0000
0000
0000
,
0000
0000
0000
0000
,
1000
0000
0000
0000
,
1000
0000
0000
0000
,
0001
0000
0000
0000
,
0001
0000
0000
0000
,
0100
0100
0000
0000
,
0100
0000
0100
0000
,
0010
0010
0000
0000
,
0010
0000
0010
0000
,
1000
0000
1000
0000
,
1000
1000
0000
0000
,
0001
0000
0001
0000
,
0001
0001
0000
0000
,
1001
0000
0000
0000
,
0110
0000
0000
0000
,
1001
0000
0000
0000
,
0110
0000
0000
0000
,
1000
0000
1000
1000
,
0000
1000
0000
0001
,
0001
0000
0001
0000
,
0200
0000
0000
0300
,
0100
0000
0100
0000
,
0010
0000
0010
0000
,
1000
0000
1000
0000
,
0001
0000
0001
0000
,
0010
0000
0010
0000
,
0100
0000
0100
0000
,
0110
0000
0000
0000
,
1001
0000
0000
0000
,
0100
0000
0100
0000
,
0010
0000
0010
0000
,
1000
0000
1000
0000
,
0001
0000
0000
0000
,
0100
0100
0000
0100
,
0010
0010
0000
0010
,
0010
0000
1000
0000
,
0001
0000
0001
0000
,
1000
0000
1000
0000
,
0100
0000
0100
0000
,
0010
0000
0010
0000
,
0001
0000
0001
0000
,
0100
0000
0100
0000
,
0010
0000
0010
0000
,
1000
0000
1000
0000
,
0010
0000
0010
0000
,
0100
0000
0100
0000
,
0001
0000
0001
0000
,
0010
0000
0010
0000
,
0001
0000
0001
0000
,
1000
0000
1000
0000
,
0100
0000
0100
0000
,
1000
0000
0000
0000
,
0001
0000
0000
0000
,
0100
0000
0000
0000
,
0010
0000
0000
0000
,
0110
0000
0000
0000
;

//---------------dance-single - ----------------
#NOTES:
     dance-single:
     :
     Easy:
     5:
     :
0000
0000
0000
0000
,
0000
0000
0000
0000
,
0000
0000
0000
0000
,
0000
0000
0000
0000
,
0000
0000
0000
0000
,
1000
1000
0000
1000
,
0001
0001
0000
0001
,
0100
0100
0000
0100
,
0010
0010
0000
1000
,
0001
0100
0010
0100
,
0001
1000
0000
0100
,
1000
0010
0000
0000
,
0100
0100
0100
0100
,
0110
0000
0100
0000
,
0100
0000
0100
0000
,
2000
0000
3000
0000
,
1000
1000
1000
1000
,
0001
1000
0010
0000
,
1000
0001
0010
0000
,
0100
0010
0100
0000
,
1000
0001
1000
0000
,
0010
0010
0010
0000
,
0010
0010
0010
0000
,
0100
0100
0100
0000
,
1001
0000
0000
0000
,
0100
1000
0000
1000
,
0010
0001
0000
0100
,
1000
0010
0000
0001
,
0100
0001
0000
0001
,
0010
1000
0000
0100
,
0001
0010
0000
1000
,
0010
1000
0000
1000
,
0100
0010
0000
0100
,
0010
0000
0001
0000
,
0100
0000
0001
0000
,
0010
0000
1000
0000
,
0100
0000
1000
0000
,
0100
0000
1000
0000
,
0010
0000
1000
0000
,
0100
0000
0001
0000
,
0010
0000
0001
0000
,
2000
0000
3100
0000
,
0020
0000
0031
0000
,
0020
0000
0130
0000
,
2000
0000
3100
0000
,
0020
0000
0031
0000
,
0020
0000
0130
0000
,
0200
0000
1300
0000
,
2000
0000
3010
0000
,
0100
0100
0010
0000
,
0010
0010
1000
0000
,
0100
0100
0010
0000
,
0010
0010
0100
0000
,
2001
0000
3000
0000
,
0020
0000
0030
0000
,
0200
0000
0300
0000
,
0020
0000
0030
0000
,
0200
0000
0300
0000
,
0110
0000
0000
0000
,
1001
0000
0000
0000
;

//---------------dance-single - ----------------
#NOTES:
     dance-single:
     :
     Medium:
     8:
     :
0000
0000
0000
0000
,
0000
0000
0000
0000
,
0000
0000
0000
0000
,
0000
0000
0000
0000
,
0000
0000
0000
0000
,
0010
0100
0010
0000
1000
0000
0100
0000
,
0001
1000
0001
0000
1000
0000
0001
0000
,
0100
0001
0100
0000
0010
0000
1000
0000
,
0010
0100
0010
0000
0001
0000
0101
0000
,
0100
1000
0000
0001
0000
0010
0001
0000
,
0100
1001
0110
1000
,
0100
0001
0100
1000
,
0010
0100
0001
0110
,
1000
0000
0001
0100
0000
0010
1000
0000
,
0100
0010
0001
0100
,
0001
1000
0010
0001
,
0100
0010
1000
0001
,
1000
0100
1000
0000
0001
0000
0010
0000
,
0001
0010
0001
0000
1000
0000
0100
0000
,
1000
0001
1000
0000
0010
0000
0100
0000
,
0001
0100
0001
0000
1000
0010
1000
0000
,
0100
0000
0001
0000
0010
0100
0010
0000
,
1000
0000
0001
0000
0100
0010
0010
0000
,
1000
0000
0001
0000
1000
0100
0100
0000
,
0012
0000
0000
0003
,
0101
0000
0000
0001
0100
0000
1000
0000
,
0010
0000
0000
1000
0100
0000
0001
0000
,
0100
0000
0000
0010
1000
0000
0100
0000
,
0001
0010
0001
0000
0010
0000
0100
0000
,
1000
0000
0100
0001
0000
0001
0100
0000
,
1000
0000
0010
1000
0000
1000
0010
0000
,
0100
0000
0001
0100
0000
0100
0001
0000
,
0010
0000
0100
0010
0000
0010
0100
0000
,
1000
1001
0100
0010
,
1000
0110
0001
0100
,
0010
1001
0100
0001
,
1000
0110
0001
0100
,
0010
1000
0001
0000
0100
0000
1001
0000
,
0001
1000
0100
0000
0001
0000
0110
0000
,
1000
0001
0100
0000
0010
0000
1000
0000
,
1001
0000
0000
0000
,
0010
1000
0100
0000
1000
0000
0001
0000
,
0010
0001
0100
0000
0010
0000
0001
0000
,
1000
0100
1000
0000
0001
0000
0010
0000
,
0100
0001
1000
0000
0010
0000
0100
0000
,
0010
0001
0010
0000
0100
0000
0001
0000
,
1000
0010
0100
0000
1000
0000
0100
0000
,
0001
0010
0001
0000
0100
0000
1000
0000
,
0001
1000
0100
0000
0010
0000
0001
0000
,
1000
0000
0010
0000
0100
0001
1000
0000
,
0010
0000
0100
0000
0001
1000
0010
0000
,
0110
0000
0001
0000
1000
0100
0001
0000
,
1000
0000
0001
0000
1000
0010
0001
0000
,
0100
0000
0001
0000
1000
0100
0010
0000
,
0001
0000
0100
0000
0010
0100
0001
0000
,
2001
0000
0000
3001
,
0120
0000
0000
1030
,
2001
0000
0000
3000
,
0200
0000
0000
0300
,
1001
0000
0000
0000
;

//---------------dance-single - ----------------
#NOTES:
     dance-single:
     :
     Hard:
     12:
     :
0000
0000
0000
0000
,
0000
0000
0000
0000
,
0000
0000
0000
0000
,
0000
0000
0000
0000
,
0000
0000
0000
0000
,
0001
0000
0010
0000
0001
0000
0010
0001
0000
0000
0000
0000
0100
0000
0000
0000
,
0010
0000
1000
0000
0010
0000
1000
0010
0000
0000
0000
0000
1000
0000
0000
0000
,
0001
0000
0100
0000
0001
0000
0100
0001
0000
0000
0000
0000
1000
0000
0000
0000
,
0100
0000
1000
0000
0100
0000
1000
0100
0000
0000
0000
0000
0110
0000
0000
0000
,
0001
0010
0001
0100
0000
0010
1000
0010
,
0200
0302
1003
0110
,
0001
1000
0100
2000
0000
0000
3001
0000
,
0101
0110
1010
1001
,
0100
1000
0001
0100
0000
0010
0100
0001
,
1000
0100
0010
0001
0010
0000
0110
0000
,
0100
1000
0010
0100
0000
0001
0100
0001
,
0100
0010
0100
0000
0010
1000
0010
0000
,
1000
0000
0001
0000
0010
0000
0001
0010
0000
0010
0000
0000
0100
0000
0000
0000
,
1000
0000
0001
0000
0100
0000
0010
1000
0000
1000
0000
0000
0100
0000
0000
0000
,
1000
0010
1000
0010
0100
0001
0100
0000
,
0001
0010
0001
0010
0100
1000
0100
0000
,
0110
0000
0000
0000
0001
0000
0000
1000
0000
0010
0000
0000
0010
0000
0000
0000
,
0110
0000
0000
0000
1000
0000
0000
0001
0000
0010
0000
0000
0010
0000
0000
0000
,
0110
0000
0001
0000
1000
0001
1000
0000
,
0010
0100
0010
0100
0010
1000
0100
0001
,
0010
0001
0100
0010
0000
0000
1010
0000
,
0001
0100
0010
0100
0001
1000
0100
1000
,
0010
0100
0001
0010
0000
0000
1100
0000
,
1000
0010
0100
0010
1000
0100
0010
0001
,
0100
0010
0100
1000
0000
0000
0110
0000
,
0010
0001
1000
0100
0010
0001
1000
0100
,
1000
0010
0100
0001
0000
0000
0100
0000
,
0010
1000
0001
0100
0010
1000
0001
0100
,
0110
0000
0000
0000
1100
0000
0000
0101
0000
0000
0000
0000
0010
0000
0000
0000
,
1010
0000
0000
0000
0011
0000
0000
1010
0000
0000
0000
0000
0001
0000
0000
0000
,
0101
0000
0000
0000
0011
0000
0000
0101
0000
0000
0000
0000
1000
0000
0000
0000
,
1010
0000
0000
0000
1100
0000
0000
1010
0000
0000
0000
0000
0100
0000
0000
0000
,
0001
0000
0010
0000
0001
0000
0010
0100
0000
0000
0000
0000
1100
0000
0000
0000
,
1000
0000
0010
0000
1000
0000
0010
0100
0000
0000
0001
0000
0101
0000
0000
0000
,
0100
0000
0010
0000
0100
0000
0010
1000
0000
0000
0000
0000
1001
0000
0000
0000
,
0220
0000
0000
0330
,
0010
1000
0001
0010
0100
0010
0001
1000
,
0100
0001
0100
0010
0001
1000
0010
0100
,
0010
1000
0001
0100
1000
0100
0001
0010
,
0100
0001
0100
0010
0001
1000
0010
1000
,
0100
1000
0001
0010
0001
1000
0010
0001
,
0010
0100
0001
0010
1000
0010
0100
1000
,
0001
0010
0001
0100
0010
1000
0100
1000
,
0001
0100
0010
1000
0100
0000
1001
0000
,
0100
0010
1000
0001
0010
1000
0010
0100
,
1000
0001
0010
0100
0001
0100
1000
0010
,
0001
0010
0100
0001
1000
0010
0100
0010
,
0001
0010
1000
0100
0010
0001
1000
0001
,
0100
0000
0000
0000
0010
0000
0000
1000
0000
0000
0000
0000
1100
0000
0000
0000
,
0100
0000
0000
0000
0010
0000
0000
0001
0000
0000
0000
0000
0101
0000
0000
0000
,
0010
0000
0000
1000
0000
0000
0100
0000
0000
0000
0000
0000
0100
0000
0000
0000
,
0010
0000
0000
0001
0000
0000
0100
0000
0000
0000
0000
0000
0000
0000
0000
0000
,
1000
0000
0000
0000
0010
0000
0000
0100
0000
0000
0000
0000
0000
0000
0000
0000
,
0001
0000
0000
0000
0010
0000
0000
0100
0000
0000
0000
0000
0000
0000
0000
0000
,
1001
0000
0000
0000
;

//---------------dance-single - ----------------
#NOTES:
     dance-single:
     :
     Challenge:
     16:
     :
0000
0000
0000
0000
,
0000
0000
0000
0000
,
0000
0000
0000
0000
,
0000
0000
0000
0000
,
0000
0000
0000
0000
,
1000
0000
0100
0000
0010
0000
0001
0100
0000
0000
0000
0000
1001
0000
0000
0000
,
0100
0000
1000
0000
0001
0000
1000
0010
0000
0000
0000
0000
1001
0000
0000
0000
,
0010
0000
0100
0000
1000
0000
0001
0010
0000
0000
0000
0000
1001
0000
0000
0000
,
0001
0000
0010
0000
0100
0000
1000
0001
0000
0000
0000
0000
1001
0000
0000
0000
,
0010
0000
1000
0000
0100
0000
0001
0010
0000
0000
0100
0000
1000
0000
0001
0000
,
1000
0000
0010
0000
0100
0000
0001
1000
0001
0000
0010
0000
0010
0000
0000
0000
,
0100
0000
1000
0000
0010
0000
1000
0001
0000
0000
0000
0000
0110
0000
0001
0000
,
1000
0000
0010
0000
1000
0000
0100
0001
0100
0000
0010
0000
1000
0000
0001
0000
,
0010
0000
0100
0000
1000
0000
0001
1000
0000
0000
0010
0000
0100
0000
0001
0000
,
0010
0000
0100
0000
1000
0000
0010
0100
0010
0000
0000
0000
0110
0000
0000
0000
,
0100
0000
0001
0000
0010
0000
0001
1000
0000
0000
0010
0000
1000
0000
0001
0000
,
0100
0000
1000
0000
0010
0000
1000
0100
1000
0000
0001
0100
0001
0000
0000
0000
,
0010
0000
0001
0000
0100
0010
0100
0010
0000
0000
1010
0000
1010
0000
0100
0000
,
0001
0000
0010
0000
0100
1000
0100
1000
0000
0000
0101
0000
0101
0000
0010
0000
,
1000
0000
0001
0000
0010
0100
0010
0100
1000
0000
1000
0000
1000
0000
0000
0000
,
0001
0000
0100
0000
0010
1000
0010
1000
0100
0000
0100
0000
0100
0000
0000
0000
,
0110
0000
0001
0000
1000
0010
1000
0010
0000
0000
0101
0000
0101
0000
1000
0000
,
0001
0000
0010
0000
0001
1000
0001
1000
0000
0000
1100
0000
1100
0000
0010
0000
,
0001
0000
0100
0000
1000
0010
1000
0010
0100
0000
0100
0000
0100
0000
0000
0000
,
0010
0000
1000
0000
0001
0000
1000
0100
0010
0100
0010
0100
0010
0100
0010
0100
,
1000
0000
0001
0000
1000
0010
0100
0001
0000
0000
0000
0000
0011
0000
0000
0000
,
0100
0000
0001
0000
0010
0100
0010
0001
1000
0000
0100
0000
1000
0000
0001
0000
,
0100
0000
0010
0000
0100
0001
1000
0100
0000
0000
0000
0000
0110
0000
0000
0000
,
0001
0000
0010
0000
1000
0100
1000
0100
0010
0000
0001
0000
1000
0000
0010
0000
,
0100
0000
0001
0000
0010
0100
1000
0001
0000
0000
0000
0000
1010
0000
0000
0000
,
0100
0000
0001
0000
1000
0010
1000
0100
0010
0000
0001
0000
1000
0000
0010
0000
,
1000
0000
0001
0000
0010
0001
0100
0010
0000
0000
0000
0000
1010
0000
0000
0000
,
0100
0000
0001
0000
1000
0100
0010
0001
0100
0000
0010
0000
1000
0000
0100
0000
,
0010
0000
0001
0000
0100
0001
1000
0100
0000
0000
0000
0000
1001
0000
0000
0000
,
0010
0000
0100
0000
0001
0010
0100
0010
0001
0000
1000
0000
0010
0000
0100
0000
,
0001
0000
1000
0010
1000
0100
0010
0001
0000
0000
0000
0000
0101
0000
0000
0000
,
0010
0000
1000
0001
1000
0100
0010
0001
0100
0000
0010
0000
1000
0000
0100
0000
,
0010
0000
0001
0010
0001
0100
0010
1000
0000
0000
0000
0000
1001
0000
0000
0000
,
1000
0000
0100
0010
0001
0100
0001
1000
0010
0000
0100
0000
0001
0000
1000
0000
,
0100
1000
0010
0000
0100
0001
1000
0001
0000
0000
0000
0000
0011
0000
0000
0000
,
0100
0000
1000
0000
0010
0100
0001
1000
0010
0100
0001
1000
0100
0000
1001
0000
,
1000
0000
0010
0000
0100
0001
0100
0001
0010
0100
1000
0010
1000
0001
0100
0010
,
1000
0100
1000
0010
0100
0001
0010
0001
1000
0001
0010
0100
1000
0010
0100
0001
,
0010
0100
0010
0100
1000
0010
0100
0001
0010
0001
1000
0001
1000
0100
1000
0010
,
0100
0001
0010
0001
0010
0100
1000
0010
1000
0001
1000
0001
1000
0100
0010
0001
,
1000
0010
1000
0010
1000
0001
1000
0001
0010
0100
1000
0010
1000
0100
0010
0001
,
1000
0001
0010
0001
0100
0010
0100
0001
0010
0100
1000
0010
1000
0100
0010
0001
,
0010
0100
0010
0001
0010
0100
1000
0010
1000
0001
1000
0001
0010
0100
1000
0100
,
0010
0001
0010
0001
0100
0010
1000
0001
1000
0100
0010
0001
0100
0000
1001
0000
,
0010
1000
0010
1000
0100
0010
0001
0100
0001
0010
0001
1000
0001
0010
0100
1000
,
0010
0100
0001
0010
0100
1000
0001
0010
0001
0100
0010
1000
0010
1000
0010
0100
,
0001
0010
0001
0010
0100
1000
0010
1000
0001
1000
0001
0010
0100
0010
0001
0100
,
0010
1000
0010
1000
0100
0010
0001
0100
0001
0010
0001
1000
0100
1000
0100
1000
,
0100
1000
0010
0100
0010
1000
0001
0010
0100
0010
0001
0100
0001
0010
0100
1000
,
0010
1000
0001
1000
0001
0010
0100
0010
0100
0010
0001
0100
0010
1000
0001
0010
,
0100
1000
0010
1000
0001
1000
0001
0010
0001
0100
0010
1000
0001
1000
0100
0010
,
0100
1000
0010
0100
0001
0010
0001
0010
0001
0100
0001
0010
0100
1000
0010
1000
,
0001
0000
0000
0000
0010
0100
1000
0001
0000
0000
0000
0000
0000
0000
0000
0000
,
1010
0000
0000
0000
0100
0010
1000
0001
0000
0000
0000
0000
0000
0000
0000
0000
,
0011
0000
0000
0000
1000
0001
0010
0100
0000
0000
0000
0000
0000
0000
0000
0000
,
1100
0000
0000
0000
0001
1000
0010
0100
0000
0000
0000
0000
0000
0000
0000
0000
;

//---------------dance-double - ----------------
#NOTES:
     dance-double:
     :
     Easy:
     5:
     :
00000000
00000000
00000000
00000000
,
00000000
00000000
00000000
00000000
,
00000000
00000000
00000000
00000000
,
00000000
00000000
00000000
00000000
,
00000000
00000000
00000000
00000000
,
10000000
01000000
00000000
00010000
,
00001000
00001000
00000000
00000100
,
00000010
00000010
00000000
00001000
,
00000001
00000001
00000000
00000100
,
00001000
00010000
00001000
00100000
,
00010000
00100000
00000000
01000000
,
10000000
00010000
00000000
00000000
,
01000000
00010000
00001000
00010000
,
00011000
00001000
00000100
00000010
,
00000100
00000000
00001001
00000000
,
00000200
00000000
00000000
00000300
,
00001000
00001000
00010000
00010000
,
00100000
00100000
10010000
00000000
,
01000000
01000000
10010000
00000000
,
00010000
00010000
00011000
00000000
,
00001000
00001000
00011000
00000000
,
00000100
00000100
00001001
00000000
,
00000010
00000010
00001001
00000000
,
00000100
00001000
00010000
00000000
,
00011000
00000000
00000000
00000000
,
00010000
00100000
00000000
01000000
,
01000000
00100000
00000000
10000000
,
00010000
00010000
00000000
10000000
,
01000000
00010000
00000000
00001000
,
00001000
00010000
00000000
00000100
,
00000100
00001000
00000000
00000001
,
00000001
00000010
00000000
00000001
,
00000100
00000100
00000000
00000000
,
00001000
00010000
00001000
00010000
,
00001000
00000000
00100000
00000000
,
00010000
00100000
00010000
00100000
,
01000000
00000000
01000000
00000000
,
10000000
00100000
10000000
00100000
,
01000000
00000000
00001000
00000000
,
00010000
00001000
00010000
00001000
,
00010000
00000000
00000000
00000000
,
00000020
00000000
00000000
00000030
,
00002000
00000000
00000000
00003000
,
00000002
00000000
00000000
00000003
,
00000200
00000000
00000000
00000300
,
00002000
00000000
00000000
00003000
,
00020000
00000000
00000000
00030000
,
02000000
00000000
00000000
03000000
,
00200000
00000000
00000000
00300000
,
10000000
10000000
01000000
00000000
,
00010000
00010000
00001000
00000000
,
00000100
00000100
00000001
00000000
,
00001000
00001000
00000100
00000000
,
00022000
00000000
00000000
00033000
,
00002000
00000000
00000000
00003000
,
00200000
00000000
00000000
00300000
,
00020000
00000000
00000000
00030000
,
20000000
00000000
00000000
30000000
,
01100000
00000000
00000000
00000000
,
10010000
00000000
00000000
00000000
;

//---------------dance-double - ----------------
#NOTES:
     dance-double:
     :
     Medium:
     8:
     :
00000000
00000000
00000000
00000000
,
00000000
00000000
00000000
00000000
,
00000000
00000000
00000000
00000000
,
00000000
00000000
00000000
00000000
,
00000000
00000000
00000000
00000000
,
00100000
01000000
00100000
00000000
10000000
00000000
01000000
00000000
,
00010000
00001000
00010000
00000000
00001000
00000000
00010000
00000000
,
00000100
00001000
00000100
00000000
00000010
00000000
00000001
00000000
,
00000100
00000010
00000100
00000000
00001000
00000000
00001001
00000000
,
00000100
00001000
00000000
00010000
00000000
00001000
00100000
00000000
,
01000000
10010000
01100000
10000000
,
01000000
00010000
00001000
00000100
,
00000001
00000010
00000100
00001001
,
00000100
00000000
00010000
00001000
00000000
00100000
00010000
00000000
,
01000000
00100000
10000000
01000000
,
00010000
00001000
00100000
00001000
,
00010000
00000010
00001000
00000100
,
00000010
00000001
00000010
00000000
00000100
00000000
00001000
00000000
,
00000100
00010000
00000100
00000000
00010000
00000000
00001000
00000000
,
00100000
00010000
00100000
00000000
00010000
00000000
10000000
00000000
,
01000000
10000000
01000000
00000000
10000000
00100000
10000000
00000000
,
00010000
00000000
01000000
00000000
00001000
00010000
00010000
00000000
,
00000100
00000000
00001000
00000000
00000001
00000010
00000010
00000000
,
00000001
00000000
00000100
00000000
00001000
00010000
00010000
00000000
,
00201000
00000000
00000000
00300000
,
10010000
00000000
00000000
10000000
01000000
00000000
00010000
00000000
,
00001000
00000000
00000000
00000100
00000001
00000000
00001000
00000000
,
00000001
00000000
00000000
00000100
00001000
00000000
00010000
00000000
,
00001000
00010000
00001000
00000000
00100000
00000000
00010000
00000000
,
10000000
00000000
01000000
00010000
00000000
00001000
00000100
00000000
,
00000001
00000000
00000010
00000001
00000000
00000001
00000010
00000000
,
00000100
00000000
00001000
00000100
00000000
00000100
00010000
00000000
,
00001000
00000000
00100000
00010000
00000000
00010000
00100000
00000000
,
01000000
11000000
01000000
00010000
,
00001000
00011000
00001000
00000100
,
00000010
00000110
00000010
00000100
,
00001000
00011000
00001000
00100000
,
00010000
10000000
00010000
00000000
00100000
00000000
01100000
00000000
,
10000000
01000000
10000000
00000000
00100000
00000000
01100000
00000000
,
00100000
00010000
00100000
00000000
00010000
00000000
00001000
00000000
,
00011000
00000000
00000000
00000000
,
00001000
00010000
00001000
00000000
00010000
00000000
00000010
00000000
,
00001000
00000100
00001000
00000000
00000001
00000000
00000010
00000000
,
00000001
00000100
00000001
00000000
00001000
00000000
00000100
00000000
,
00010000
00001000
00010000
00000000
00001000
00000000
00010000
00000000
,
00100000
00010000
00100000
00000000
01000000
00000000
00100000
00000000
,
10000000
01000000
10000000
00000000
01000000
00000000
00010000
00000000
,
00001000
00010000
00001000
00000000
00100000
00000000
00010000
00000000
,
01000000
00010000
01000000
00000000
00001000
00000000
00010000
00000000
,
00000100
00000000
00001000
00000000
00000010
00001000
00000001
00000000
,
00000100
00000000
00001000
00000000
00010000
00001000
00100000
00000000
,
00010000
00000000
00100000
00000000
01000000
10000000
00010000
00000000
,
00100000
00000000
00001000
00000000
00010000
00001000
00100000
00000000
,
01000000
00000000
00010000
00000000
00001000
00000100
00000010
00000000
,
00001000
00000000
00000001
00000000
00000100
00001000
00010000
00000000
,
00012000
00000000
00000000
00013000
,
00201000
00000000
00000000
00310000
,
02100000
00000000
00000000
03000000
,
00020000
00000000
00000000
00030000
,
00011000
00000000
00000000
00000000
;

//---------------dance-double - ----------------
#NOTES:
     dance-double:
     :
     Hard:
     12:
     :
00000000
00000000
00000000
00000000
,
00000000
00000000
00000000
00000000
,
00000000
00000000
00000000
00000000
,
00000000
00000000
00000000
00000000
,
00000000
00000000
00000000
00000000
,
10000000
00010000
10000000
00100000
00010000
00000000
00001000
00000000
,
00010000
00001000
00000100
00000001
00001000
00000000
00000100
00000000
,
00001000
00000010
00000100
00000001
00000100
00000000
00001000
00000000
,
00010000
00001000
00100000
00010000
01000000
00000000
01100000
00000000
,
10000000
01000000
00010000
01000000
00000000
00100000
00010000
01000000
,
00001000
00010000
00000100
00001000
,
00000010
00001000
00000001
00000100
00000000
00000000
00000110
00000000
,
00001010
00010010
00011000
00101000
,
00100000
00010000
10000000
01000000
00000000
00010000
00001000
00000100
,
00000001
00000100
00001000
00010000
00001000
00000000
00010010
00000000
,
00001000
00000001
00000100
00000010
00000000
00001000
00000100
00001000
,
00000100
00010000
00001000
00000000
00100000
00010000
00100000
00000000
,
00010000
00000000
10000000
00000000
01000000
00000000
00010000
00000000
00000000
00001000
00000000
00000000
00010000
00000000
00000000
00000000
,
00001000
00000000
00100000
00000000
00010000
00000000
01000000
00000000
00000000
00001000
00000000
00000000
00010000
00000000
00000000
00000000
,
00000010
00001000
00000100
00001000
00000010
00000010
00000100
00000000
,
00000001
00000100
00000010
00001000
00000100
00000100
00010000
00000000
,
00011000
00000000
00000000
00000000
00001000
00000000
00000000
00100000
00000000
00010000
00000000
00000000
10000000
00000000
00000000
00000000
,
01100000
00000000
00000000
00000000
10000000
00000000
00000000
00010000
00000000
00100000
00000000
00000000
00001000
00000000
00000000
00000000
,
00011000
00000000
00010000
00000000
00000100
00001000
00000100
00000000
,
00000010
00000001
00000010
00000001
00000010
00000001
00000010
00000001
,
00000100
00001000
00010000
00100000
00000000
00000000
01100000
00000000
,
10000000
01000000
10000000
01000000
00010000
01000000
00010000
00001000
,
00000100
00000010
00000100
00000010
00000000
00000000
00001000
00000000
,
00000001
00000100
00000010
00000100
00001000
00010000
00001000
00010000
,
01000000
00100000
01000000
00100000
00000000
00010000
10000000
00000000
,
01000000
00100000
01000000
00010000
00001000
00010000
00001000
00000100
,
00000010
00000100
00000010
00001000
00000000
00000001
00001000
00000000
,
00000100
00010000
00001000
00100000
00010000
10000000
01000000
00100000
,
01100000
00000000
00000000
00000000
00110000
00000000
00000000
00101000
00000000
00000000
00000000
00000000
00010000
00000000
00000000
00000000
,
00011000
00000000
00000000
00000000
00010010
00000000
00000000
00001000
00000000
00000000
00000000
00000000
00001100
00000000
00000000
00000000
,
00000010
00000000
00000000
00000000
00001001
00000000
00000000
00001100
00000000
00000000
00000000
00000000
00010000
00000000
00000000
00000000
,
00011000
00000000
00000000
00000000
00101000
00000000
00000000
00110000
00000000
00000000
00000000
00000000
01000000
00000000
00000000
00000000
,
00100000
00000000
10000000
00000000
00100000
00000000
10000000
01000000
00000000
00000000
00000000
00000000
10010000
00000000
00000000
00000000
,
01000000
00000000
00010000
00000000
01000000
00000000
00010000
00100000
00000000
00000000
00001000
00000000
00011000
00000000
00000000
00000000
,
00010000
00000000
00000100
00000000
00001000
00000000
00000100
00000010
00000000
00000000
00000000
00000000
00001001
00000000
00000000
00000000
,
00000220
00000000
00000000
00000330
,
00000001
00000100
00000010
00000001
00001000
00000001
00000010
00001000
,
00000100
00010000
00001000
01000000
00010000
00100000
00001000
00010000
,
01000000
10000000
00100000
01000000
10000000
01000000
00001000
00100000
,
00010000
01000000
00100000
10000000
01000000
00100000
00001000
00100000
,
01000000
00010000
01000000
10000000
00100000
00010000
00001000
00100000
,
00010000
01000000
00100000
00010000
00001000
00100000
00001000
00010000
,
00000010
00000100
00000001
00000100
00001000
00000100
00000001
00000010
,
00000100
00010000
00001000
00000100
00000001
00000000
00001001
00000000
,
00001000
00000100
00000010
00001000
00000001
00001000
00000010
00000001
,
00000100
00000010
00010000
00001000
00100000
01000000
10000000
00100000
,
01000000
10000000
01000000
00010000
00100000
01000000
00100000
00001000
,
00010000
00000010
00000100
00000010
00010000
00001000
00100000
01000000
,
10000000
00000000
00000000
00000000
00100000
00000000
00000000
00010000
00000000
00000000
00000000
00000000
00011000
00000000
00000000
00000000
,
00001000
00000000
00000000
00000000
00000010
00000000
00000000
00000001
00000000
00000000
00000000
00000000
00001001
00000000
00000000
00000000
,
00000100
00000000
00000000
00000001
00000000
00000000
00000010
00000000
00000000
00000000
00000000
00000000
00001000
00000000
00000000
00000000
,
00010000
00000000
00000000
00100000
00000000
00000000
00001000
00000000
00000000
00000000
00000000
00000000
00000000
00000000
00000000
00000000
,
01000000
00000000
00000000
00000000
00100000
00000000
00000000
10000000
00000000
00000000
00000000
00000000
00000000
00000000
00000000
00000000
,
01000000
00000000
00000000
00000000
00010000
00000000
00000000
00001000
00000000
00000000
00000000
00000000
00000000
00000000
00000000
00000000
,
00011000
00000000
00000000
00000000
;
