#TITLE:Celestial;
#ARTIST:Ed Sheeran;
#BANNER:Celestial-bn.png;
#BACKGROUND:Celestial-bg.png;
#JACKET:Celestial-jacket.png;
#MUSIC:Celestial.ogg;
#SAMPLESTART:30.222;
#SAMPLELENGTH:20;
#DISPLAYBPM:123;
#BPMS:0=123,63.75=128,64=123,95.75=138,96=133,97=123;
#BGCHANGES:;

//---------------dance-single - ----------------
#NOTES:
     dance-single:
     :
     Beginner:
     1:
     :
0000
0000
0000
0000
,
0000
0000
0000
0000
,
0000
0000
0000
0000
,
0000
0000
0000
0000
,
0000
0000
0000
0000
,
0000
0000
0000
0000
,
0000
0000
0000
0000
,
0000
0000
0000
0000
,
0010
0000
0000
0000
,
0001
0000
0000
0000
,
0100
0000
0000
0000
,
0010
0000
0000
0000
,
1000
0000
0000
0000
,
0100
0000
0000
0000
,
1000
0000
0000
0000
,
0001
0000
0000
0000
,
1001
0000
0000
0000
,
0010
0000
0000
0000
,
1000
0000
0000
0000
,
0100
0000
0000
0000
,
1001
0000
0000
0000
,
0001
0000
0000
0000
,
0010
0000
0000
0000
,
0100
0000
1000
0000
,
0001
0000
0000
0000
,
0100
0000
0000
0000
,
0010
0000
0000
0000
,
1000
0000
0010
0000
,
0100
0000
0000
0000
,
0001
0000
0000
0000
,
0010
0000
0000
0000
,
0100
0000
0000
0000
,
1000
0000
0000
0000
,
0001
0000
0000
0000
,
1000
0000
0000
0000
,
0001
0000
0000
0000
,
0010
0000
0000
0000
,
0001
0000
0000
0000
,
0100
0000
0000
0000
,
0010
0010
0010
0000
,
1001
0000
0000
0000
,
0010
0000
0000
0000
,
0100
0000
0000
0000
,
0010
0000
0000
0000
,
1001
0000
0000
0000
,
1000
0000
0000
0000
,
0100
0000
0000
0000
,
0001
0000
0001
0000
,
0010
0000
0000
0000
,
0001
0000
0000
0000
,
0100
0000
0000
0000
,
0100
0000
0001
0000
,
0001
0000
0000
0000
,
1000
0000
0000
0000
,
0010
0000
0000
0000
,
0100
0000
0001
0000
,
0010
0000
0000
0000
,
0001
0000
0000
0000
,
0100
0000
0000
0000
,
0010
0000
0000
0000
,
1000
0000
0000
0000
,
0001
0000
0000
0000
,
1000
0000
0000
0000
,
0010
0010
0010
0000
,
0001
0000
0000
0000
;

//---------------dance-single - ----------------
#NOTES:
     dance-single:
     :
     Easy:
     5:
     :
0000
0000
0000
0000
,
0000
0000
0000
0000
,
0000
0000
0000
0000
,
0000
0000
0000
0000
,
0000
0000
0000
0000
,
0000
0000
0000
0000
,
0000
0000
0000
0000
,
0000
0000
0000
0000
,
0010
0001
0000
0001
,
0000
1000
0000
1000
,
0000
0010
0000
1000
,
0000
0100
0000
0001
,
0000
1000
0000
0100
,
0000
1000
0000
0001
,
0000
0010
0001
0100
,
1000
0000
0010
1000
,
0001
0000
0000
0000
,
0010
0000
0001
0000
,
0100
0010
1000
0000
,
0100
0000
1000
0001
,
0100
0000
0000
0000
,
0010
0000
1000
0000
,
0100
1000
0001
0000
,
0010
0000
0001
1000
,
0010
1000
0000
0100
,
0000
0001
0000
0010
,
0001
0100
0000
0010
,
0000
1000
0100
1000
,
0002
0000
0000
0103
,
0020
0000
0000
0030
,
2000
0100
0000
3100
,
0002
0000
0000
0003
,
0000
0010
0000
0010
,
0000
0001
0000
1000
,
0000
0001
0000
0100
,
0000
0100
0000
0010
,
0000
1000
0000
0100
,
0000
1000
0000
0001
,
0000
0010
0000
0001
,
0100
0100
0010
1000
,
0001
0000
0000
0000
,
1000
0000
0001
0000
,
0010
0000
0001
0000
,
0100
0000
0010
1000
,
0100
0000
0000
0000
,
1000
0010
0100
0000
,
0001
0010
0001
0100
,
0010
0000
1000
0100
,
1000
0000
0001
0000
,
0100
0001
0010
0000
,
0100
0000
1000
0000
,
0010
0000
1000
0100
,
0001
0000
0010
0001
,
1000
0010
0010
0000
,
0100
0000
0001
0010
,
0001
0000
1000
0100
,
0010
0000
0001
0000
,
0100
0000
0010
0000
,
1000
0000
0100
0000
,
1000
0000
0001
0000
,
0010
0000
0001
0000
,
0010
0000
0100
0000
,
1000
0000
0010
0000
,
1000
1000
0001
0100
,
0001
0000
0000
0000
;

//---------------dance-single - ----------------
#NOTES:
     dance-single:
     :
     Medium:
     9:
     :
0000
0000
0000
0000
,
0000
0000
0000
0000
,
0000
0000
0000
0000
,
0000
0000
0000
0000
,
0000
0000
0000
0000
,
0000
0000
0000
0000
,
0000
0000
0000
0000
,
0000
0000
0000
0000
,
0010
1000
0100
1000
,
0001
0010
0001
0100
,
0001
0000
1000
0000
0010
0000
1000
0001
,
0000
0010
0000
0100
0000
1000
0001
0000
,
0100
0001
0010
0001
,
0010
0100
1000
0010
,
1000
0000
0000
0000
0001
0000
0000
0000
0010
0000
0000
0001
0000
0000
0100
0000
,
0000
0000
0000
0000
1000
0100
0010
0001
,
0100
0000
0000
0000
0000
0010
1000
0001
,
0000
0010
0000
0001
0000
0100
0010
1000
,
0000
0001
0000
1000
0000
0100
0010
0001
,
0100
0000
0000
0000
0001
0010
0100
1000
,
0010
0000
0000
0000
0000
0010
1000
0100
,
0000
1000
0000
0001
0000
0010
0001
0100
,
0000
0001
0000
0010
0000
0100
1000
0001
,
0100
0000
0000
0010
1000
0000
0001
0100
,
0010
0000
1000
0000
0100
1000
0001
0000
,
0010
0000
0001
0000
0100
0010
1000
0000
,
0001
0000
0010
0000
0001
1000
0100
0000
,
0010
0000
0100
1000
0001
0000
0100
0010
,
1000
0000
0001
0000
0000
0010
0001
0100
,
0000
0000
0010
0000
1000
0001
0100
0000
,
0110
0000
0001
0000
0000
0010
0001
1000
,
0000
0100
1000
0001
,
0010
0001
0100
0010
,
0000
1000
0100
0010
,
0000
0001
1000
0001
,
0000
0010
0001
0100
,
0010
1000
0100
0001
,
0000
1000
0010
0100
,
0000
0001
0010
0100
,
1100
0000
0101
0000
1000
0100
0010
0001
,
0000
0000
0000
0000
0000
0010
0100
0001
,
0000
1000
0000
0001
0000
0010
0100
1000
,
0000
0010
0000
1000
0000
0100
1000
0001
,
0000
0000
0000
0000
0001
0010
0100
1000
,
0010
0000
0100
0000
0000
0001
1000
0100
,
0000
0010
0000
0001
0000
0100
0010
1000
,
0000
0100
0000
1000
0000
0010
0100
0001
,
1000
0000
0000
0100
1000
0000
0001
0100
,
0010
0000
1000
0000
0001
0100
0010
0000
,
1000
0000
0100
0000
1000
0010
0001
0000
,
1001
0000
0010
0000
0000
1000
0100
0010
,
0001
0000
0000
0000
0000
0000
0100
0000
0010
0000
0000
1000
0000
0000
0001
0000
,
0010
0000
0001
0000
0100
0010
1000
0000
,
0001
0000
0010
0000
0100
1000
0001
0000
,
1010
0000
0100
0000
0000
0001
0010
1000
,
0000
0000
0000
0000
0000
0000
0100
0000
1000
0000
0000
0001
0000
0000
0100
0000
,
0010
0000
1000
0000
0100
0000
0010
0001
,
1000
0000
0001
0000
0100
0000
0010
1000
,
0001
0000
0010
0000
0001
0000
0100
0010
,
1000
0000
0100
0000
1000
0000
0001
0100
,
0001
0000
0010
0000
0001
0000
1000
0100
,
0010
0000
0001
0000
0100
0000
0010
1000
,
0001
0000
0010
0001
0100
0000
1000
0000
,
0100
0000
0000
0000
0011
0000
0000
0000
1000
0000
0000
0010
0000
0000
0100
0000
,
0001
0000
0000
0000
;

//---------------dance-single - ----------------
#NOTES:
     dance-single:
     :
     Hard:
     12:
     :
0000
0000
0000
0000
,
0000
0000
0000
0000
,
0000
0000
0000
0000
,
0000
0000
0000
0000
,
0000
0000
0000
0000
,
0000
0000
0000
0000
,
0000
0000
0000
0000
,
0000
0000
0000
0000
,
0010
0000
1000
0000
0000
0100
0000
0000
1000
0000
0001
0000
0100
0000
0010
0000
,
1000
0000
0100
0000
0000
0010
0000
0000
0001
0000
1000
0000
0100
0000
0000
0000
,
1000
0001
0100
0001
0010
0100
1000
0001
,
0000
1000
0000
0100
1000
0001
0100
0010
,
1000
0000
0001
0000
0000
0001
0000
0000
0010
0000
0001
0000
0100
0000
0000
0000
,
0010
0000
1000
0000
0000
0001
0000
0000
1000
0000
0100
0000
0010
0000
0000
0000
,
0001
0000
0100
0000
1000
0000
0100
0000
0001
0000
0000
0010
0000
0000
0100
0000
,
1000
0000
0010
0000
1000
0100
0010
0001
,
0100
0000
0000
0000
0010
0000
0000
0010
0000
0000
1000
0000
0100
0000
0001
0000
,
0010
0000
0000
0000
0001
0000
0000
0100
0000
0000
0010
0000
1000
0000
0001
0000
,
1000
0000
0000
0000
0100
0000
0000
0010
0000
0000
0100
0000
1000
0000
0001
0000
,
0100
0000
0000
0000
0010
0000
0000
0010
1000
0000
0100
0000
0010
0000
0001
0000
,
0100
0000
0000
0000
0001
0000
0000
1000
0001
0000
0100
0000
0010
0000
1000
0000
,
0100
0010
0001
0100
0000
0010
1000
0001
,
1000
0100
0000
1000
0010
0100
0001
1000
,
0100
0010
0001
1000
1000
0010
0100
0001
,
0010
0000
0000
0000
0001
0000
1000
0100
0000
1000
0100
0000
1000
0000
0010
0000
,
0100
0000
0000
0000
0001
0000
0010
0100
0000
0010
0100
0000
1000
0000
0000
0000
,
0001
0000
0000
0000
1000
0000
0010
0100
0000
0010
0100
0000
0001
0000
1000
0000
,
0100
0000
0010
0001
0001
0100
0010
1000
,
0100
0000
0000
0000
1000
0000
0010
1000
0000
0010
1000
0000
0001
0000
0100
0000
,
0010
0000
0000
0000
1000
0000
0001
0010
0000
0001
0010
0000
0100
0000
0000
0000
,
1100
0000
0000
0000
0010
0000
0100
0001
0000
0100
0001
0000
1000
0000
0100
0000
,
0010
0000
0000
0000
0001
0000
0000
0100
0000
0000
0010
0000
0000
1000
0000
0000
,
0001
0000
0100
0000
0000
0010
0000
0000
2000
0000
0000
0000
3100
0000
1000
0000
,
0000
0000
0001
0000
0000
0010
0000
0000
0002
0000
0000
0000
0103
0000
0010
0000
,
0000
0000
1000
0000
0000
0001
0000
0000
0200
0000
0000
0000
0301
0000
0010
0000
,
0000
0000
0100
0000
0000
1000
0000
0000
0001
0000
0000
1000
0000
0000
0010
0000
,
0000
0000
0100
0000
0000
0001
0000
0000
0020
0000
0000
0000
0031
0000
1000
0000
,
0000
0000
0100
0000
1000
0000
0001
0000
1000
0000
0000
0010
0000
0000
0100
0000
,
0000
0000
0001
0000
0000
0010
0000
0000
0100
0000
0000
0000
1100
0000
0000
0000
,
0001
0000
0000
0100
0010
0000
0000
0100
0001
0000
0010
0000
0100
0000
1000
0000
,
0010
0000
0000
0000
1000
0000
0000
1000
0000
0000
0100
0000
1000
0000
0002
0000
,
0000
0023
0000
0230
0000
1300
0010
0200
,
0000
0302
0000
0023
0000
0031
1000
0100
,
0010
0000
0000
0000
0001
0000
0000
0001
1000
0000
0100
0000
0010
0000
0001
0000
,
0100
0000
0000
0000
0010
0000
1000
0001
0000
1000
0001
0000
0010
0000
0100
0000
,
1000
0010
0100
0001
0010
0100
1000
0001
,
0100
1000
0100
0001
0100
0010
1000
0001
,
0010
0100
1000
0010
0010
0100
0001
1000
,
0010
0000
0000
0000
1000
0000
0100
1000
0000
0100
1000
0000
0001
0000
0100
0000
,
0010
0000
0000
0000
0100
0000
0001
1000
0000
0001
1000
0000
0100
0000
0000
0000
,
0011
0000
0000
0000
1000
0000
0001
0100
0000
0001
0100
0000
0010
0000
1000
0000
,
0100
0000
0000
0000
0010
0000
0001
0000
0001
0000
0000
1000
0000
0000
0010
0000
,
0100
0000
0000
0000
0001
0000
1000
0010
0000
1000
0010
0000
0100
0000
0010
0000
,
1000
0000
0000
0000
0100
0000
0010
0001
0000
0010
0001
0000
1000
0000
0000
0000
,
0011
0000
0000
0000
0100
0000
0010
1000
0000
0010
1000
0000
0001
0000
0010
0000
,
0100
0000
0000
0000
1000
0000
0010
0000
0010
0000
0000
0100
0000
0000
0001
0000
,
0010
0000
0001
0000
0000
0100
0000
0000
1000
0000
0010
0000
1000
0000
0001
0000
,
0010
0000
0100
0000
0000
1000
0000
0000
0010
0000
1000
0000
0100
0000
0001
0000
,
0100
0000
1000
0000
0000
0001
0000
0000
0010
0000
0001
0000
0100
0000
0010
0000
,
1000
0000
0100
0000
0000
0010
0000
0000
0011
0000
0000
1100
0000
0000
0101
0000
,
0000
0000
0010
0000
0000
1000
0000
0000
0100
0000
1000
0000
0001
0000
0100
0000
,
0000
0000
0010
0000
1000
0000
0001
0000
0100
0000
0000
0010
0000
0000
1000
0000
,
0000
0000
0001
0000
0000
1000
0000
0000
1010
0000
0100
0000
0001
0000
0000
0000
,
0010
0000
0000
0001
1000
0000
0000
0001
0100
0000
0000
0010
0000
0000
1000
0000
,
0001
0000
0000
0000
;
