#TITLE:Caterpillar;
#SUBTITLE:;
#ARTIST:Eagle;
#MUSIC:Caterpillar.ogg;
#BANNER:;
#BACKGROUND:Caterpillar-bg.png;
#LYRICSPATH:;
#CDTITLE:;
#SAMPLESTART:21.176001;
#SAMPLELENGTH:20.000000;
#BPMS:0.000000=170.000000;
#STOPS:;
#TIMESIGNATURES:;
#BGCHANGES:;
#FGCHANGES:;
#ATTACKS:;
#SPEEDS:;
#SCROLLS:;
#DISPLAYBPM:170.000000;
#KEYSOUNDS:;

//---------------dance-single - ---------------
#NOTES:
     dance-single:
     :
     Beginner:
     5:
     0.202755,0.311912,0.090768,0.000000,0.000000,172.000000,161.000000,11.000000,0.000000,0.000000,0.000000,0.202755,0.311912,0.090768,0.000000,0.000000,172.000000,161.000000,11.000000,0.000000,0.000000,0.000000:
// measure 0
0000
0000
0000
0000
,  // measure 1
0000
0000
0000
0000
,  // measure 2
0000
0000
0000
0000
,  // measure 3
0000
0000
0000
0000
,  // measure 4
0010
0000
0001
0000
,  // measure 5
0100
0000
0010
0000
,  // measure 6
1000
0000
0100
0000
,  // measure 7
1000
0000
0001
0000
,  // measure 8
0010
0000
0010
0000
,  // measure 9
0001
0000
0001
0000
,  // measure 10
0100
0000
0100
0000
,  // measure 11
1000
0000
1000
0000
,  // measure 12
0010
0000
0100
0000
,  // measure 13
0001
0000
1000
0000
,  // measure 14
0001
0001
0001
0000
,  // measure 15
1000
1000
1000
0000
,  // measure 16
1001
0000
0110
0000
,  // measure 17
0001
0001
0001
0000
,  // measure 18
0110
0000
1000
0000
,  // measure 19
0100
0100
0100
0000
,  // measure 20
1000
1000
1000
0000
,  // measure 21
0001
0001
0001
0000
,  // measure 22
1001
0000
0010
0000
,  // measure 23
1000
1000
1000
0000
,  // measure 24
0110
0000
1001
0000
,  // measure 25
0100
0100
0100
0000
,  // measure 26
1001
0000
0001
0000
,  // measure 27
0010
0010
0010
0000
,  // measure 28
0110
0000
0001
0000
,  // measure 29
0100
0100
0100
0000
,  // measure 30
0010
0000
1000
0000
,  // measure 31
0001
0001
0001
0000
,  // measure 32
0010
0000
0001
0000
,  // measure 33
0100
0000
1000
0000
,  // measure 34
0010
0000
1000
0000
,  // measure 35
0100
0000
0001
0000
,  // measure 36
1000
0000
0100
0000
,  // measure 37
0001
0000
0010
0000
,  // measure 38
0001
0000
0100
0000
,  // measure 39
1000
0000
0010
0000
,  // measure 40
1001
0000
0000
0000
,  // measure 41
0000
0000
0000
0000
,  // measure 42
0000
0000
0000
0000
,  // measure 43
0000
0000
0000
0000
,  // measure 44
0000
0000
0000
0000
,  // measure 45
0000
0000
0000
0000
,  // measure 46
0000
0000
0000
0000
,  // measure 47
0000
0000
0000
0000
,  // measure 48
0001
0000
0001
0000
,  // measure 49
1000
0000
1000
0000
,  // measure 50
0010
0000
0010
0000
,  // measure 51
0100
0000
0100
0000
,  // measure 52
0001
0000
0010
0000
,  // measure 53
0001
0000
0010
0000
,  // measure 54
0100
0000
1000
0000
,  // measure 55
0100
0000
1000
0000
,  // measure 56
0001
0001
0001
0000
,  // measure 57
1000
1000
1000
0000
,  // measure 58
0010
0010
0010
0000
,  // measure 59
0100
0100
0100
0000
,  // measure 60
0110
0000
0001
0000
,  // measure 61
0100
0000
1000
0000
,  // measure 62
0010
0000
1000
0000
,  // measure 63
0001
0000
0010
0000
,  // measure 64
0001
0000
0100
0000
,  // measure 65
0010
0000
1000
0000
,  // measure 66
0100
0000
0010
0000
,  // measure 67
0001
0000
1000
0000
,  // measure 68
0000
0010
0000
0010
,  // measure 69
0000
1000
0000
0001
,  // measure 70
0000
1000
0000
0100
,  // measure 71
0000
1000
1000
0000
,  // measure 72
0000
0001
0000
0010
,  // measure 73
0000
0001
0000
0100
,  // measure 74
0000
0010
0000
1000
,  // measure 75
0000
0100
0100
0000
,  // measure 76
0000
1000
0000
0001
,  // measure 77
0000
1000
1000
0000
,  // measure 78
0010
0000
0100
0000
,  // measure 79
0001
0000
0010
0000
,  // measure 80
0001
0000
0001
0000
,  // measure 81
1000
0000
1000
0000
,  // measure 82
0010
0000
1000
0000
,  // measure 83
0100
0000
0001
0000
,  // measure 84
0110
0000
0000
0000
;

//---------------dance-single - ---------------
#NOTES:
     dance-single:
     :
     Easy:
     9:
     0.000000,0.000000,0.000000,0.000000,0.000000,0.000000,0.000000,0.000000,0.000000,0.000000,0.000000,0.000000,0.000000,0.000000,0.000000,0.000000,0.000000,0.000000,0.000000,0.000000,0.000000,0.000000:
// measure 0
0000
0000
0000
0000
,  // measure 1
0000
0000
0000
0000
,  // measure 2
0000
0000
0000
0000
,  // measure 3
0000
0000
0000
0000
,  // measure 4
0010
0000
0000
0000
0001
0000
0000
0100
,  // measure 5
0000
0010
0000
0000
1000
0000
0000
0100
,  // measure 6
0000
0010
0000
0000
0001
0000
0000
1000
,  // measure 7
0000
0010
0000
0000
0100
0000
0001
0000
,  // measure 8
1001
0010
1000
0100
,  // measure 9
1000
0001
1000
0010
,  // measure 10
0100
0001
0010
0100
,  // measure 11
1000
0010
1000
0100
,  // measure 12
0010
0010
0001
0001
,  // measure 13
0100
0100
1000
1000
,  // measure 14
0001
1000
0010
0100
,  // measure 15
0001
0001
0001
1001
,  // measure 16
0100
0000
0010
1000
0001
0000
0010
0000
,  // measure 17
0001
0100
1000
0010
,  // measure 18
0200
0000
0301
0100
0010
0000
1000
0000
,  // measure 19
0001
0000
1000
0100
0010
0000
0001
1000
,  // measure 20
0001
0110
1000
0010
,  // measure 21
1000
0000
0100
0010
0001
0000
1000
0001
,  // measure 22
2000
0000
3010
0100
0001
0000
1000
0000
,  // measure 23
0002
2003
3002
0203
,  // measure 24
0320
0000
1000
0000
0130
0000
1000
0001
,  // measure 25
1000
0000
0100
0000
0001
0000
0010
0100
,  // measure 26
0010
0001
0100
1000
,  // measure 27
0010
0000
1000
0001
1000
0000
0100
0010
,  // measure 28
0001
0000
0110
0000
1000
0000
0010
1000
,  // measure 29
0100
0000
1000
0001
0100
0000
0010
1000
,  // measure 30
0001
0000
0100
0000
1000
0010
0001
0000
,  // measure 31
0100
0100
0100
0100
,  // measure 32
0010
1000
0001
0001
,  // measure 33
1000
1000
0100
0010
,  // measure 34
0001
0100
0010
0010
,  // measure 35
0100
0100
0001
1000
,  // measure 36
0100
0010
0100
1000
,  // measure 37
0010
1000
0001
0010
,  // measure 38
0001
0100
1000
0010
,  // measure 39
1000
1000
0001
1000
,  // measure 40
0000
0001
0010
1000
,  // measure 41
0100
0000
0100
0000
0010
0000
0010
0001
,  // measure 42
1000
0000
0101
1100
,  // measure 43
0000
0001
0000
1000
0001
0000
0000
0000
,  // measure 44
0000
0100
0010
1000
,  // measure 45
0100
0000
0010
0000
0001
0000
1000
0001
,  // measure 46
1000
0000
1010
0011
,  // measure 47
0000
0100
0000
0100
1000
0000
0001
0000
,  // measure 48
0110
0000
0000
0001
1000
0000
0000
0010
,  // measure 49
0000
1000
0000
0000
0100
0000
0000
0010
,  // measure 50
0000
0001
0000
0000
0100
0000
0000
0010
,  // measure 51
0000
1000
0000
0001
0100
0000
0100
0000
,  // measure 52
1001
0010
1000
0100
,  // measure 53
1000
0001
0010
0001
,  // measure 54
0100
0010
1000
0100
,  // measure 55
1000
0001
0100
0100
,  // measure 56
0010
1000
0010
1000
,  // measure 57
0100
0010
0001
0100
,  // measure 58
0010
1000
0100
1000
,  // measure 59
0001
0001
0001
1001
,  // measure 60
0100
0010
1010
1010
,  // measure 61
0101
0101
1010
1010
,  // measure 62
0001
1000
0011
0011
,  // measure 63
1100
1100
0011
0011
,  // measure 64
1000
0001
0011
0011
,  // measure 65
1010
1010
0011
0011
,  // measure 66
0100
0010
1001
1001
,  // measure 67
0110
0110
1001
0000
,  // measure 68
0010
0000
1000
0100
0001
0000
1001
0000
,  // measure 69
0000
0000
0001
0100
1000
0000
0110
0000
,  // measure 70
0000
0000
0010
1000
0001
0000
0011
0000
,  // measure 71
0000
0000
0001
0100
1000
0000
0010
0100
,  // measure 72
0010
0000
1000
0001
1000
0000
1100
0000
,  // measure 73
0000
0000
0010
0001
0100
0000
0101
0000
,  // measure 74
1000
0000
0001
0010
0001
0000
1001
0000
,  // measure 75
0200
0000
0302
0000
0203
0000
0310
0010
,  // measure 76
1000
0000
0001
0010
0001
0000
1000
0010
,  // measure 77
1000
0000
0001
1000
0100
0000
0110
0000
,  // measure 78
0020
0000
0031
1000
0001
0000
1000
0100
,  // measure 79
1000
0000
0010
0100
0001
0000
0011
0000
,  // measure 80
1000
1000
0001
0001
,  // measure 81
0010
0010
0100
0100
,  // measure 82
1000
0010
0001
0100
,  // measure 83
1000
0001
1000
0001
0010
0100
1000
0000
,  // measure 84
0220
0000
0000
0000
,  // measure 85
0000
0000
0330
0000
;

//---------------dance-single - ---------------
#NOTES:
     dance-single:
     :
     Medium:
     12:
     0.000000,0.000000,0.000000,0.000000,0.000000,0.000000,0.000000,0.000000,0.000000,0.000000,0.000000,0.000000,0.000000,0.000000,0.000000,0.000000,0.000000,0.000000,0.000000,0.000000,0.000000,0.000000:
// measure 0
0000
0000
0000
0000
,  // measure 1
0000
0000
0000
0000
,  // measure 2
0000
0000
0000
0000
,  // measure 3
0000
0000
0000
0000
,  // measure 4
0010
0000
0000
0000
0000
0000
0001
0000
0100
0000
0000
0100
0000
0000
0100
0000
,  // measure 5
0000
0000
0010
0000
0000
1000
0000
0000
0001
0000
0000
1000
0000
0000
0010
0000
,  // measure 6
0000
0000
0100
0000
0000
0000
0001
0000
1000
0000
0000
1000
0000
0000
1000
0000
,  // measure 7
0000
0001
0000
1000
0010
0000
0010
0000
,  // measure 8
1001
0000
0001
0100
1000
0100
0001
0000
,  // measure 9
0010
0000
0001
0000
0100
0000
1000
0010
,  // measure 10
0100
0001
0101
1100
,  // measure 11
0001
0010
0000
0100
1000
0000
0110
0000
,  // measure 12
0001
0100
0001
0000
1000
0100
1000
0000
,  // measure 13
0001
0010
0001
0100
1000
0010
1000
0000
,  // measure 14
0001
1000
0001
1000
0010
0100
0010
0100
,  // measure 15
0001
1000
0001
1000
0001
1000
1001
0000
,  // measure 16
0110
0000
0000
0001
0000
0000
1000
0000
0100
0000
0000
0000
1000
0000
0010
0000
,  // measure 17
0001
0010
1000
0010
0001
0000
0100
0100
,  // measure 18
0020
0000
1030
0001
1000
0100
1000
0100
,  // measure 19
0001
0100
1000
0100
0010
0000
0001
0001
,  // measure 20
1000
0000
0101
0000
0010
1000
0010
1000
,  // measure 21
0001
0010
0001
0010
0100
0000
1000
0001
,  // measure 22
2000
0000
3010
0100
0001
0010
1000
0010
,  // measure 23
0001
0000
0100
0000
1000
0000
0010
0010
,  // measure 24
0100
0000
0000
0001
0000
0000
1000
0000
0001
0000
0000
0000
0010
0000
0001
0000
,  // measure 25
1000
0010
0001
0010
1000
0000
0100
0010
,  // measure 26
0200
0000
1300
0001
1000
0010
1000
0100
,  // measure 27
0010
0001
0010
0100
1000
0000
0001
0001
,  // measure 28
0011
0000
1100
0000
0001
1000
0010
0100
,  // measure 29
0001
0010
1000
0010
0001
0000
0100
0001
,  // measure 30
0010
0000
0001
0100
1000
0100
0001
0000
,  // measure 31
0011
1100
0101
1010
,  // measure 32
0010
0000
0000
0010
0000
0000
1000
0000
0001
0000
0000
0010
0000
0000
0001
0000
,  // measure 33
0100
0000
0000
0010
0000
0000
1000
0000
0001
0000
0000
0000
0100
0000
0000
0000
,  // measure 34
0001
0000
0000
0000
1000
0000
0001
0000
0010
0000
0000
0001
0000
0000
0100
0000
,  // measure 35
0010
0000
0000
1000
0000
0000
1000
0000
0001
0000
0000
0000
0100
0000
0100
0000
,  // measure 36
0100
0000
0000
0000
0001
0000
1000
0000
0001
0000
0000
0010
0000
0000
0100
0000
,  // measure 37
1000
0000
0000
0001
0000
0000
0100
0000
0010
0000
0000
1000
0000
0000
0001
0000
,  // measure 38
1000
0100
1000
0100
0001
0100
0001
0100
,  // measure 39
1000
0100
0010
0001
0010
0100
1000
0000
,  // measure 40
1001
0000
0001
0100
0001
0100
0001
0000
,  // measure 41
1000
0000
0001
0000
1000
0000
0100
0010
,  // measure 42
0001
0000
1000
0001
,  // measure 43
0000
0100
0000
0100
0100
0000
0000
0000
,  // measure 44
0000
0000
0001
0010
1000
0010
0001
0000
,  // measure 45
0100
0000
0010
0000
0100
0000
0010
1000
,  // measure 46
0001
0000
0010
0100
,  // measure 47
0000
1000
0000
1000
1000
0000
0001
0000
,  // measure 48
0100
0000
0000
0000
0000
0000
0010
0000
1000
0000
0000
1000
0000
0000
1000
0000
,  // measure 49
0000
0000
0001
0000
0000
0010
0000
0000
0100
0000
0000
0010
0000
0000
0001
0000
,  // measure 50
0000
0000
1000
0000
0000
0000
0010
0000
0100
0000
0000
0100
0000
0000
0100
0000
,  // measure 51
0000
0010
0000
0100
0001
0000
0001
0000
,  // measure 52
0010
0000
0001
0100
1000
0100
0001
0000
,  // measure 53
0010
0000
0001
0000
0100
0000
1000
0010
,  // measure 54
1000
0001
1010
0011
,  // measure 55
0100
1000
0000
1000
0001
0000
0100
0000
,  // measure 56
0001
0000
0000
0010
0000
0000
0001
0000
1000
0000
0000
0010
0000
0000
1000
0000
,  // measure 57
0001
0000
0000
0100
0000
0000
0001
0000
1000
0000
0000
0100
0000
0000
1000
0000
,  // measure 58
0001
1000
0001
1000
0010
0100
0010
0100
,  // measure 59
0001
1000
0001
1000
0001
1000
1001
0000
,  // measure 60
0110
0000
0000
0001
0000
0000
1000
0000
0100
0000
0000
0100
0000
0000
0010
0000
,  // measure 61
0001
0000
0000
0001
0000
0000
1000
0000
0001
0000
0000
0100
0000
0000
0010
0000
,  // measure 62
1000
0000
0000
1000
0000
0000
1000
0000
0100
0000
0000
0100
0000
0000
0010
0000
,  // measure 63
0100
0000
0000
1000
0000
0000
0001
0000
0100
0000
0000
0000
0010
0000
0010
0000
,  // measure 64
0100
0000
0000
0010
0000
0000
0100
0000
0001
0000
0000
0010
0000
0000
1000
0000
,  // measure 65
0100
0000
0000
0010
0000
0000
0001
0000
1000
0000
0000
0001
0000
0000
1000
0000
,  // measure 66
0001
0000
0000
0001
0000
0000
0001
0000
1000
0000
0000
0010
0000
0000
0010
0000
,  // measure 67
0100
0000
0000
0001
0000
0000
1000
0000
0002
0000
0000
0000
0023
0000
0000
0000
,  // measure 68
0130
0000
1001
0001
1000
0000
0010
0010
,  // measure 69
0100
0000
0001
0001
1000
0000
0100
0100
,  // measure 70
0010
0000
0001
0001
1000
0000
0010
0010
,  // measure 71
1000
0000
0100
0100
1000
0000
0001
0001
,  // measure 72
0100
0000
1010
0001
1000
0000
0010
0100
,  // measure 73
0001
0000
1000
0100
0010
0000
0001
1000
,  // measure 74
0002
0000
0103
0001
0010
0000
0100
1000
,  // measure 75
0001
0000
0010
0001
1000
0000
0101
0000
,  // measure 76
0010
0000
1000
0100
0001
0000
0010
0001
,  // measure 77
0100
0000
0001
0010
1000
0000
0110
0000
,  // measure 78
0001
0000
0011
0100
1000
0000
0010
1000
,  // measure 79
0100
0000
1000
0001
1001
0000
0100
0000
,  // measure 80
0010
1000
0001
0010
0001
0100
1000
0000
,  // measure 81
0010
1000
0100
0010
0001
0000
0101
0000
,  // measure 82
1000
0001
1000
0001
0010
0001
0010
0100
,  // measure 83
1000
0010
1000
0001
0100
0010
1000
0001
,  // measure 84
0220
0000
0000
0000
,  // measure 85
0000
0000
0330
0000
;

//---------------dance-single - ---------------
#NOTES:
     dance-single:
     :
     Hard:
     16:
     0.000000,0.000000,0.000000,0.000000,0.000000,0.000000,0.000000,0.000000,0.000000,0.000000,0.000000,0.000000,0.000000,0.000000,0.000000,0.000000,0.000000,0.000000,0.000000,0.000000,0.000000,0.000000:
// measure 0
0000
0000
0000
0000
,  // measure 1
0000
0000
0000
0000
,  // measure 2
0000
0000
0000
0000
,  // measure 3
0000
0000
0000
0000
,  // measure 4
0010
0000
0000
0000
0000
0000
0001
0000
0100
0000
0000
0100
0000
0000
0100
0000
,  // measure 5
0000
0000
0010
0000
0000
1000
0000
0000
0001
0000
0000
1000
0000
0000
0010
0000
,  // measure 6
0000
0000
0100
0000
0000
0000
0001
0000
1000
0000
0000
1000
0000
0000
1000
0000
,  // measure 7
0000
0001
0000
1000
0010
0000
0010
0000
,  // measure 8
0110
0000
0000
0100
0001
0000
1000
0000
0100
0000
0000
0100
0010
0000
0001
0000
,  // measure 9
1000
0000
0000
1000
0010
0000
0100
0000
0001
0000
0000
0001
0010
0000
0100
0000
,  // measure 10
1000
0000
0000
1000
0001
0000
0010
0000
0100
0000
0000
0100
1000
0000
0001
0000
,  // measure 11
0100
0000
0000
0100
0001
0000
0010
0000
0001
0000
0000
0001
1000
0000
0010
0000
,  // measure 12
0100
0000
0001
0010
0001
0000
0000
0000
1000
0000
0010
0100
0010
0000
0000
0000
,  // measure 13
1000
0000
0001
0010
0001
0000
0100
0000
0010
0000
1000
0001
1000
0000
0100
0000
,  // measure 14
0010
0001
0010
0001
1000
0010
1000
0010
0100
0001
0100
0001
1000
0100
1000
0100
,  // measure 15
0010
0010
0010
0010
0010
0010
1001
0000
,  // measure 16
0110
0000
0000
0001
1000
0000
0001
0000
0001
0000
0000
0000
1000
0100
1000
0100
,  // measure 17
0001
0100
0001
0100
1000
0100
0001
0100
2000
0000
0000
0000
0010
0000
3010
0000
,  // measure 18
0200
0000
0000
0000
0301
0000
1000
0001
0010
0001
0010
0001
1000
0010
1000
0010
,  // measure 19
0100
0000
0001
1000
0010
1000
0100
1000
0001
0000
0000
0000
1010
0000
0001
0000
,  // measure 20
1000
0000
0000
0000
1001
0000
0000
0000
0001
0010
0100
0010
0001
0100
0010
0100
,  // measure 21
0001
1000
0010
1000
0001
1000
0100
1000
0002
0000
0000
0000
0100
0000
0103
0000
,  // measure 22
0020
0000
0000
0000
1030
0100
1000
0100
0010
0001
0010
0001
1000
0001
0100
0010
,  // measure 23
1000
0100
1000
0001
0100
0001
1000
0100
1000
0000
0000
0000
0010
0000
0010
0000
,  // measure 24
2000
0000
0000
3020
0000
0000
0230
0000
0302
0000
0000
0000
0013
0001
0010
0100
,  // measure 25
1000
0000
0001
0100
0001
1000
0001
0100
0020
0000
0000
0000
1030
0000
0001
0000
,  // measure 26
0201
0000
0000
0000
0310
0000
1000
0001
1000
0100
0010
0001
0100
0010
1000
0001
,  // measure 27
0010
0100
0010
0100
0010
0001
0010
0100
2000
0000
0000
0000
0001
0000
3001
0000
,  // measure 28
2001
0000
0000
0000
3010
0000
0000
0000
1000
0001
1000
0001
0100
0001
0100
0001
,  // measure 29
0010
0001
0010
0001
1000
0001
0100
0001
0020
0000
0000
0000
0031
0000
1000
0000
,  // measure 30
1100
0000
0010
0001
1000
0001
0100
0000
,  // measure 31
0010
0000
1000
0001
1000
0000
0001
1000
0001
0000
0010
0100
0010
0000
0001
1000
,  // measure 32
0001
0000
0000
0010
0100
0000
1000
0000
0010
0100
0000
0100
0000
0100
0001
0000
,  // measure 33
1000
0001
0000
0001
0000
0001
0010
0000
0100
0000
0000
1000
0001
0000
1000
0000
,  // measure 34
0010
0000
0000
0100
0001
0000
1000
0000
0010
1000
0000
1000
0000
1000
0100
0000
,  // measure 35
0010
0001
0000
0001
0000
0001
0100
0000
0001
1000
0010
1000
0001
0000
0100
0000
,  // measure 36
0010
0010
1000
1000
0100
0100
0001
0001
,  // measure 37
1000
1000
0100
0100
0001
0001
0010
0010
,  // measure 38
0100
1000
0100
1000
0001
0100
0001
0100
0010
1000
0010
1000
0001
0010
0001
0010
,  // measure 39
0001
0010
0100
1000
0100
0010
0001
0010
0100
1000
0100
0010
0001
0000
0000
0000
,  // measure 40
0110
0000
0001
0100
1000
0100
0001
0000
,  // measure 41
0010
0000
0001
0000
0100
0000
1000
0010
,  // measure 42
0100
0000
0101
1100
,  // measure 43
0000
0001
0000
0001
0001
0000
0000
0000
,  // measure 44
0000
0000
1000
0010
0001
0010
1000
0000
,  // measure 45
0001
0000
0010
0000
1000
0000
0100
0010
,  // measure 46
0001
0000
0011
1010
,  // measure 47
0000
0100
0000
0100
0100
0000
0010
0000
,  // measure 48
1001
0000
0001
0100
1000
0100
0001
0000
,  // measure 49
0011
0000
1100
0000
0101
0000
0010
1000
,  // measure 50
0100
0010
0000
0001
0001
0000
0110
0000
,  // measure 51
1000
0100
0001
0100
1000
0000
0001
0000
,  // measure 52
1000
0000
0000
1000
0010
0000
0000
0000
0100
0000
0000
0100
0001
0000
0000
0000
,  // measure 53
0010
0000
0000
0010
0001
0000
0000
0000
1000
0000
0000
1000
0100
0000
0000
0000
,  // measure 54
1000
0000
0000
1000
0001
0000
0000
0000
0100
0000
0000
0100
0010
0000
0000
0000
,  // measure 55
1000
0000
0001
0100
0001
0000
0010
0000
0100
0000
1000
0001
1000
0000
0000
0000
,  // measure 56
0010
0000
0000
1000
0100
0000
0010
0000
0001
0000
1000
0100
1000
0000
0001
0000
,  // measure 57
0100
0000
0000
0000
0010
0000
1000
0000
0010
0000
1000
0001
0100
0000
0000
0000
,  // measure 58
0001
1000
0001
1000
0100
1000
0100
1000
0010
0100
0010
0100
0001
0010
0001
0010
,  // measure 59
0100
0100
0100
0100
0100
0100
1001
0000
,  // measure 60
0002
0000
0100
0000
2003
0000
0100
0000
3001
0010
0000
0001
0000
0100
0010
0000
,  // measure 61
1000
0100
0000
0010
0000
0001
0100
0000
0010
1000
0000
0001
0000
1000
0100
0000
,  // measure 62
0010
0001
0000
0100
0000
0010
1000
0000
0100
0010
0000
0100
0000
1000
0001
0000
,  // measure 63
1000
0001
0000
0010
0000
0001
0100
0000
0010
0000
0000
0010
1000
0000
0001
0000
,  // measure 64
0200
0000
0000
0320
0000
0000
2030
0000
3001
0100
0000
0010
0000
0100
0001
0000
,  // measure 65
1000
0100
0000
1000
0000
0001
0010
0000
0100
1000
0000
0001
0000
0100
0010
0000
,  // measure 66
1000
0001
0000
0010
0000
0001
0100
0000
0010
1000
0000
0100
0000
1000
0001
0000
,  // measure 67
0100
0010
0000
0010
0000
0010
0100
0000
0002
0000
0000
0000
1003
0000
0001
0000
,  // measure 68
0021
0000
0130
1000
0001
0000
0101
0101
,  // measure 69
1000
0000
1100
1100
0001
0000
1001
1001
,  // measure 70
0100
0000
0110
0110
1000
0000
1010
1010
,  // measure 71
0001
0000
0011
0011
0001
0100
1000
0010
,  // measure 72
0100
0000
0000
0000
1001
0000
0001
0000
1000
0000
0000
0100
1000
0000
0001
0000
,  // measure 73
0010
0000
0000
0000
0011
0000
0100
0000
1000
0000
0000
0001
1000
0000
0010
0000
,  // measure 74
0200
0000
0000
0000
0301
0000
0010
0100
1000
0000
0000
0001
1000
0000
0010
0000
,  // measure 75
0100
0000
0001
0010
1000
0100
1000
0001
,  // measure 76
0010
0000
0000
0010
0001
0000
0100
0000
1000
0000
0010
0100
0001
0000
1000
0000
,  // measure 77
0100
0000
0000
0100
0010
0000
0001
0000
1000
0000
0001
1000
0010
0000
0100
0000
,  // measure 78
0001
0000
0000
1000
0001
0000
0100
0000
0010
0000
1000
0100
0010
0000
0001
0000
,  // measure 79
0100
0000
0000
0100
0010
0000
1000
0000
0001
0000
1000
0100
0010
0000
0001
0000
,  // measure 80
0100
0000
0001
0010
0001
0000
1000
0000
0010
0000
1000
0001
1000
0000
0100
0000
,  // measure 81
1000
0010
0100
0010
1000
0000
0001
0000
1000
0100
0010
0100
1000
0000
0001
0000
,  // measure 82
0100
0001
0100
0001
1000
0100
1000
0100
0010
0001
0010
0001
1000
0010
1000
0010
,  // measure 83
1000
0001
0100
0010
1000
0001
0100
0010
1000
0001
0100
0001
0010
0100
1000
0000
,  // measure 84
0220
0000
0000
0000
,  // measure 85
0000
0000
0330
0000
;
