#TITLE:Caral no Tsuki;
#SUBTITLE:;
#ARTIST:Nekomata Gekidan;
#TITLETRANSLIT:;
#SUBTITLETRANSLIT:;
#ARTISTTRANSLIT:;
#GENRE:;
#CREDIT:;
#BANNER:Caral no Tsuki-bn.png;
#BACKGROUND:Caral no Tsuki-bg.png;
#LYRICSPATH:;
#CDTITLE:;
#MUSIC:Caral no Tsuki.ogg;
#OFFSET:1.556000;
#SAMPLESTART:10.888000;
#SAMPLELENGTH:20.000000;
#LASTBEATHINT:1.233000;
#SELECTABLE:YES;
#DISPLAYBPM:135.000000;
#BPMS:0.000000=135.000000
;
#STOPS:
;
#BGCHANGES:;
#KEYSOUNDS:;
#ATTACKS:;

//---------------dance-single - ----------------
#NOTES:
     dance-single:
     :
     Hard:
     12:
     0.454571,0.563478,0.149156,0.654629,0.327315,384.000000,366.000000,18.000000,79.000000,0.000000,0.000000,0.454571,0.563478,0.149156,0.654629,0.327315,384.000000,366.000000,18.000000,79.000000,0.000000,0.000000:
0000
0000
0000
0000
,
0000
0000
0000
0000
,
0000
0000
0000
0000
,
0000
0000
0000
0000
,
0000
0000
0000
0000
,
0000
0000
0000
0000
,
0000
0000
0000
0000
,
0020
0000
0130
0001
2000
0000
3100
0010
,
0001
0001
0001
0100
0002
0000
0013
0000
,
2000
0000
3010
1000
0002
0000
0103
0001
,
0020
0100
0000
0001
0031
1000
0100
0000
,
2000
0000
3001
1000
0020
0000
0130
0001
,
0010
0000
0010
0000
0100
1000
0100
0000
0010
0000
0000
0000
0001
0000
1000
0000
,
0002
0000
0013
0001
0200
0000
0310
1000
,
0001
0010
0100
1000
1100
0000
0101
0000
,
0200
0000
0301
1000
0020
0000
1030
0100
,
0010
0010
0010
0001
2000
0000
3010
0000
,
2000
0000
3100
0010
0002
1000
1003
0001
,
0200
0000
0310
1000
0001
0000
0100
0000
,
0002
0000
1003
0001
0020
0000
0130
1000
,
0010
0000
0010
0000
1000
0001
1000
0000
0200
0000
0000
0000
0310
0000
0001
0000
,
0200
0000
0301
1000
0020
0000
1030
0100
,
0002
0000
0000
0013
0001
0000
0100
0000
1000
0000
1000
0000
1000
0000
0000
0000
,
2020
0000
0000
0030
0000
0000
3002
0000
1000
0000
0100
0000
,
1003
0020
0230
0302
,
0023
0000
0100
0000
0130
0000
2000
0000
0001
0000
0100
0000
,
3001
2000
3020
0230
,
0302
0000
0100
0000
0103
0000
0020
0000
1000
0000
0001
0000
,
1030
0110
1001
0110
,
0002
0000
0010
0000
0013
0000
0200
0000
1000
0000
0001
0000
,
1300
0000
0000
0000
0010
0100
0010
0100
0020
0000
0000
0000
0030
0000
0000
0000
,
0120
0000
0001
0000
0100
0000
2030
0000
0010
0000
0001
0000
,
3100
0000
0000
1000
0002
0000
0000
0000
0023
0000
0000
0000
0130
0000
1000
0000
,
2100
0000
0001
0000
0010
0000
3002
0000
1000
0000
0100
0000
,
1003
0000
0000
0000
0000
0000
0010
0000
0000
0001
0000
0000
0100
0000
0000
0000
0010
0000
0000
0000
1000
0000
0000
0000
,
0102
0000
0000
0000
0000
0000
0000
0000
0100
0000
0000
0000
0000
0000
0000
0000
1000
0000
0000
0000
0000
0000
0000
0000
0203
0000
0000
0000
0000
0000
0000
0000
0000
0310
0000
0000
1000
0000
0000
0000
0000
0000
0001
0000
0000
0000
0000
0000
,
0010
0011
0110
1100
,
0002
0000
0100
0000
0103
0000
0020
0000
1000
0000
1000
0000
,
0130
0000
0000
0010
0100
0000
0001
0000
1000
0010
1000
0010
1000
0000
0001
0000
,
0000
0000
0000
0000
0000
0000
0000
0000
0000
0000
0000
0000
0000
0000
0010
0001
,
0020
0000
0000
0000
0230
0000
0000
0000
2300
0000
0000
3001
1000
0000
0100
0000
,
0010
0000
0100
0000
1000
0001
1000
0000
0020
0000
0000
0000
0030
0000
0100
0001
,
0200
0000
0320
0000
2030
0000
3001
0010
,
0001
0000
0100
0010
0100
0000
0001
0000
2000
0000
0000
0000
3010
0000
0100
0001
,
0200
0000
0000
0000
0302
0000
0000
0000
0023
0000
0000
0130
0010
0000
0001
0000
,
1000
0000
0001
0000
1000
0100
1000
0000
0020
0000
0000
0000
0030
0000
0001
1000
,
0002
0000
0000
0000
0203
0000
0000
0000
0310
0000
0100
0000
0010
1000
0010
0000
,
0100
0000
0001
0000
0010
0000
0001
0000
1000
0000
0010
0100
0010
0000
1000
0001
,
1000
0000
0000
0000
1100
0000
0000
0000
0011
0000
0000
0100
0001
0000
1000
0000
,
0010
0000
0100
0001
0100
0000
0010
0000
2000
0000
0000
0000
3000
0000
0100
0010
,
0200
0000
2300
0000
3002
0000
1003
0010
,
0100
0000
0001
1000
0001
0000
0010
0000
0200
0000
0000
0000
0300
0000
1000
0010
,
1000
0000
1001
0000
0110
0000
0100
0001
,
0010
0000
0100
0000
1000
0010
1000
0000
0002
0000
0000
0000
0003
0000
0100
0001
,
0200
0000
0000
0000
0320
0000
0000
0000
1030
0000
0010
0000
1000
0001
1000
0000
,
0100
0000
0010
0000
0100
0000
1000
0000
0001
0000
0100
0010
0000
0100
0010
0000
,
1000
0000
0000
0010
0100
0000
0000
0000
0001
0000
0000
0010
0100
0000
0000
0000
,
1000
0000
0000
0001
0100
0000
0000
0001
1000
0000
0000
0000
0010
0000
0000
0100
,
0001
0000
0000
0010
0001
0000
0000
0000
1000
0000
0000
0010
0100
0000
0000
0000
,
0001
0000
0000
0001
1000
0000
0000
1000
0010
0000
0000
1000
0010
0000
0000
0100
,
0001
0000
0000
0010
0100
0000
0000
0100
1000
0000
0000
1000
0001
0000
0000
0010
,
0002
0000
0000
0000
0103
0000
0000
0000
0020
0000
0000
0000
1030
0000
0000
0001
,
2000
0000
0000
0000
3200
0000
0000
0000
0320
0000
0000
0000
0031
0000
0100
0010
,
0200
0000
0001
0000
0010
0010
0310
0000
,
2010
0000
0001
0000
0100
0100
3100
0000
,
2002
0000
0000
0000
,
0000
0000
0000
0000
,
0000
0000
0000
0000
,
3003
0000
0000
0000
;

//---------------dance-single - ----------------
#NOTES:
     dance-single:
     :
     Medium:
     9:
     0.319620,0.394435,0.099437,0.530333,0.066292,270.000000,258.000000,12.000000,64.000000,0.000000,0.000000,0.319620,0.394435,0.099437,0.530333,0.066292,270.000000,258.000000,12.000000,64.000000,0.000000,0.000000:
0000
0000
0000
0000
,
0000
0000
0000
0000
,
0000
0000
0000
0000
,
0000
0000
0000
0000
,
0000
0000
0000
0000
,
0000
0000
0000
0000
,
0000
0000
0000
0000
,
0010
0000
1000
0001
1000
0000
0100
0000
,
1000
0001
1000
0001
0200
0000
0300
0000
,
0010
0000
1000
0001
1000
0000
0001
0010
,
0002
0000
0100
1003
,
0001
0000
0100
0010
0100
0000
0010
0000
,
1000
0001
1000
0001
1000
0000
0010
1000
,
0100
0000
0010
0001
0100
0000
0010
1000
,
0002
0003
1100
0101
,
0010
0000
0001
0100
0001
0000
1000
0000
,
0010
0100
0010
1000
0002
0000
0003
0000
,
0010
0000
0100
0000
1000
0100
1000
0001
,
2000
0000
0010
3001
,
0100
0000
0001
0010
0001
0000
0100
0000
,
0010
1000
0001
1000
0010
0000
0100
0001
,
1000
0000
0100
1000
0001
0000
0010
0100
,
2000
0000
0000
0000
0001
0001
3001
0000
,
2020
0030
0002
0000
,
3000
0010
0100
1003
,
0010
0000
1000
0000
0001
0000
0200
0000
0000
0000
0000
0000
,
0000
1000
0010
0301
,
0100
0000
0001
0000
1000
0000
0020
0000
0000
0000
0000
0000
,
0000
0100
0001
1030
,
0010
0000
0100
0000
0001
0000
2000
0000
0000
0000
0000
0000
,
0000
0000
3100
0010
0002
0000
0003
0000
,
0012
0000
0000
0100
0000
0000
1003
0000
0010
0000
1000
0000
,
0001
0200
0320
1030
,
0210
0000
0000
0001
0000
0000
0310
0000
1000
0000
0100
0000
,
1000
0002
0023
0130
,
1002
0000
0000
0010
0000
0000
1003
0000
0001
0000
0100
0000
,
0001
2000
3200
0310
,
0001
0000
0001
0000
0001
0000
1000
0000
1000
0000
1000
0000
,
0010
0000
1000
0001
1000
0100
0010
0001
,
0000
0000
0000
0000
0000
0000
0000
0100
,
0020
0000
2030
0000
3002
0000
1003
0100
,
0010
0000
0001
1000
0002
0000
0003
0100
,
0020
0000
2030
0000
3200
0000
0310
0001
,
1000
0000
0001
0100
0020
0000
0030
0100
,
0002
0000
2003
0000
3002
0000
0013
0100
,
1000
0000
0010
1000
0002
0000
0003
0100
,
0020
0000
2030
0000
3001
1000
0001
0100
,
0020
0000
0000
0000
0000
0000
0030
1000
,
0001
0000
0011
0000
1100
0000
0001
0100
,
1000
0000
0010
1000
0002
0000
0003
1000
,
0200
0000
2300
0000
3020
0000
0130
0001
,
0010
0000
0001
1000
0020
0000
0030
0100
,
0001
0000
0101
0000
1010
0000
1000
0100
,
0010
0000
0001
1000
0002
0000
0003
0010
,
0200
0000
2300
0000
3010
1000
0001
1000
,
0200
0000
0000
0000
1000
1000
1300
0001
,
0200
0310
0200
0301
,
0020
0130
2000
3000
,
0002
0000
0010
0103
,
2000
3010
0200
0300
,
0002
0000
1000
0013
,
0200
0300
0020
0030
,
2000
3002
0023
0230
,
2300
0001
0100
3001
,
0120
1000
0100
1030
,
2002
0000
0000
0000
,
0000
0000
0000
0000
,
0000
0000
0000
0000
,
3003
0000
0000
0000
;

//---------------dance-single - ----------------
#NOTES:
     dance-single:
     :
     Easy:
     6:
     0.220183,0.309913,0.132583,0.348031,0.000000,186.000000,170.000000,16.000000,42.000000,0.000000,0.000000,0.220183,0.309913,0.132583,0.348031,0.000000,186.000000,170.000000,16.000000,42.000000,0.000000,0.000000:
0000
0000
0000
0000
,
0000
0000
0000
0000
,
0000
0000
0000
0000
,
0000
0000
0000
0000
,
0000
0000
0000
0000
,
0000
0000
0000
0000
,
0000
0000
0000
0000
,
0010
0010
1000
0100
,
1000
0001
0001
0000
,
0010
0001
1000
0001
,
0200
0000
0000
0310
,
0100
0100
0001
0010
,
0001
1000
1000
0010
,
1000
1000
0001
0001
,
0200
0300
0110
1001
,
0100
0010
0100
0001
,
1000
1000
1000
0000
,
0001
1000
0100
0010
,
0002
0000
0000
1003
,
0001
0010
0001
0100
,
0010
0010
1000
0001
,
0100
0100
0010
0010
,
2000
3000
1001
0110
,
2000
0000
0002
0000
,
3000
0010
0100
0013
,
0200
0000
0002
0000
,
0300
1000
0100
1003
,
0020
0000
0200
0000
,
0030
1000
0001
1300
,
0002
0000
2000
0000
,
0003
0010
0100
3001
,
2020
0030
0002
0000
,
3000
1000
0100
1003
,
0202
0003
0020
0000
,
0300
1000
0100
1030
,
2200
3000
0020
0000
,
0300
0001
1000
0031
,
0022
0030
0200
0003
,
0010
1000
0001
0020
,
0300
0000
0000
0030
,
0100
0100
0001
0001
,
1000
0001
0100
0000
,
0010
1000
0010
1000
,
0100
0010
0001
0000
,
1000
1000
0001
0010
,
0001
0100
0100
0000
,
0010
1000
0001
1000
,
0200
0000
0000
0300
,
0110
1001
0110
0100
,
0001
0010
0001
0000
,
0010
0010
0001
0100
,
0010
1000
1000
0000
,
1100
0101
1100
0001
,
0010
0100
1000
0000
,
0010
1000
0001
1000
,
0020
0000
0000
0030
,
2000
3000
0002
0003
,
0020
0030
0200
0300
,
2000
0000
0010
3100
,
0002
0003
2000
3000
,
0020
0000
0100
1030
,
0002
0003
0020
0030
,
0001
0100
0010
1000
,
0002
0000
0000
0003
,
0022
0000
0000
0033
,
2002
0000
0000
0000
,
0000
0000
0000
0000
,
0000
0000
0000
0000
,
3003
0000
0000
0000
;

//---------------dance-single - ----------------
#NOTES:
     dance-single:
     :
     Beginner:
     3:
     0.108908,0.161586,0.016573,0.165729,0.000000,92.000000,90.000000,2.000000,20.000000,0.000000,0.000000,0.108908,0.161586,0.016573,0.165729,0.000000,92.000000,90.000000,2.000000,20.000000,0.000000,0.000000:
// measure 0
0000
0000
0000
0000
,  // measure 1
0000
0000
0000
0000
,  // measure 2
0000
0000
0000
0000
,  // measure 3
0000
0000
0000
0000
,  // measure 4
0000
0000
0000
0000
,  // measure 5
0000
0000
0000
0000
,  // measure 6
0000
0000
0000
0000
,  // measure 7
0010
0000
1000
0000
,  // measure 8
0010
0000
0100
0000
,  // measure 9
0010
0000
1000
0000
,  // measure 10
0002
0000
0003
0000
,  // measure 11
0010
0000
0001
0000
,  // measure 12
0010
0000
0100
0000
,  // measure 13
1000
0000
1000
0000
,  // measure 14
1000
0000
0001
0000
,  // measure 15
0001
0000
0010
0000
,  // measure 16
0001
0000
0100
0000
,  // measure 17
0010
0000
1000
0000
,  // measure 18
2000
0000
3000
0000
,  // measure 19
0100
0000
0010
0000
,  // measure 20
0100
0000
1000
0000
,  // measure 21
0001
0000
0100
0000
,  // measure 22
0010
0000
0100
0000
,  // measure 23
0001
0000
0002
0000
,  // measure 24
0000
0000
0003
0000
,  // measure 25
0010
0000
0020
0000
,  // measure 26
0000
0000
0030
0000
,  // measure 27
0100
0000
0200
0000
,  // measure 28
0000
0000
0300
0000
,  // measure 29
1000
0000
2000
0000
,  // measure 30
0000
0000
3000
0000
,  // measure 31
0010
0000
0200
0000
,  // measure 32
0000
0000
0300
0000
,  // measure 33
0001
0000
2000
0000
,  // measure 34
0000
0000
3000
0000
,  // measure 35
0100
0000
0020
0000
,  // measure 36
0000
0000
0030
0000
,  // measure 37
0010
0000
0002
0000
,  // measure 38
0000
0000
0003
0000
,  // measure 39
1001
0000
0000
0000
,  // measure 40
0100
0000
0010
0000
,  // measure 41
0100
0000
0001
0000
,  // measure 42
1000
0000
0001
0000
,  // measure 43
0010
0000
0100
0000
,  // measure 44
1000
0000
0010
0000
,  // measure 45
1000
0000
0100
0000
,  // measure 46
0010
0000
0001
0000
,  // measure 47
0200
0000
0300
0000
,  // measure 48
0010
0010
0010
0000
,  // measure 49
1000
0000
0001
0000
,  // measure 50
1000
0000
0100
0000
,  // measure 51
0010
0000
0001
0000
,  // measure 52
0100
0100
0100
0000
,  // measure 53
0010
0000
1000
0000
,  // measure 54
0001
0000
1000
0000
,  // measure 55
0200
0000
0300
0000
,  // measure 56
2000
0000
3000
0000
,  // measure 57
0020
0000
0030
0000
,  // measure 58
0200
0000
0300
0000
,  // measure 59
0002
0000
0003
0000
,  // measure 60
0020
0000
0030
0000
,  // measure 61
0002
0000
0003
0000
,  // measure 62
1000
0000
1000
0000
,  // measure 63
0020
0000
0030
0000
,  // measure 64
0200
0000
0300
0000
,  // measure 65
1001
0000
0000
0000
;
