#TITLE:Can You Feel The Love Tonight;
#ARTIST:Big Idea;
#BANNER:Can You Feel The Love Tonight-bn.png;
#BACKGROUND:Can You Feel The Love Tonight-bg.png;
#JACKET:Can You Feel The Love Tonight-jacket.png;
#MUSIC:Can You Feel The Love Tonight.ogg;
#OFFSET:-0.228;
#SAMPLESTART:50.375;
#SAMPLELENGTH:20;
#DISPLAYBPM:168:175;
#BPMS:0=175,16=172,32=170,44=173,64=172,72=171,84=172,100=171,104=172,108=175,112=173,116=172,132=170,136=173,144=168,148=172,152=174,164=172,168=171,192=169,196=173,200=175,208=172,212=170,216=172,220=174,232=170,240=171,244=173,252=171,256=169,260=174,272=172,276=170,284=173,292=172;
#BGCHANGES:;

//---------------dance-single - ----------------
#NOTES:
     dance-single:
     :
     Beginner:
     3:
     :
0000
0000
0000
0000
,
0000
0000
0000
0000
,
0010
0000
0010
0000
,
0010
0000
0010
0000
,
0001
0000
0000
0000
,
1000
0000
0000
0000
,
0001
0000
0000
0000
,
0010
0010
0010
0010
,
0000
0000
0001
0000
,
1000
0000
0001
0000
,
0100
0000
0010
0000
,
2000
0000
3000
0000
,
0001
0000
0001
0000
,
0200
0000
0300
0000
,
0001
0000
0001
0000
,
0020
0000
0030
0000
,
1000
0000
1000
0000
,
0020
0000
0030
0000
,
1000
0000
1000
0000
,
0200
0000
0300
0000
,
1000
0000
0001
0000
,
0100
0000
0000
0000
,
0010
0000
1000
0000
,
0001
0000
0000
0000
,
0010
0000
0001
0000
,
0100
0000
0000
0000
,
0010
0000
1000
0000
,
0001
0000
0000
0000
,
0010
0000
0001
0000
,
0010
0000
0000
0000
,
0100
0000
1000
0000
,
0001
0000
0000
0000
,
0100
0000
0010
0000
,
1000
1000
1000
0000
,
0001
0000
1000
0000
,
0200
0000
0300
0000
,
0010
0000
0010
0000
,
0001
0000
0001
0000
,
1000
0000
0001
0002
,
0000
0000
0003
0000
,
0100
0000
0010
0000
,
1000
0000
0100
0100
,
0000
0000
1000
0000
,
0001
0001
0001
0000
,
0010
0000
0001
0000
,
1001
0000
0000
0000
,
0010
0000
0010
0000
,
1000
1000
0000
0000
,
0002
0000
0003
0000
,
2000
0000
3000
0000
,
0020
0000
0030
0000
,
0010
0010
0010
0000
,
1000
0000
1000
0000
,
0001
0000
0001
0000
,
1000
0000
0010
0020
,
0000
0000
0030
0000
,
0100
0000
0001
0000
,
1000
0000
0001
0001
,
0000
0000
0010
0000
,
0100
0000
1000
0000
,
0001
0000
1000
0000
,
1001
0000
0000
0000
,
0100
0000
0100
0000
,
0010
0010
0000
0000
,
2000
0000
3000
0000
,
0002
0000
0003
0000
,
0010
0000
0001
0000
,
0200
0000
0300
0000
,
0010
0000
1000
0000
,
0200
0000
0300
0000
,
1000
0000
2000
0000
,
0000
0000
3000
0000
,
0001
0001
0001
0001
,
0001
0000
0100
0000
;

//---------------dance-single - ----------------
#NOTES:
     dance-single:
     :
     Easy:
     7:
     :
0000
0000
0000
0000
,
0000
0000
0000
0000
,
0010
0000
0010
0000
,
0010
0000
0010
0000
,
0002
0000
1003
0002
,
0000
0000
0103
0020
,
0000
0000
1030
0200
,
0000
0000
0000
0300
,
0001
0100
0010
1000
,
0002
0003
2000
3000
,
0020
0030
1000
0001
,
0100
0100
0100
0100
,
0010
1000
0010
1000
,
0002
0000
0000
0003
,
0010
0001
0010
0001
,
2000
0000
0001
3001
,
0100
0001
0100
0001
,
2000
0000
0000
3000
,
0100
1000
0100
1000
,
0001
0001
0001
0001
,
0010
0001
0010
0100
,
1000
0010
0100
0000
,
0001
0100
0010
1000
,
0100
0010
0001
0000
,
1000
0001
0010
0001
,
0100
0010
1000
0000
,
0001
0100
1000
0010
,
0100
0001
1000
0010
,
1000
0100
0010
0001
,
0200
0300
0020
0030
,
1000
0010
1000
0100
,
0010
0001
0100
0000
,
0001
0100
0010
1000
,
1001
1001
0110
0110
,
1000
0010
0100
0001
,
0010
0010
0010
0000
,
0202
0303
2020
3030
,
2200
3300
0022
0033
,
2002
3003
0100
0010
,
1000
0100
1000
0001
,
0100
0010
0100
0001
,
2000
3000
0010
0100
,
0001
0010
0001
1000
,
0010
0100
0002
0003
,
0220
0330
0001
0100
,
1000
0010
0100
0001
,
0022
0033
2200
3300
,
1000
0001
1000
0000
0000
0000
0000
0000
,
2000
0000
0020
3000
,
0200
0030
0301
1000
,
0010
0100
0010
1000
,
0002
0100
1000
0103
,
0202
0303
2020
3030
,
2200
3300
0022
0033
,
0220
0330
0001
1000
,
0010
1000
0100
0010
,
0002
0003
1000
0010
,
2000
3000
0100
0010
,
0001
0100
0001
1000
,
0010
0100
0001
1000
,
2002
3003
0010
0100
,
0001
0010
0001
1000
,
2020
3030
0202
0303
,
0010
0100
0010
0000
2000
0000
3002
0000
,
0023
0000
0032
0000
,
2003
0000
3010
0100
,
0001
0010
0001
0010
,
0200
0000
0000
0300
,
1000
0010
1000
0010
,
0200
0000
0000
0300
,
0002
0103
2000
3100
,
0002
0000
0000
0003
,
1001
0110
1001
0110
,
1000
0001
0100
0000
;

//---------------dance-single - ----------------
#NOTES:
     dance-single:
     :
     Medium:
     10:
     :
0000
0000
0000
0000
,
0000
0000
0000
0000
,
0010
0000
0010
0000
,
0010
0000
0010
0000
,
0002
0000
1003
0002
,
0000
0000
0103
0020
,
0000
0000
1030
0200
,
0010
0010
0010
0310
,
0001
1000
0020
0000
0230
0000
0302
0000
,
2003
0000
3100
0000
0020
0000
0031
1000
,
0020
0000
0130
0001
0000
1000
0000
0001
,
0010
0100
0010
0100
0010
0000
0001
1000
,
0010
0100
0010
0100
0000
0110
0000
0001
,
2000
0000
0000
0000
3001
0000
0000
0010
0100
0000
0000
0000
0110
0000
0000
0000
,
1000
0001
1000
0001
0000
1010
0000
0010
,
0200
0000
0301
0000
1000
0010
1000
0001
,
1000
0100
1000
0100
0000
0011
0000
0010
,
0002
0000
0000
0000
1003
0000
0000
0010
0100
0000
0000
0000
0110
0000
0000
0000
,
0010
1000
0010
1000
0000
1010
0000
0001
,
0100
0000
0010
0000
0100
0000
0000
0000
0001
0000
0000
0000
1000
0001
1000
0001
,
2000
0000
3010
0100
0002
0000
1003
0001
,
0020
0000
0031
0100
0000
0010
1000
0000
,
0200
0000
0310
0002
0000
2003
0000
3010
,
0000
0101
0000
1100
0000
0001
1000
0000
,
0020
0000
1030
0001
0000
0001
0010
0100
,
1000
0001
0000
0100
0010
1000
0000
0000
,
0002
0000
0013
0200
0000
2300
0000
3001
,
0000
0011
0000
1100
0000
0010
1000
0001
,
0200
0000
0301
0010
2000
0000
3100
0010
,
0000
0001
1000
0020
0000
1030
0100
0000
,
1000
0000
0001
0200
0000
0320
0000
1030
,
0000
0000
1010
0000
0000
0000
0101
0000
0000
0000
0000
0000
0010
0000
0000
0001
,
1000
0000
0010
1000
0000
0100
0010
0000
,
0110
0000
1001
0000
0001
0100
1000
0000
,
0020
0000
1030
0002
0000
0023
0000
0130
,
1000
0001
1000
0001
0200
0000
0300
0000
,
2010
3100
0012
0103
,
2001
0000
3010
0000
0201
0000
0310
1000
,
0002
0000
0013
0000
0001
0100
2000
0000
,
3010
0100
0010
0100
0000
0001
1000
0000
,
0010
1000
0100
0000
2000
0000
3002
0000
,
0023
0000
0031
0000
0200
0000
0310
1000
,
0001
0010
0001
2000
0000
3020
0000
0230
,
0000
0302
0000
1003
0010
0000
1000
0001
,
0010
0000
0001
0100
0010
0000
1000
0001
,
0100
0000
0010
0100
0010
1000
0001
0000
,
2100
3010
0201
0310
,
1000
0001
0100
0000
0010
1000
0010
1000
,
0002
0103
2000
3100
,
0020
0031
2000
3010
,
0100
0001
0000
0110
0000
1001
0000
0010
,
1000
0100
0010
0001
0100
0010
0100
0010
,
2000
3001
0021
0130
,
2100
3010
1002
0013
,
0210
1300
1001
1010
,
0010
0100
0001
2000
0000
3100
0010
0000
,
0001
0100
0020
2030
,
3002
0013
0200
1300
,
0001
0100
0010
1000
0000
0100
1000
0001
,
0000
0011
0000
1100
0000
0010
0100
0001
,
1000
0000
0010
0100
0001
0000
1000
0100
,
0010
0000
0001
1000
0000
0100
0010
0000
,
2100
3001
0201
0310
,
1000
0000
0000
0100
0000
0000
0001
0000
0000
0000
0000
0000
0010
0000
0000
0000
0010
0000
0100
0000
0000
0000
0100
0000
,
2000
3010
0200
0301
,
0020
0130
0110
1001
,
0001
0100
0001
0100
0000
1010
0000
0010
,
2000
0000
0000
0000
3100
0000
0000
0010
0001
0000
0000
0000
0100
0000
0010
0000
,
1000
0001
0000
0011
0000
1010
0000
0010
,
0100
0000
0001
0010
0001
0000
1000
0100
,
0020
0000
0031
0100
0020
1000
0030
1000
,
0002
0000
0103
0000
1001
0000
1000
0001
,
0200
0000
0320
0000
2030
0000
3001
0200
,
0000
0000
0301
1000
0200
0000
0300
0000
;

//---------------dance-single - ----------------
#NOTES:
     dance-single:
     :
     Hard:
     14:
     :
0000
0000
0000
0000
,
0000
0000
0000
0000
,
0010
0000
0010
0000
,
0010
0000
0010
0000
,
0002
0000
1003
0002
,
0000
0000
0103
0020
,
0000
0000
1030
0200
,
0010
0000
0000
0000
0010
0000
0000
0000
1300
0001
1000
0001
1000
0001
1000
0001
,
0100
0000
0001
0010
1000
0010
0001
0100
,
0020
0000
0000
0000
1030
0000
0100
0000
0002
0000
0000
0000
0013
0000
0001
1000
,
0001
0000
0100
0010
1000
0010
0100
0010
,
1000
0000
0100
0000
0001
0000
0100
0000
1000
0000
0010
0100
0010
0100
0010
0100
,
0001
0001
0010
1100
0000
0011
0000
0110
,
1001
0000
0000
0000
0010
0000
0000
1000
0001
0000
0100
0000
0010
0000
0000
0000
,
1000
1000
0001
0011
0000
1100
0000
1001
,
0110
0000
0000
0000
1000
0000
0010
0000
0100
0001
0100
0000
0001
1000
0001
1000
,
0100
0100
0010
0011
0000
1100
0000
0101
,
1010
0000
0000
0000
0001
0000
1000
0010
1000
0000
0100
0000
0010
0000
0001
0000
,
0100
0100
0010
1010
0000
0101
0000
0110
,
1001
0000
0010
0000
1000
0000
0010
0000
1000
0000
0010
1000
0010
1000
0010
1000
,
0100
0010
0001
0100
0001
0010
1000
0010
,
0100
0010
0001
0100
0010
1000
0001
0000
,
0010
0001
0010
0100
0001
0100
1000
0010
,
0100
0101
0000
1100
0010
1000
0001
0000
,
0100
0010
1000
0001
0010
1000
0010
0100
,
0010
0001
1000
0010
1000
0100
0001
0000
,
0011
0001
0100
0010
1000
0100
0001
0100
,
1000
0000
0010
0000
0100
0000
0010
0000
1000
0000
0001
0100
0001
0100
0001
0100
,
0010
1000
0100
0001
0100
1000
0010
1000
,
0010
0001
0010
1000
0100
0010
0001
0000
,
1000
0010
1000
0100
0001
0100
1000
0010
,
0100
0000
0101
0000
0000
0000
1100
0000
0010
0000
1000
0000
0001
0000
0000
0100
,
0010
1000
0100
0010
0001
0100
1000
0000
,
0020
0000
0000
0000
0230
0000
0000
0000
0301
0000
0010
0000
1000
0000
0100
0010
,
0001
0100
0010
1000
0100
0001
0100
1000
,
0010
0000
0100
0000
0001
0000
1000
0001
0100
0000
0000
0000
0000
0000
0001
1000
,
0020
0000
1030
0100
2001
0000
3010
0100
,
2010
0000
0000
0000
3001
0000
0100
0000
0120
0000
0000
0000
1030
0010
1000
0010
,
0200
0000
0301
0010
1000
0010
0002
0100
,
0103
0000
0010
0000
1000
0000
0001
0000
0010
0000
0001
0000
0100
0000
0010
1000
,
0001
0010
0100
0000
1000
0010
0001
0000
,
0200
0010
0310
1000
0001
0100
0020
0000
,
1030
0100
0001
0100
0010
1000
0010
0001
,
0100
0000
0010
0000
1000
0000
0001
0000
0010
0000
0001
1000
0001
1000
0001
1000
,
0100
0010
0001
0100
0010
1000
0100
1000
,
0001
0100
0010
1000
0100
0010
0001
0000
,
2100
0000
0000
0000
3001
0000
0100
0010
2000
0000
0000
0000
3001
0000
0100
0000
,
0010
0010
0010
1000
0100
0010
0001
1000
,
0002
0103
1020
0130
,
0020
0000
1000
0000
1030
0000
0000
0000
0002
0000
0000
0000
0013
0000
0001
0100
,
0010
1000
0001
0100
1000
0100
0001
0010
,
0100
0000
1000
0000
0001
0000
1000
0000
0001
0000
1000
0010
1000
0010
1000
0010
,
0200
0000
0301
0010
0002
1000
1003
0100
,
0020
0000
0130
1000
0002
0100
0103
0010
,
2000
0001
3001
0010
0001
0100
2000
0000
,
3010
0000
0100
0000
0001
0000
2000
0000
0010
0000
3010
0000
0100
0000
0001
1000
,
0001
0000
0010
0001
0010
0100
1000
0000
,
0002
0010
0013
0100
1000
0010
0200
0000
,
0301
0010
0001
2000
0000
3010
0100
0001
,
1000
0000
0010
0000
0100
0000
0001
0000
0010
0000
0001
1000
0001
1000
0001
1000
,
0100
0000
0010
0001
0100
0010
1000
0001
,
0100
0010
1000
0010
0001
1000
0100
0000
,
0012
0000
0103
0010
1002
0000
1003
0001
,
0010
0000
0000
0100
0000
0000
1000
0000
0000
0010
0000
0000
0100
0000
0001
0000
0100
0000
0010
0000
1000
0000
0001
0000
,
0020
0000
0130
1000
2100
0000
3001
0100
,
0020
0000
1000
0000
1030
0000
0000
0000
0110
0000
0000
0000
0001
0100
0001
0100
,
0010
0010
1000
1100
0000
0011
0000
0101
,
1010
0000
0000
0000
0001
0000
0010
0100
1000
0000
0001
0000
0100
0010
0100
0010
,
1000
1000
0001
0101
0000
1010
0000
1100
,
0011
0000
0000
0000
0100
0000
0010
0000
1000
0001
1000
0001
0010
0001
1000
0001
,
0200
0000
0310
1000
0100
0001
0100
1000
,
0010
0000
0000
0000
0100
0000
0001
0000
0010
0000
0100
0000
1000
0001
1000
0001
,
0100
0010
1000
0001
0010
0100
0110
1001
,
0000
0000
0000
0000
0001
0000
1000
0020
0200
0000
0000
0000
0330
0000
0000
0000
;
